osu file format v14

[General]
AudioFilename: audio.mp3
AudioLeadIn: 0
PreviewTime: 100575
Countdown: 0
SampleSet: Drum
StackLeniency: 0.7
Mode: 3
LetterboxInBreaks: 0
SpecialStyle: 0
WidescreenStoryboard: 1

[Editor]
DistanceSpacing: 0.5
BeatDivisor: 4
GridSize: 4
TimelineZoom: 3.899997

[Metadata]
Title:satori de pon!
TitleUnicode:satori de pon!
Artist:goreshit
ArtistUnicode:goreshit
Creator:Loebad434
Version:4K MX
Source:
Tags:FA Electronic Japanese meggumi Lolicore Speedcore a decade of shit - the very most bearable of goreshit splitshit Toromi とろ美 - 弐.さとりDeポン! RHR-0001 寺ズッキュン!愛の了法寺! 了法寺レコード Ryohoji Records Comic Market 78 C78 Comiket78 コミケ78 コミックマーケット78
BeatmapID:1026633
BeatmapSetID:435015

[Difficulty]
HPDrainRate:8
CircleSize:4
OverallDifficulty:8
ApproachRate:5
SliderMultiplier:1.4
SliderTickRate:1

[Events]
//Background and Video events
0,0,"BG.png",0,0
//Break Periods
//Storyboard Layer 0 (Background)
//Storyboard Layer 1 (Fail)
//Storyboard Layer 2 (Pass)
//Storyboard Layer 3 (Foreground)
//Storyboard Layer 4 (Overlay)
//Storyboard Sound Samples

[TimingPoints]
-567,666.666666666667,4,3,1,100,1,0
0,-38.3141762452107,4,3,1,100,0,0
10703,255.31914893617,4,3,1,100,1,0
10703,-100,4,3,1,100,0,1
43128,-100,4,3,1,100,0,0
100575,-100,4,3,1,100,0,1
125085,-100,4,3,1,100,0,0

[HitObjects]
64,192,99,128,0,432:0:0:0:0:
192,192,99,1,0,0:0:0:0:
320,192,432,128,0,515:0:0:0:0:
192,192,515,128,0,765:0:0:0:0:
448,192,765,128,0,2682:0:0:0:0:
64,192,1432,1,0,0:0:0:0:
192,192,1432,1,0,0:0:0:0:
192,192,2599,1,0,0:0:0:0:
320,192,2682,128,0,2765:0:0:0:0:
64,192,2682,1,0,0:0:0:0:
192,192,2765,128,0,4015:0:0:0:0:
448,192,2765,1,0,0:0:0:0:
320,192,4015,128,0,4099:0:0:0:0:
64,192,4099,128,0,5432:0:0:0:0:
192,192,4099,1,0,0:0:0:0:
448,192,5432,128,0,6765:0:0:0:0:
320,192,5432,1,0,0:0:0:0:
320,192,6765,128,0,8015:0:0:0:0:
192,192,6765,1,0,0:0:0:0:
192,192,7932,1,0,0:0:0:0:
448,192,8015,128,0,8099:0:0:0:0:
64,192,8015,1,0,0:0:0:0:
192,192,8099,128,0,9432:0:0:0:0:
320,192,8099,1,0,0:0:0:0:
64,192,9432,128,0,10265:0:0:0:0:
320,192,9432,1,0,0:0:0:0:
448,192,9599,1,0,0:0:0:0:
320,192,9765,1,0,0:0:0:0:
192,192,9932,1,0,0:0:0:0:
448,192,10099,1,0,0:0:0:0:
320,192,10182,1,0,0:0:0:0:
192,192,10265,1,0,0:0:0:0:
64,192,10349,1,0,0:0:0:0:
448,192,10432,1,0,0:0:0:0:
320,192,10515,1,0,0:0:0:0:
192,192,10599,1,0,0:0:0:0:
64,192,10703,1,0,0:0:0:0:
192,192,10766,1,0,0:0:0:0:
320,192,10830,1,0,0:0:0:0:
448,192,10894,1,0,0:0:0:0:
192,192,10958,1,0,0:0:0:0:
320,192,11022,1,0,0:0:0:0:
64,192,11085,1,0,0:0:0:0:
192,192,11149,1,0,0:0:0:0:
320,192,11213,1,0,0:0:0:0:
448,192,11277,1,0,0:0:0:0:
320,192,11341,1,0,0:0:0:0:
192,192,11405,1,0,0:0:0:0:
448,192,11468,1,0,0:0:0:0:
320,192,11532,1,0,0:0:0:0:
192,192,11596,1,0,0:0:0:0:
64,192,11660,1,0,0:0:0:0:
448,192,11724,1,0,0:0:0:0:
320,192,11788,1,0,0:0:0:0:
192,192,11851,1,0,0:0:0:0:
64,192,11915,1,0,0:0:0:0:
320,192,11979,1,0,0:0:0:0:
192,192,12043,1,0,0:0:0:0:
448,192,12107,1,0,0:0:0:0:
320,192,12171,1,0,0:0:0:0:
192,192,12234,1,0,0:0:0:0:
64,192,12298,1,0,0:0:0:0:
192,192,12362,1,0,0:0:0:0:
320,192,12426,1,0,0:0:0:0:
64,192,12490,1,0,0:0:0:0:
192,192,12554,1,0,0:0:0:0:
320,192,12617,1,0,0:0:0:0:
448,192,12681,1,0,0:0:0:0:
64,192,12745,1,0,0:0:0:0:
192,192,12809,1,0,0:0:0:0:
448,192,12873,1,0,0:0:0:0:
320,192,12937,1,0,0:0:0:0:
64,192,13000,1,0,0:0:0:0:
192,192,13064,1,0,0:0:0:0:
320,192,13128,1,0,0:0:0:0:
448,192,13192,1,0,0:0:0:0:
192,192,13256,1,0,0:0:0:0:
64,192,13320,1,0,0:0:0:0:
448,192,13383,1,0,0:0:0:0:
320,192,13447,1,0,0:0:0:0:
192,192,13511,1,0,0:0:0:0:
64,192,13575,1,0,0:0:0:0:
320,192,13639,1,0,0:0:0:0:
448,192,13702,1,0,0:0:0:0:
64,192,13766,1,0,0:0:0:0:
192,192,13830,1,0,0:0:0:0:
320,192,13894,1,0,0:0:0:0:
192,192,13958,1,0,0:0:0:0:
64,192,14022,1,0,0:0:0:0:
192,192,14085,1,0,0:0:0:0:
320,192,14149,1,0,0:0:0:0:
192,192,14213,1,0,0:0:0:0:
448,192,14277,1,0,0:0:0:0:
320,192,14341,1,0,0:0:0:0:
192,192,14405,1,0,0:0:0:0:
320,192,14468,1,0,0:0:0:0:
448,192,14532,1,0,0:0:0:0:
320,192,14596,1,0,0:0:0:0:
192,192,14660,1,0,0:0:0:0:
320,192,14724,1,0,0:0:0:0:
64,192,14788,1,0,0:0:0:0:
192,192,14851,1,0,0:0:0:0:
320,192,14915,1,0,0:0:0:0:
448,192,14979,1,0,0:0:0:0:
192,192,15043,1,0,0:0:0:0:
320,192,15107,1,0,0:0:0:0:
64,192,15171,1,0,0:0:0:0:
192,192,15234,1,0,0:0:0:0:
320,192,15298,1,0,0:0:0:0:
448,192,15362,1,0,0:0:0:0:
320,192,15426,1,0,0:0:0:0:
192,192,15490,1,0,0:0:0:0:
448,192,15554,1,0,0:0:0:0:
320,192,15617,1,0,0:0:0:0:
192,192,15681,1,0,0:0:0:0:
64,192,15745,1,0,0:0:0:0:
448,192,15809,1,0,0:0:0:0:
320,192,15873,1,0,0:0:0:0:
192,192,15937,1,0,0:0:0:0:
64,192,16000,1,0,0:0:0:0:
320,192,16064,1,0,0:0:0:0:
192,192,16128,1,0,0:0:0:0:
448,192,16192,1,0,0:0:0:0:
320,192,16256,1,0,0:0:0:0:
192,192,16320,1,0,0:0:0:0:
64,192,16383,1,0,0:0:0:0:
192,192,16447,1,0,0:0:0:0:
320,192,16511,1,0,0:0:0:0:
64,192,16575,1,0,0:0:0:0:
192,192,16639,1,0,0:0:0:0:
320,192,16702,1,0,0:0:0:0:
448,192,16766,1,0,0:0:0:0:
64,192,16830,1,0,0:0:0:0:
192,192,16894,1,0,0:0:0:0:
448,192,16958,1,0,0:0:0:0:
320,192,17022,1,0,0:0:0:0:
64,192,17085,1,0,0:0:0:0:
192,192,17149,1,0,0:0:0:0:
320,192,17213,1,0,0:0:0:0:
448,192,17277,1,0,0:0:0:0:
192,192,17341,1,0,0:0:0:0:
64,192,17405,1,0,0:0:0:0:
448,192,17468,1,0,0:0:0:0:
320,192,17532,1,0,0:0:0:0:
192,192,17596,1,0,0:0:0:0:
64,192,17660,1,0,0:0:0:0:
320,192,17724,1,0,0:0:0:0:
448,192,17788,1,0,0:0:0:0:
64,192,17851,1,0,0:0:0:0:
192,192,17915,1,0,0:0:0:0:
320,192,17979,1,0,0:0:0:0:
448,192,18043,1,0,0:0:0:0:
64,192,18107,1,0,0:0:0:0:
192,192,18171,1,0,0:0:0:0:
320,192,18234,1,0,0:0:0:0:
448,192,18298,1,0,0:0:0:0:
64,192,18362,1,0,0:0:0:0:
192,192,18426,1,0,0:0:0:0:
320,192,18490,1,0,0:0:0:0:
448,192,18554,1,0,0:0:0:0:
64,192,18617,1,0,0:0:0:0:
192,192,18681,1,0,0:0:0:0:
320,192,18745,1,0,0:0:0:0:
448,192,18809,1,0,0:0:0:0:
64,192,18873,1,0,0:0:0:0:
192,192,18937,1,0,0:0:0:0:
320,192,19000,1,0,0:0:0:0:
448,192,19064,1,0,0:0:0:0:
192,192,19128,1,0,0:0:0:0:
320,192,19192,1,0,0:0:0:0:
64,192,19256,1,0,0:0:0:0:
192,192,19320,1,0,0:0:0:0:
320,192,19383,1,0,0:0:0:0:
448,192,19447,1,0,0:0:0:0:
320,192,19511,1,0,0:0:0:0:
192,192,19575,1,0,0:0:0:0:
448,192,19639,1,0,0:0:0:0:
320,192,19702,1,0,0:0:0:0:
192,192,19766,1,0,0:0:0:0:
64,192,19830,1,0,0:0:0:0:
448,192,19894,1,0,0:0:0:0:
320,192,19958,1,0,0:0:0:0:
192,192,20022,1,0,0:0:0:0:
64,192,20085,1,0,0:0:0:0:
320,192,20149,1,0,0:0:0:0:
192,192,20213,1,0,0:0:0:0:
448,192,20277,1,0,0:0:0:0:
320,192,20341,1,0,0:0:0:0:
192,192,20405,1,0,0:0:0:0:
64,192,20468,1,0,0:0:0:0:
192,192,20532,1,0,0:0:0:0:
320,192,20596,1,0,0:0:0:0:
64,192,20660,1,0,0:0:0:0:
192,192,20724,1,0,0:0:0:0:
320,192,20788,1,0,0:0:0:0:
448,192,20851,1,0,0:0:0:0:
64,192,20915,1,0,0:0:0:0:
192,192,20979,1,0,0:0:0:0:
448,192,21043,1,0,0:0:0:0:
320,192,21107,1,0,0:0:0:0:
64,192,21171,1,0,0:0:0:0:
192,192,21234,1,0,0:0:0:0:
320,192,21298,1,0,0:0:0:0:
448,192,21362,1,0,0:0:0:0:
192,192,21426,1,0,0:0:0:0:
64,192,21490,1,0,0:0:0:0:
448,192,21554,1,0,0:0:0:0:
320,192,21617,1,0,0:0:0:0:
192,192,21681,1,0,0:0:0:0:
64,192,21745,1,0,0:0:0:0:
320,192,21809,1,0,0:0:0:0:
448,192,21873,1,0,0:0:0:0:
64,192,21937,1,0,0:0:0:0:
192,192,22000,1,0,0:0:0:0:
320,192,22064,1,0,0:0:0:0:
192,192,22128,1,0,0:0:0:0:
64,192,22192,1,0,0:0:0:0:
192,192,22256,1,0,0:0:0:0:
320,192,22320,1,0,0:0:0:0:
192,192,22383,1,0,0:0:0:0:
448,192,22447,1,0,0:0:0:0:
320,192,22511,1,0,0:0:0:0:
192,192,22575,1,0,0:0:0:0:
320,192,22639,1,0,0:0:0:0:
448,192,22702,1,0,0:0:0:0:
320,192,22766,1,0,0:0:0:0:
192,192,22830,1,0,0:0:0:0:
320,192,22894,1,0,0:0:0:0:
448,192,22958,1,0,0:0:0:0:
320,192,23022,1,0,0:0:0:0:
192,192,23085,1,0,0:0:0:0:
64,192,23149,1,0,0:0:0:0:
320,192,23213,1,0,0:0:0:0:
192,192,23277,1,0,0:0:0:0:
448,192,23341,1,0,0:0:0:0:
320,192,23405,1,0,0:0:0:0:
192,192,23468,1,0,0:0:0:0:
64,192,23532,1,0,0:0:0:0:
192,192,23596,1,0,0:0:0:0:
320,192,23660,1,0,0:0:0:0:
64,192,23724,1,0,0:0:0:0:
192,192,23788,1,0,0:0:0:0:
320,192,23851,1,0,0:0:0:0:
448,192,23915,1,0,0:0:0:0:
64,192,23979,1,0,0:0:0:0:
192,192,24043,1,0,0:0:0:0:
320,192,24107,1,0,0:0:0:0:
448,192,24171,1,0,0:0:0:0:
192,192,24234,1,0,0:0:0:0:
320,192,24298,1,0,0:0:0:0:
64,192,24362,1,0,0:0:0:0:
192,192,24426,1,0,0:0:0:0:
320,192,24490,1,0,0:0:0:0:
448,192,24554,1,0,0:0:0:0:
320,192,24617,1,0,0:0:0:0:
192,192,24681,1,0,0:0:0:0:
448,192,24745,1,0,0:0:0:0:
320,192,24809,1,0,0:0:0:0:
192,192,24873,1,0,0:0:0:0:
64,192,24937,1,0,0:0:0:0:
448,192,25000,1,0,0:0:0:0:
320,192,25064,1,0,0:0:0:0:
64,192,25128,1,0,0:0:0:0:
192,192,25192,1,0,0:0:0:0:
448,192,25256,1,0,0:0:0:0:
320,192,25320,1,0,0:0:0:0:
192,192,25383,1,0,0:0:0:0:
64,192,25447,1,0,0:0:0:0:
320,192,25511,1,0,0:0:0:0:
448,192,25575,1,0,0:0:0:0:
64,192,25639,1,0,0:0:0:0:
192,192,25702,1,0,0:0:0:0:
320,192,25766,1,0,0:0:0:0:
448,192,25830,1,0,0:0:0:0:
192,192,25894,1,0,0:0:0:0:
64,192,25958,1,0,0:0:0:0:
448,192,26022,1,0,0:0:0:0:
320,192,26085,1,0,0:0:0:0:
64,192,26149,1,0,0:0:0:0:
192,192,26213,1,0,0:0:0:0:
448,192,26277,1,0,0:0:0:0:
320,192,26341,1,0,0:0:0:0:
64,192,26405,1,0,0:0:0:0:
192,192,26468,1,0,0:0:0:0:
448,192,26532,1,0,0:0:0:0:
320,192,26532,1,0,0:0:0:0:
64,192,26660,1,0,0:0:0:0:
192,192,26660,1,0,0:0:0:0:
448,192,26724,1,0,0:0:0:0:
320,192,26724,1,0,0:0:0:0:
192,192,26788,1,0,0:0:0:0:
64,192,26788,1,0,0:0:0:0:
320,192,26915,1,0,0:0:0:0:
448,192,26915,1,0,0:0:0:0:
64,192,27043,1,0,0:0:0:0:
192,192,27107,1,0,0:0:0:0:
320,192,27171,1,0,0:0:0:0:
192,192,27234,1,0,0:0:0:0:
320,192,27298,1,0,0:0:0:0:
448,192,27362,1,0,0:0:0:0:
64,192,27426,1,0,0:0:0:0:
192,192,27490,1,0,0:0:0:0:
448,192,27554,1,0,0:0:0:0:
320,192,27617,1,0,0:0:0:0:
192,192,27681,1,0,0:0:0:0:
320,192,27745,1,0,0:0:0:0:
192,192,27809,1,0,0:0:0:0:
64,192,27873,1,0,0:0:0:0:
448,192,27937,1,0,0:0:0:0:
320,192,28000,1,0,0:0:0:0:
64,192,28064,1,0,0:0:0:0:
192,192,28128,1,0,0:0:0:0:
320,192,28192,1,0,0:0:0:0:
448,192,28256,1,0,0:0:0:0:
192,192,28320,1,0,0:0:0:0:
320,192,28383,1,0,0:0:0:0:
448,192,28447,1,0,0:0:0:0:
320,192,28511,1,0,0:0:0:0:
192,192,28575,1,0,0:0:0:0:
64,192,28639,1,0,0:0:0:0:
320,192,28702,1,0,0:0:0:0:
192,192,28766,1,0,0:0:0:0:
64,192,28830,1,0,0:0:0:0:
192,192,28894,1,0,0:0:0:0:
320,192,28958,1,0,0:0:0:0:
448,192,29022,1,0,0:0:0:0:
192,192,29085,1,0,0:0:0:0:
64,192,29149,1,0,0:0:0:0:
320,192,29213,1,0,0:0:0:0:
448,192,29277,1,0,0:0:0:0:
64,192,29341,1,0,0:0:0:0:
192,192,29405,1,0,0:0:0:0:
448,192,29468,1,0,0:0:0:0:
320,192,29532,1,0,0:0:0:0:
64,192,29596,1,0,0:0:0:0:
192,192,29660,1,0,0:0:0:0:
320,192,29724,1,0,0:0:0:0:
448,192,29788,1,0,0:0:0:0:
64,192,29851,1,0,0:0:0:0:
192,192,29915,1,0,0:0:0:0:
320,192,29979,1,0,0:0:0:0:
448,192,30043,1,0,0:0:0:0:
64,192,30107,1,0,0:0:0:0:
192,192,30171,1,0,0:0:0:0:
320,192,30234,1,0,0:0:0:0:
448,192,30298,1,0,0:0:0:0:
320,192,30362,1,0,0:0:0:0:
192,192,30426,1,0,0:0:0:0:
64,192,30490,1,0,0:0:0:0:
192,192,30554,1,0,0:0:0:0:
448,192,30617,1,0,0:0:0:0:
320,192,30681,1,0,0:0:0:0:
64,192,30745,1,0,0:0:0:0:
192,192,30809,1,0,0:0:0:0:
448,192,30873,1,0,0:0:0:0:
320,192,30873,1,0,0:0:0:0:
64,192,31000,1,0,0:0:0:0:
192,192,31000,1,0,0:0:0:0:
448,192,31128,1,0,0:0:0:0:
320,192,31192,1,0,0:0:0:0:
192,192,31256,1,0,0:0:0:0:
320,192,31320,1,0,0:0:0:0:
192,192,31383,1,0,0:0:0:0:
64,192,31447,1,0,0:0:0:0:
448,192,31511,1,0,0:0:0:0:
320,192,31575,1,0,0:0:0:0:
64,192,31639,1,0,0:0:0:0:
192,192,31702,1,0,0:0:0:0:
320,192,31766,1,0,0:0:0:0:
192,192,31830,1,0,0:0:0:0:
320,192,31894,1,0,0:0:0:0:
448,192,31958,1,0,0:0:0:0:
64,192,32022,1,0,0:0:0:0:
192,192,32085,1,0,0:0:0:0:
448,192,32149,1,0,0:0:0:0:
320,192,32213,1,0,0:0:0:0:
192,192,32277,1,0,0:0:0:0:
64,192,32341,1,0,0:0:0:0:
320,192,32405,1,0,0:0:0:0:
192,192,32468,1,0,0:0:0:0:
64,192,32532,1,0,0:0:0:0:
192,192,32596,1,0,0:0:0:0:
320,192,32660,1,0,0:0:0:0:
448,192,32724,1,0,0:0:0:0:
192,192,32788,1,0,0:0:0:0:
320,192,32851,1,0,0:0:0:0:
448,192,32915,1,0,0:0:0:0:
320,192,32979,1,0,0:0:0:0:
192,192,33043,1,0,0:0:0:0:
64,192,33107,1,0,0:0:0:0:
320,192,33171,1,0,0:0:0:0:
448,192,33234,1,0,0:0:0:0:
192,192,33298,1,0,0:0:0:0:
64,192,33362,1,0,0:0:0:0:
448,192,33426,1,0,0:0:0:0:
320,192,33490,1,0,0:0:0:0:
64,192,33554,1,0,0:0:0:0:
192,192,33617,1,0,0:0:0:0:
448,192,33681,1,0,0:0:0:0:
320,192,33745,1,0,0:0:0:0:
192,192,33809,1,0,0:0:0:0:
64,192,33873,1,0,0:0:0:0:
448,192,33937,1,0,0:0:0:0:
320,192,34000,1,0,0:0:0:0:
192,192,34064,1,0,0:0:0:0:
64,192,34128,1,0,0:0:0:0:
192,192,34192,1,0,0:0:0:0:
320,192,34256,1,0,0:0:0:0:
192,192,34320,1,0,0:0:0:0:
64,192,34383,1,0,0:0:0:0:
448,192,34447,1,0,0:0:0:0:
320,192,34511,1,0,0:0:0:0:
192,192,34575,1,0,0:0:0:0:
64,192,34639,1,0,0:0:0:0:
448,192,34702,1,0,0:0:0:0:
320,192,34702,1,0,0:0:0:0:
192,192,34830,1,0,0:0:0:0:
64,192,34830,1,0,0:0:0:0:
320,192,34894,1,0,0:0:0:0:
448,192,34894,1,0,0:0:0:0:
192,192,34958,1,0,0:0:0:0:
64,192,34958,1,0,0:0:0:0:
320,192,35085,1,0,0:0:0:0:
448,192,35085,1,0,0:0:0:0:
64,192,35213,1,0,0:0:0:0:
192,192,35277,1,0,0:0:0:0:
320,192,35341,1,0,0:0:0:0:
192,192,35405,1,0,0:0:0:0:
320,192,35468,1,0,0:0:0:0:
448,192,35532,1,0,0:0:0:0:
64,192,35596,1,0,0:0:0:0:
192,192,35660,1,0,0:0:0:0:
448,192,35724,1,0,0:0:0:0:
320,192,35788,1,0,0:0:0:0:
192,192,35851,1,0,0:0:0:0:
320,192,35915,1,0,0:0:0:0:
192,192,35979,1,0,0:0:0:0:
64,192,36043,1,0,0:0:0:0:
448,192,36107,1,0,0:0:0:0:
320,192,36171,1,0,0:0:0:0:
64,192,36234,1,0,0:0:0:0:
192,192,36298,1,0,0:0:0:0:
320,192,36362,1,0,0:0:0:0:
448,192,36426,1,0,0:0:0:0:
192,192,36490,1,0,0:0:0:0:
320,192,36554,1,0,0:0:0:0:
448,192,36617,1,0,0:0:0:0:
320,192,36681,1,0,0:0:0:0:
192,192,36745,1,0,0:0:0:0:
64,192,36809,1,0,0:0:0:0:
320,192,36873,1,0,0:0:0:0:
192,192,36937,1,0,0:0:0:0:
64,192,37000,1,0,0:0:0:0:
192,192,37064,1,0,0:0:0:0:
320,192,37128,1,0,0:0:0:0:
448,192,37192,1,0,0:0:0:0:
192,192,37256,1,0,0:0:0:0:
64,192,37320,1,0,0:0:0:0:
320,192,37383,1,0,0:0:0:0:
448,192,37447,1,0,0:0:0:0:
64,192,37511,1,0,0:0:0:0:
192,192,37575,1,0,0:0:0:0:
448,192,37639,1,0,0:0:0:0:
320,192,37702,1,0,0:0:0:0:
64,192,37766,1,0,0:0:0:0:
192,192,37830,1,0,0:0:0:0:
320,192,37894,1,0,0:0:0:0:
448,192,37958,1,0,0:0:0:0:
64,192,38022,1,0,0:0:0:0:
192,192,38085,1,0,0:0:0:0:
320,192,38149,1,0,0:0:0:0:
448,192,38213,1,0,0:0:0:0:
192,192,38277,1,0,0:0:0:0:
320,192,38341,1,0,0:0:0:0:
448,192,38405,1,0,0:0:0:0:
64,192,38468,1,0,0:0:0:0:
192,192,38532,1,0,0:0:0:0:
320,192,38596,1,0,0:0:0:0:
448,192,38660,1,0,0:0:0:0:
320,192,38724,1,0,0:0:0:0:
64,192,38788,1,0,0:0:0:0:
192,192,38851,1,0,0:0:0:0:
448,192,38915,1,0,0:0:0:0:
320,192,38979,1,0,0:0:0:0:
64,192,39043,1,0,0:0:0:0:
192,192,39043,1,0,0:0:0:0:
448,192,39171,1,0,0:0:0:0:
320,192,39171,1,0,0:0:0:0:
64,192,39298,1,0,0:0:0:0:
192,192,39362,1,0,0:0:0:0:
320,192,39426,1,0,0:0:0:0:
192,192,39490,1,0,0:0:0:0:
320,192,39554,1,0,0:0:0:0:
448,192,39617,1,0,0:0:0:0:
64,192,39681,1,0,0:0:0:0:
192,192,39745,1,0,0:0:0:0:
448,192,39809,1,0,0:0:0:0:
320,192,39873,1,0,0:0:0:0:
192,192,39937,1,0,0:0:0:0:
320,192,40000,1,0,0:0:0:0:
192,192,40064,1,0,0:0:0:0:
64,192,40128,1,0,0:0:0:0:
448,192,40192,1,0,0:0:0:0:
320,192,40256,1,0,0:0:0:0:
64,192,40320,1,0,0:0:0:0:
192,192,40383,1,0,0:0:0:0:
320,192,40447,1,0,0:0:0:0:
448,192,40511,1,0,0:0:0:0:
192,192,40575,1,0,0:0:0:0:
320,192,40639,1,0,0:0:0:0:
448,192,40702,1,0,0:0:0:0:
320,192,40766,1,0,0:0:0:0:
192,192,40830,1,0,0:0:0:0:
64,192,40894,1,0,0:0:0:0:
320,192,40958,1,0,0:0:0:0:
192,192,41022,1,0,0:0:0:0:
64,192,41085,1,0,0:0:0:0:
192,192,41149,1,0,0:0:0:0:
320,192,41213,1,0,0:0:0:0:
448,192,41277,1,0,0:0:0:0:
192,192,41341,1,0,0:0:0:0:
64,192,41405,1,0,0:0:0:0:
320,192,41468,1,0,0:0:0:0:
448,192,41532,1,0,0:0:0:0:
64,192,41596,1,0,0:0:0:0:
192,192,41660,1,0,0:0:0:0:
448,192,41724,1,0,0:0:0:0:
320,192,41788,1,0,0:0:0:0:
64,192,41851,1,0,0:0:0:0:
192,192,41915,1,0,0:0:0:0:
320,192,41979,1,0,0:0:0:0:
448,192,42043,1,0,0:0:0:0:
64,192,42107,1,0,0:0:0:0:
192,192,42171,1,0,0:0:0:0:
320,192,42234,1,0,0:0:0:0:
448,192,42298,1,0,0:0:0:0:
64,192,42362,128,0,42873:0:0:0:0:
192,192,42362,1,0,0:0:0:0:
320,192,42426,1,0,0:0:0:0:
448,192,42490,1,0,0:0:0:0:
320,192,42554,1,0,0:0:0:0:
192,192,42617,1,0,0:0:0:0:
320,192,42681,1,0,0:0:0:0:
448,192,42745,1,0,0:0:0:0:
192,192,42809,1,0,0:0:0:0:
320,192,42873,1,0,0:0:0:0:
448,192,42873,1,0,0:0:0:0:
320,192,43000,1,0,0:0:0:0:
192,192,43000,1,0,0:0:0:0:
192,192,43128,1,0,0:0:0:0:
64,192,43128,1,0,0:0:0:0:
192,192,43256,1,0,0:0:0:0:
320,192,43256,1,0,0:0:0:0:
448,192,43383,1,0,0:0:0:0:
320,192,43447,1,0,0:0:0:0:
192,192,43511,1,0,0:0:0:0:
64,192,43575,1,0,0:0:0:0:
320,192,43639,1,0,0:0:0:0:
192,192,43702,1,0,0:0:0:0:
448,192,43766,1,0,0:0:0:0:
320,192,43830,1,0,0:0:0:0:
192,192,43894,1,0,0:0:0:0:
64,192,43958,1,0,0:0:0:0:
192,192,44022,1,0,0:0:0:0:
320,192,44085,1,0,0:0:0:0:
64,192,44149,1,0,0:0:0:0:
192,192,44213,1,0,0:0:0:0:
320,192,44277,1,0,0:0:0:0:
448,192,44341,1,0,0:0:0:0:
64,192,44405,1,0,0:0:0:0:
192,192,44468,1,0,0:0:0:0:
320,192,44532,1,0,0:0:0:0:
448,192,44596,1,0,0:0:0:0:
192,192,44660,1,0,0:0:0:0:
320,192,44724,1,0,0:0:0:0:
64,192,44788,1,0,0:0:0:0:
192,192,44851,1,0,0:0:0:0:
320,192,44915,1,0,0:0:0:0:
448,192,44979,1,0,0:0:0:0:
320,192,45043,1,0,0:0:0:0:
192,192,45107,1,0,0:0:0:0:
448,192,45171,1,0,0:0:0:0:
320,192,45234,1,0,0:0:0:0:
192,192,45298,1,0,0:0:0:0:
64,192,45362,1,0,0:0:0:0:
448,192,45426,1,0,0:0:0:0:
320,192,45490,1,0,0:0:0:0:
64,192,45554,1,0,0:0:0:0:
192,192,45617,1,0,0:0:0:0:
448,192,45681,1,0,0:0:0:0:
320,192,45745,1,0,0:0:0:0:
192,192,45809,1,0,0:0:0:0:
64,192,45873,1,0,0:0:0:0:
320,192,45937,1,0,0:0:0:0:
448,192,46000,1,0,0:0:0:0:
64,192,46064,1,0,0:0:0:0:
192,192,46128,1,0,0:0:0:0:
320,192,46192,1,0,0:0:0:0:
448,192,46256,1,0,0:0:0:0:
192,192,46320,1,0,0:0:0:0:
64,192,46383,1,0,0:0:0:0:
448,192,46447,1,0,0:0:0:0:
320,192,46511,1,0,0:0:0:0:
192,192,46575,1,0,0:0:0:0:
320,192,46639,1,0,0:0:0:0:
448,192,46702,1,0,0:0:0:0:
320,192,46766,1,0,0:0:0:0:
192,192,46830,1,0,0:0:0:0:
320,192,46894,1,0,0:0:0:0:
64,192,46958,1,0,0:0:0:0:
192,192,47022,1,0,0:0:0:0:
320,192,47085,1,0,0:0:0:0:
192,192,47149,1,0,0:0:0:0:
320,192,47213,1,0,0:0:0:0:
448,192,47213,1,0,0:0:0:0:
192,192,47341,1,0,0:0:0:0:
64,192,47341,1,0,0:0:0:0:
448,192,47468,1,0,0:0:0:0:
320,192,47468,1,0,0:0:0:0:
64,192,47532,1,0,0:0:0:0:
192,192,47596,1,0,0:0:0:0:
320,192,47660,1,0,0:0:0:0:
64,192,47724,1,0,0:0:0:0:
192,192,47788,1,0,0:0:0:0:
448,192,47851,1,0,0:0:0:0:
320,192,47915,1,0,0:0:0:0:
192,192,47979,1,0,0:0:0:0:
64,192,48043,1,0,0:0:0:0:
192,192,48107,1,0,0:0:0:0:
320,192,48171,1,0,0:0:0:0:
64,192,48234,1,0,0:0:0:0:
192,192,48298,1,0,0:0:0:0:
320,192,48362,1,0,0:0:0:0:
448,192,48426,1,0,0:0:0:0:
64,192,48490,1,0,0:0:0:0:
192,192,48554,1,0,0:0:0:0:
320,192,48617,1,0,0:0:0:0:
448,192,48681,1,0,0:0:0:0:
192,192,48745,1,0,0:0:0:0:
320,192,48809,1,0,0:0:0:0:
64,192,48873,1,0,0:0:0:0:
192,192,48937,1,0,0:0:0:0:
320,192,49000,1,0,0:0:0:0:
448,192,49064,1,0,0:0:0:0:
320,192,49128,1,0,0:0:0:0:
192,192,49192,1,0,0:0:0:0:
448,192,49256,1,0,0:0:0:0:
320,192,49320,1,0,0:0:0:0:
192,192,49383,1,0,0:0:0:0:
64,192,49447,1,0,0:0:0:0:
448,192,49511,1,0,0:0:0:0:
320,192,49575,1,0,0:0:0:0:
64,192,49639,1,0,0:0:0:0:
192,192,49702,1,0,0:0:0:0:
448,192,49766,1,0,0:0:0:0:
320,192,49830,1,0,0:0:0:0:
192,192,49894,1,0,0:0:0:0:
64,192,49958,1,0,0:0:0:0:
320,192,50022,1,0,0:0:0:0:
448,192,50085,1,0,0:0:0:0:
64,192,50149,1,0,0:0:0:0:
192,192,50213,1,0,0:0:0:0:
320,192,50277,1,0,0:0:0:0:
448,192,50341,1,0,0:0:0:0:
192,192,50405,1,0,0:0:0:0:
64,192,50468,1,0,0:0:0:0:
448,192,50532,1,0,0:0:0:0:
320,192,50596,1,0,0:0:0:0:
192,192,50660,1,0,0:0:0:0:
64,192,50724,1,0,0:0:0:0:
448,192,50788,1,0,0:0:0:0:
320,192,50851,1,0,0:0:0:0:
192,192,50915,1,0,0:0:0:0:
64,192,50979,1,0,0:0:0:0:
448,192,51043,1,0,0:0:0:0:
320,192,51043,1,0,0:0:0:0:
64,192,51171,1,0,0:0:0:0:
192,192,51171,1,0,0:0:0:0:
320,192,51234,1,0,0:0:0:0:
448,192,51234,1,0,0:0:0:0:
64,192,51298,1,0,0:0:0:0:
192,192,51298,1,0,0:0:0:0:
320,192,51426,1,0,0:0:0:0:
448,192,51426,1,0,0:0:0:0:
64,192,51554,1,0,0:0:0:0:
192,192,51617,1,0,0:0:0:0:
320,192,51681,1,0,0:0:0:0:
448,192,51745,1,0,0:0:0:0:
192,192,51809,1,0,0:0:0:0:
320,192,51873,1,0,0:0:0:0:
64,192,51937,1,0,0:0:0:0:
192,192,52000,1,0,0:0:0:0:
320,192,52064,1,0,0:0:0:0:
448,192,52128,1,0,0:0:0:0:
320,192,52192,1,0,0:0:0:0:
192,192,52256,1,0,0:0:0:0:
448,192,52320,1,0,0:0:0:0:
320,192,52383,1,0,0:0:0:0:
192,192,52447,1,0,0:0:0:0:
64,192,52511,1,0,0:0:0:0:
448,192,52575,1,0,0:0:0:0:
320,192,52639,1,0,0:0:0:0:
192,192,52702,1,0,0:0:0:0:
64,192,52766,1,0,0:0:0:0:
320,192,52830,1,0,0:0:0:0:
192,192,52894,1,0,0:0:0:0:
448,192,52958,1,0,0:0:0:0:
320,192,53022,1,0,0:0:0:0:
192,192,53085,1,0,0:0:0:0:
64,192,53149,1,0,0:0:0:0:
192,192,53213,1,0,0:0:0:0:
320,192,53277,1,0,0:0:0:0:
64,192,53341,1,0,0:0:0:0:
192,192,53405,1,0,0:0:0:0:
320,192,53468,1,0,0:0:0:0:
448,192,53532,1,0,0:0:0:0:
64,192,53596,1,0,0:0:0:0:
192,192,53660,1,0,0:0:0:0:
448,192,53724,1,0,0:0:0:0:
320,192,53788,1,0,0:0:0:0:
64,192,53851,1,0,0:0:0:0:
192,192,53915,1,0,0:0:0:0:
320,192,53979,1,0,0:0:0:0:
448,192,54043,1,0,0:0:0:0:
192,192,54107,1,0,0:0:0:0:
64,192,54171,1,0,0:0:0:0:
448,192,54234,1,0,0:0:0:0:
320,192,54298,1,0,0:0:0:0:
192,192,54362,1,0,0:0:0:0:
64,192,54426,1,0,0:0:0:0:
320,192,54490,1,0,0:0:0:0:
448,192,54554,1,0,0:0:0:0:
64,192,54617,1,0,0:0:0:0:
192,192,54681,1,0,0:0:0:0:
320,192,54745,1,0,0:0:0:0:
192,192,54809,1,0,0:0:0:0:
64,192,54873,1,0,0:0:0:0:
192,192,54937,1,0,0:0:0:0:
320,192,55000,1,0,0:0:0:0:
192,192,55064,1,0,0:0:0:0:
448,192,55128,1,0,0:0:0:0:
320,192,55192,1,0,0:0:0:0:
192,192,55256,1,0,0:0:0:0:
320,192,55320,1,0,0:0:0:0:
64,192,55383,1,0,0:0:0:0:
192,192,55383,1,0,0:0:0:0:
320,192,55511,1,0,0:0:0:0:
448,192,55511,1,0,0:0:0:0:
64,192,55639,1,0,0:0:0:0:
192,192,55639,1,0,0:0:0:0:
448,192,55702,1,0,0:0:0:0:
320,192,55766,1,0,0:0:0:0:
448,192,55830,1,0,0:0:0:0:
192,192,55894,1,0,0:0:0:0:
320,192,55958,1,0,0:0:0:0:
64,192,56022,1,0,0:0:0:0:
192,192,56085,1,0,0:0:0:0:
320,192,56149,1,0,0:0:0:0:
448,192,56213,1,0,0:0:0:0:
320,192,56277,1,0,0:0:0:0:
192,192,56341,1,0,0:0:0:0:
448,192,56405,1,0,0:0:0:0:
320,192,56468,1,0,0:0:0:0:
192,192,56532,1,0,0:0:0:0:
64,192,56596,1,0,0:0:0:0:
448,192,56660,1,0,0:0:0:0:
320,192,56724,1,0,0:0:0:0:
192,192,56788,1,0,0:0:0:0:
64,192,56851,1,0,0:0:0:0:
320,192,56915,1,0,0:0:0:0:
192,192,56979,1,0,0:0:0:0:
448,192,57043,1,0,0:0:0:0:
320,192,57107,1,0,0:0:0:0:
192,192,57171,1,0,0:0:0:0:
64,192,57234,1,0,0:0:0:0:
192,192,57298,1,0,0:0:0:0:
320,192,57362,1,0,0:0:0:0:
64,192,57426,1,0,0:0:0:0:
192,192,57490,1,0,0:0:0:0:
320,192,57554,1,0,0:0:0:0:
448,192,57617,1,0,0:0:0:0:
64,192,57681,1,0,0:0:0:0:
192,192,57745,1,0,0:0:0:0:
448,192,57809,1,0,0:0:0:0:
320,192,57873,1,0,0:0:0:0:
64,192,57937,1,0,0:0:0:0:
192,192,58000,1,0,0:0:0:0:
320,192,58064,1,0,0:0:0:0:
448,192,58128,1,0,0:0:0:0:
192,192,58192,1,0,0:0:0:0:
64,192,58256,1,0,0:0:0:0:
448,192,58320,1,0,0:0:0:0:
320,192,58383,1,0,0:0:0:0:
192,192,58447,1,0,0:0:0:0:
64,192,58511,1,0,0:0:0:0:
320,192,58575,1,0,0:0:0:0:
448,192,58639,1,0,0:0:0:0:
64,192,58702,1,0,0:0:0:0:
192,192,58766,1,0,0:0:0:0:
448,192,58830,1,0,0:0:0:0:
320,192,58894,1,0,0:0:0:0:
64,192,58958,1,0,0:0:0:0:
192,192,59022,1,0,0:0:0:0:
448,192,59085,1,0,0:0:0:0:
320,192,59149,1,0,0:0:0:0:
64,192,59213,1,0,0:0:0:0:
192,192,59213,1,0,0:0:0:0:
448,192,59341,1,0,0:0:0:0:
320,192,59341,1,0,0:0:0:0:
192,192,59405,1,0,0:0:0:0:
64,192,59405,1,0,0:0:0:0:
320,192,59468,1,0,0:0:0:0:
448,192,59468,1,0,0:0:0:0:
192,192,59596,1,0,0:0:0:0:
64,192,59596,1,0,0:0:0:0:
448,192,59724,1,0,0:0:0:0:
320,192,59788,1,0,0:0:0:0:
192,192,59851,1,0,0:0:0:0:
320,192,59915,1,0,0:0:0:0:
192,192,59979,1,0,0:0:0:0:
64,192,60043,1,0,0:0:0:0:
448,192,60107,1,0,0:0:0:0:
320,192,60171,1,0,0:0:0:0:
64,192,60234,1,0,0:0:0:0:
192,192,60298,1,0,0:0:0:0:
320,192,60362,1,0,0:0:0:0:
192,192,60426,1,0,0:0:0:0:
320,192,60490,1,0,0:0:0:0:
448,192,60554,1,0,0:0:0:0:
64,192,60617,1,0,0:0:0:0:
192,192,60681,1,0,0:0:0:0:
448,192,60745,1,0,0:0:0:0:
320,192,60809,1,0,0:0:0:0:
192,192,60873,1,0,0:0:0:0:
64,192,60937,1,0,0:0:0:0:
320,192,61000,1,0,0:0:0:0:
192,192,61064,1,0,0:0:0:0:
64,192,61128,1,0,0:0:0:0:
192,192,61192,1,0,0:0:0:0:
320,192,61256,1,0,0:0:0:0:
448,192,61320,1,0,0:0:0:0:
192,192,61383,1,0,0:0:0:0:
320,192,61447,1,0,0:0:0:0:
448,192,61511,1,0,0:0:0:0:
320,192,61575,1,0,0:0:0:0:
192,192,61639,1,0,0:0:0:0:
64,192,61702,1,0,0:0:0:0:
320,192,61766,1,0,0:0:0:0:
448,192,61830,1,0,0:0:0:0:
192,192,61894,1,0,0:0:0:0:
64,192,61958,1,0,0:0:0:0:
448,192,62022,1,0,0:0:0:0:
320,192,62085,1,0,0:0:0:0:
64,192,62149,1,0,0:0:0:0:
192,192,62213,1,0,0:0:0:0:
448,192,62277,1,0,0:0:0:0:
320,192,62341,1,0,0:0:0:0:
192,192,62405,1,0,0:0:0:0:
64,192,62468,1,0,0:0:0:0:
448,192,62532,1,0,0:0:0:0:
320,192,62596,1,0,0:0:0:0:
192,192,62660,1,0,0:0:0:0:
64,192,62724,1,0,0:0:0:0:
320,192,62788,1,0,0:0:0:0:
192,192,62851,1,0,0:0:0:0:
64,192,62915,1,0,0:0:0:0:
448,192,62979,1,0,0:0:0:0:
320,192,63043,1,0,0:0:0:0:
192,192,63107,1,0,0:0:0:0:
320,192,63171,1,0,0:0:0:0:
192,192,63234,1,0,0:0:0:0:
64,192,63298,1,0,0:0:0:0:
192,192,63362,1,0,0:0:0:0:
448,192,63426,1,0,0:0:0:0:
320,192,63490,1,0,0:0:0:0:
64,192,63554,1,0,0:0:0:0:
192,192,63554,1,0,0:0:0:0:
448,192,63681,1,0,0:0:0:0:
320,192,63681,1,0,0:0:0:0:
64,192,63809,1,0,0:0:0:0:
192,192,63873,1,0,0:0:0:0:
320,192,63937,1,0,0:0:0:0:
192,192,64000,1,0,0:0:0:0:
320,192,64064,1,0,0:0:0:0:
448,192,64128,1,0,0:0:0:0:
64,192,64192,1,0,0:0:0:0:
192,192,64256,1,0,0:0:0:0:
448,192,64320,1,0,0:0:0:0:
320,192,64383,1,0,0:0:0:0:
192,192,64447,1,0,0:0:0:0:
320,192,64511,1,0,0:0:0:0:
192,192,64575,1,0,0:0:0:0:
64,192,64639,1,0,0:0:0:0:
448,192,64702,1,0,0:0:0:0:
320,192,64766,1,0,0:0:0:0:
64,192,64830,1,0,0:0:0:0:
192,192,64894,1,0,0:0:0:0:
320,192,64958,1,0,0:0:0:0:
448,192,65022,1,0,0:0:0:0:
192,192,65085,1,0,0:0:0:0:
320,192,65149,1,0,0:0:0:0:
448,192,65213,1,0,0:0:0:0:
320,192,65277,1,0,0:0:0:0:
192,192,65341,1,0,0:0:0:0:
64,192,65405,1,0,0:0:0:0:
320,192,65468,1,0,0:0:0:0:
192,192,65532,1,0,0:0:0:0:
64,192,65596,1,0,0:0:0:0:
192,192,65660,1,0,0:0:0:0:
320,192,65724,1,0,0:0:0:0:
448,192,65788,1,0,0:0:0:0:
192,192,65851,1,0,0:0:0:0:
64,192,65915,1,0,0:0:0:0:
320,192,65979,1,0,0:0:0:0:
448,192,66043,1,0,0:0:0:0:
64,192,66107,1,0,0:0:0:0:
192,192,66171,1,0,0:0:0:0:
448,192,66234,1,0,0:0:0:0:
320,192,66298,1,0,0:0:0:0:
64,192,66362,1,0,0:0:0:0:
192,192,66426,1,0,0:0:0:0:
320,192,66490,1,0,0:0:0:0:
448,192,66554,1,0,0:0:0:0:
64,192,66617,1,0,0:0:0:0:
192,192,66681,1,0,0:0:0:0:
320,192,66745,1,0,0:0:0:0:
448,192,66809,1,0,0:0:0:0:
64,192,66873,1,0,0:0:0:0:
320,192,66873,1,0,0:0:0:0:
192,192,67000,1,0,0:0:0:0:
448,192,67000,1,0,0:0:0:0:
64,192,67128,1,0,0:0:0:0:
320,192,67128,1,0,0:0:0:0:
448,192,67256,1,0,0:0:0:0:
192,192,67256,1,0,0:0:0:0:
64,192,67383,1,0,0:0:0:0:
192,192,67383,1,0,0:0:0:0:
320,192,67511,1,0,0:0:0:0:
448,192,67511,1,0,0:0:0:0:
192,192,67575,1,0,0:0:0:0:
64,192,67575,1,0,0:0:0:0:
320,192,67639,1,0,0:0:0:0:
448,192,67639,1,0,0:0:0:0:
192,192,67766,1,0,0:0:0:0:
64,192,67766,1,0,0:0:0:0:
448,192,67894,1,0,0:0:0:0:
320,192,67958,1,0,0:0:0:0:
192,192,68022,1,0,0:0:0:0:
320,192,68085,1,0,0:0:0:0:
192,192,68149,1,0,0:0:0:0:
64,192,68213,1,0,0:0:0:0:
448,192,68277,1,0,0:0:0:0:
320,192,68341,1,0,0:0:0:0:
64,192,68405,1,0,0:0:0:0:
192,192,68468,1,0,0:0:0:0:
320,192,68532,1,0,0:0:0:0:
192,192,68596,1,0,0:0:0:0:
320,192,68660,1,0,0:0:0:0:
448,192,68724,1,0,0:0:0:0:
64,192,68788,1,0,0:0:0:0:
192,192,68851,1,0,0:0:0:0:
448,192,68915,1,0,0:0:0:0:
320,192,68979,1,0,0:0:0:0:
192,192,69043,1,0,0:0:0:0:
64,192,69107,1,0,0:0:0:0:
320,192,69171,1,0,0:0:0:0:
192,192,69234,1,0,0:0:0:0:
64,192,69298,1,0,0:0:0:0:
192,192,69362,1,0,0:0:0:0:
320,192,69426,1,0,0:0:0:0:
448,192,69490,1,0,0:0:0:0:
192,192,69554,1,0,0:0:0:0:
320,192,69617,1,0,0:0:0:0:
448,192,69681,1,0,0:0:0:0:
320,192,69745,1,0,0:0:0:0:
192,192,69809,1,0,0:0:0:0:
64,192,69873,1,0,0:0:0:0:
320,192,69937,1,0,0:0:0:0:
448,192,70000,1,0,0:0:0:0:
192,192,70064,1,0,0:0:0:0:
64,192,70128,1,0,0:0:0:0:
448,192,70192,1,0,0:0:0:0:
320,192,70256,1,0,0:0:0:0:
64,192,70320,1,0,0:0:0:0:
192,192,70383,1,0,0:0:0:0:
448,192,70447,1,0,0:0:0:0:
320,192,70511,1,0,0:0:0:0:
192,192,70575,1,0,0:0:0:0:
64,192,70639,1,0,0:0:0:0:
320,192,70702,1,0,0:0:0:0:
192,192,70766,1,0,0:0:0:0:
64,192,70830,1,0,0:0:0:0:
320,192,70894,1,0,0:0:0:0:
448,192,70958,1,0,0:0:0:0:
192,192,71022,1,0,0:0:0:0:
320,192,71085,1,0,0:0:0:0:
448,192,71149,1,0,0:0:0:0:
320,192,71213,1,0,0:0:0:0:
64,192,71277,1,0,0:0:0:0:
192,192,71341,1,0,0:0:0:0:
320,192,71405,1,0,0:0:0:0:
448,192,71468,1,0,0:0:0:0:
320,192,71532,1,0,0:0:0:0:
64,192,71596,1,0,0:0:0:0:
192,192,71660,1,0,0:0:0:0:
448,192,71724,1,0,0:0:0:0:
320,192,71788,1,0,0:0:0:0:
64,192,71851,1,0,0:0:0:0:
192,192,71915,1,0,0:0:0:0:
448,192,71979,1,0,0:0:0:0:
320,192,72043,1,0,0:0:0:0:
192,192,72107,1,0,0:0:0:0:
320,192,72171,1,0,0:0:0:0:
192,192,72234,1,0,0:0:0:0:
64,192,72298,1,0,0:0:0:0:
448,192,72362,1,0,0:0:0:0:
320,192,72426,1,0,0:0:0:0:
64,192,72490,1,0,0:0:0:0:
192,192,72554,1,0,0:0:0:0:
320,192,72617,1,0,0:0:0:0:
192,192,72681,1,0,0:0:0:0:
320,192,72745,1,0,0:0:0:0:
448,192,72809,1,0,0:0:0:0:
64,192,72873,1,0,0:0:0:0:
192,192,72937,1,0,0:0:0:0:
448,192,73000,1,0,0:0:0:0:
320,192,73064,1,0,0:0:0:0:
192,192,73128,1,0,0:0:0:0:
64,192,73192,1,0,0:0:0:0:
320,192,73256,1,0,0:0:0:0:
192,192,73320,1,0,0:0:0:0:
64,192,73383,1,0,0:0:0:0:
192,192,73447,1,0,0:0:0:0:
320,192,73511,1,0,0:0:0:0:
448,192,73575,1,0,0:0:0:0:
192,192,73639,1,0,0:0:0:0:
320,192,73702,1,0,0:0:0:0:
448,192,73766,1,0,0:0:0:0:
320,192,73830,1,0,0:0:0:0:
192,192,73894,1,0,0:0:0:0:
64,192,73958,1,0,0:0:0:0:
320,192,74022,1,0,0:0:0:0:
448,192,74085,1,0,0:0:0:0:
192,192,74149,1,0,0:0:0:0:
64,192,74213,1,0,0:0:0:0:
448,192,74277,1,0,0:0:0:0:
320,192,74341,1,0,0:0:0:0:
64,192,74405,1,0,0:0:0:0:
192,192,74468,1,0,0:0:0:0:
448,192,74532,1,0,0:0:0:0:
320,192,74596,1,0,0:0:0:0:
192,192,74660,1,0,0:0:0:0:
64,192,74724,1,0,0:0:0:0:
448,192,74788,1,0,0:0:0:0:
320,192,74851,1,0,0:0:0:0:
192,192,74915,1,0,0:0:0:0:
64,192,74979,1,0,0:0:0:0:
448,192,75043,128,0,76064:0:0:0:0:
320,192,75043,1,0,0:0:0:0:
192,192,75107,1,0,0:0:0:0:
64,192,75171,1,0,0:0:0:0:
192,192,75234,1,0,0:0:0:0:
320,192,75298,1,0,0:0:0:0:
192,192,75362,1,0,0:0:0:0:
64,192,75426,1,0,0:0:0:0:
320,192,75490,1,0,0:0:0:0:
192,192,75554,1,0,0:0:0:0:
64,192,75554,128,0,76064:0:0:0:0:
320,192,75617,1,0,0:0:0:0:
192,192,75681,1,0,0:0:0:0:
320,192,75745,1,0,0:0:0:0:
192,192,75809,1,0,0:0:0:0:
320,192,75873,1,0,0:0:0:0:
192,192,75937,1,0,0:0:0:0:
320,192,76000,1,0,0:0:0:0:
192,192,76064,1,0,0:0:0:0:
64,192,76320,1,0,0:0:0:0:
192,192,76320,1,0,0:0:0:0:
448,192,76320,1,0,0:0:0:0:
64,192,76575,1,0,0:0:0:0:
192,192,76575,1,0,0:0:0:0:
448,192,76575,1,0,0:0:0:0:
64,192,76830,1,0,0:0:0:0:
192,192,76830,1,0,0:0:0:0:
448,192,76830,1,0,0:0:0:0:
64,192,77085,1,0,0:0:0:0:
320,192,77085,1,0,0:0:0:0:
448,192,77085,1,0,0:0:0:0:
64,192,77341,1,0,0:0:0:0:
320,192,77341,1,0,0:0:0:0:
448,192,77341,1,0,0:0:0:0:
64,192,77596,1,0,0:0:0:0:
320,192,77596,1,0,0:0:0:0:
448,192,77596,1,0,0:0:0:0:
64,192,77851,1,0,0:0:0:0:
320,192,77851,1,0,0:0:0:0:
448,192,77851,1,0,0:0:0:0:
192,192,77979,1,0,0:0:0:0:
320,192,78043,1,0,0:0:0:0:
64,192,78107,1,0,0:0:0:0:
192,192,78107,1,0,0:0:0:0:
448,192,78107,1,0,0:0:0:0:
64,192,78362,1,0,0:0:0:0:
192,192,78362,1,0,0:0:0:0:
448,192,78362,1,0,0:0:0:0:
64,192,78617,1,0,0:0:0:0:
192,192,78617,1,0,0:0:0:0:
448,192,78617,1,0,0:0:0:0:
64,192,78873,1,0,0:0:0:0:
192,192,78873,1,0,0:0:0:0:
448,192,78873,1,0,0:0:0:0:
64,192,79128,1,0,0:0:0:0:
320,192,79128,1,0,0:0:0:0:
448,192,79128,1,0,0:0:0:0:
64,192,79383,1,0,0:0:0:0:
320,192,79383,1,0,0:0:0:0:
448,192,79383,1,0,0:0:0:0:
64,192,79639,1,0,0:0:0:0:
320,192,79639,1,0,0:0:0:0:
448,192,79639,1,0,0:0:0:0:
64,192,79894,1,0,0:0:0:0:
320,192,79894,1,0,0:0:0:0:
448,192,79894,1,0,0:0:0:0:
192,192,80022,1,0,0:0:0:0:
320,192,80022,1,0,0:0:0:0:
448,192,80022,1,0,0:0:0:0:
64,192,80149,1,0,0:0:0:0:
192,192,80149,1,0,0:0:0:0:
320,192,80149,1,0,0:0:0:0:
64,192,80405,1,0,0:0:0:0:
192,192,80405,1,0,0:0:0:0:
320,192,80405,1,0,0:0:0:0:
64,192,80660,1,0,0:0:0:0:
320,192,80660,1,0,0:0:0:0:
192,192,80660,1,0,0:0:0:0:
64,192,80915,1,0,0:0:0:0:
192,192,80915,1,0,0:0:0:0:
320,192,80915,1,0,0:0:0:0:
192,192,81171,1,0,0:0:0:0:
320,192,81171,1,0,0:0:0:0:
448,192,81171,1,0,0:0:0:0:
192,192,81426,1,0,0:0:0:0:
320,192,81426,1,0,0:0:0:0:
448,192,81426,1,0,0:0:0:0:
192,192,81681,1,0,0:0:0:0:
320,192,81681,1,0,0:0:0:0:
448,192,81681,1,0,0:0:0:0:
192,192,81937,1,0,0:0:0:0:
320,192,81937,1,0,0:0:0:0:
448,192,81937,1,0,0:0:0:0:
320,192,82064,1,0,0:0:0:0:
448,192,82128,1,0,0:0:0:0:
64,192,82192,1,0,0:0:0:0:
192,192,82192,1,0,0:0:0:0:
320,192,82192,1,0,0:0:0:0:
64,192,82447,1,0,0:0:0:0:
192,192,82447,1,0,0:0:0:0:
320,192,82447,1,0,0:0:0:0:
64,192,82702,1,0,0:0:0:0:
192,192,82702,1,0,0:0:0:0:
320,192,82702,1,0,0:0:0:0:
64,192,82958,1,0,0:0:0:0:
192,192,82958,1,0,0:0:0:0:
320,192,82958,1,0,0:0:0:0:
320,192,83213,1,0,0:0:0:0:
448,192,83213,1,0,0:0:0:0:
64,192,83213,1,0,0:0:0:0:
192,192,83341,128,0,83468:0:0:0:0:
64,192,83468,1,0,0:0:0:0:
320,192,83468,1,0,0:0:0:0:
448,192,83468,1,0,0:0:0:0:
192,192,83596,128,0,83724:0:0:0:0:
64,192,83724,1,0,0:0:0:0:
320,192,83724,1,0,0:0:0:0:
448,192,83724,1,0,0:0:0:0:
192,192,83851,128,0,83979:0:0:0:0:
64,192,83979,1,0,0:0:0:0:
320,192,83979,1,0,0:0:0:0:
448,192,83979,1,0,0:0:0:0:
320,192,84107,1,0,0:0:0:0:
448,192,84107,1,0,0:0:0:0:
192,192,84107,1,0,0:0:0:0:
64,192,84234,1,0,0:0:0:0:
192,192,84234,1,0,0:0:0:0:
448,192,84234,1,0,0:0:0:0:
64,192,84490,1,0,0:0:0:0:
192,192,84490,1,0,0:0:0:0:
448,192,84490,1,0,0:0:0:0:
64,192,84745,1,0,0:0:0:0:
192,192,84745,1,0,0:0:0:0:
448,192,84745,1,0,0:0:0:0:
64,192,85000,1,0,0:0:0:0:
192,192,85000,1,0,0:0:0:0:
448,192,85000,1,0,0:0:0:0:
64,192,85256,1,0,0:0:0:0:
320,192,85256,1,0,0:0:0:0:
448,192,85256,1,0,0:0:0:0:
64,192,85511,1,0,0:0:0:0:
320,192,85511,1,0,0:0:0:0:
448,192,85511,1,0,0:0:0:0:
64,192,85766,1,0,0:0:0:0:
320,192,85766,1,0,0:0:0:0:
448,192,85766,1,0,0:0:0:0:
64,192,86022,1,0,0:0:0:0:
320,192,86022,1,0,0:0:0:0:
448,192,86022,1,0,0:0:0:0:
192,192,86149,1,0,0:0:0:0:
320,192,86213,1,0,0:0:0:0:
64,192,86277,1,0,0:0:0:0:
192,192,86277,1,0,0:0:0:0:
448,192,86277,1,0,0:0:0:0:
64,192,86532,1,0,0:0:0:0:
192,192,86532,1,0,0:0:0:0:
448,192,86532,1,0,0:0:0:0:
64,192,86788,1,0,0:0:0:0:
192,192,86788,1,0,0:0:0:0:
448,192,86788,1,0,0:0:0:0:
64,192,87043,1,0,0:0:0:0:
192,192,87043,1,0,0:0:0:0:
448,192,87043,1,0,0:0:0:0:
64,192,87298,1,0,0:0:0:0:
320,192,87298,1,0,0:0:0:0:
448,192,87298,1,0,0:0:0:0:
64,192,87554,1,0,0:0:0:0:
320,192,87554,1,0,0:0:0:0:
448,192,87554,1,0,0:0:0:0:
64,192,87809,1,0,0:0:0:0:
320,192,87809,1,0,0:0:0:0:
448,192,87809,1,0,0:0:0:0:
64,192,88064,1,0,0:0:0:0:
320,192,88064,1,0,0:0:0:0:
448,192,88064,1,0,0:0:0:0:
192,192,88192,1,0,0:0:0:0:
320,192,88192,1,0,0:0:0:0:
448,192,88192,1,0,0:0:0:0:
64,192,88320,1,0,0:0:0:0:
192,192,88320,1,0,0:0:0:0:
320,192,88320,1,0,0:0:0:0:
64,192,88575,1,0,0:0:0:0:
192,192,88575,1,0,0:0:0:0:
320,192,88575,1,0,0:0:0:0:
64,192,88830,1,0,0:0:0:0:
320,192,88830,1,0,0:0:0:0:
192,192,88830,1,0,0:0:0:0:
64,192,89085,1,0,0:0:0:0:
192,192,89085,1,0,0:0:0:0:
320,192,89085,1,0,0:0:0:0:
192,192,89341,1,0,0:0:0:0:
320,192,89341,1,0,0:0:0:0:
448,192,89341,1,0,0:0:0:0:
192,192,89596,1,0,0:0:0:0:
320,192,89596,1,0,0:0:0:0:
448,192,89596,1,0,0:0:0:0:
192,192,89851,1,0,0:0:0:0:
320,192,89851,1,0,0:0:0:0:
448,192,89851,1,0,0:0:0:0:
192,192,90107,1,0,0:0:0:0:
320,192,90107,1,0,0:0:0:0:
448,192,90107,1,0,0:0:0:0:
320,192,90234,1,0,0:0:0:0:
448,192,90298,1,0,0:0:0:0:
64,192,90362,1,0,0:0:0:0:
192,192,90362,1,0,0:0:0:0:
320,192,90362,1,0,0:0:0:0:
64,192,90617,1,0,0:0:0:0:
192,192,90617,1,0,0:0:0:0:
320,192,90617,1,0,0:0:0:0:
64,192,90873,1,0,0:0:0:0:
192,192,90873,1,0,0:0:0:0:
320,192,90873,1,0,0:0:0:0:
64,192,91128,1,0,0:0:0:0:
192,192,91128,1,0,0:0:0:0:
320,192,91128,1,0,0:0:0:0:
64,192,91383,1,0,0:0:0:0:
192,192,91447,1,0,0:0:0:0:
320,192,91511,1,0,0:0:0:0:
448,192,91575,1,0,0:0:0:0:
64,192,91639,1,0,0:0:0:0:
192,192,91702,1,0,0:0:0:0:
320,192,91766,1,0,0:0:0:0:
448,192,91830,1,0,0:0:0:0:
64,192,91894,1,0,0:0:0:0:
192,192,91958,1,0,0:0:0:0:
448,192,92022,1,0,0:0:0:0:
320,192,92085,1,0,0:0:0:0:
64,192,92149,1,0,0:0:0:0:
192,192,92213,1,0,0:0:0:0:
448,192,92277,1,0,0:0:0:0:
320,192,92341,1,0,0:0:0:0:
448,192,92405,1,0,0:0:0:0:
192,192,92405,1,0,0:0:0:0:
64,192,92405,1,0,0:0:0:0:
448,192,92660,1,0,0:0:0:0:
192,192,92660,1,0,0:0:0:0:
64,192,92660,1,0,0:0:0:0:
448,192,92915,1,0,0:0:0:0:
192,192,92915,1,0,0:0:0:0:
64,192,92915,1,0,0:0:0:0:
448,192,93171,1,0,0:0:0:0:
192,192,93171,1,0,0:0:0:0:
64,192,93171,1,0,0:0:0:0:
448,192,93426,1,0,0:0:0:0:
320,192,93426,1,0,0:0:0:0:
64,192,93426,1,0,0:0:0:0:
448,192,93681,1,0,0:0:0:0:
320,192,93681,1,0,0:0:0:0:
64,192,93681,1,0,0:0:0:0:
448,192,93937,1,0,0:0:0:0:
320,192,93937,1,0,0:0:0:0:
64,192,93937,1,0,0:0:0:0:
448,192,94192,1,0,0:0:0:0:
320,192,94192,1,0,0:0:0:0:
64,192,94192,1,0,0:0:0:0:
192,192,94320,1,0,0:0:0:0:
320,192,94383,1,0,0:0:0:0:
448,192,94447,1,0,0:0:0:0:
192,192,94447,1,0,0:0:0:0:
64,192,94447,1,0,0:0:0:0:
448,192,94702,1,0,0:0:0:0:
192,192,94702,1,0,0:0:0:0:
64,192,94702,1,0,0:0:0:0:
448,192,94958,1,0,0:0:0:0:
192,192,94958,1,0,0:0:0:0:
64,192,94958,1,0,0:0:0:0:
448,192,95213,1,0,0:0:0:0:
192,192,95213,1,0,0:0:0:0:
64,192,95213,1,0,0:0:0:0:
448,192,95468,1,0,0:0:0:0:
320,192,95468,1,0,0:0:0:0:
64,192,95468,1,0,0:0:0:0:
448,192,95724,1,0,0:0:0:0:
320,192,95724,1,0,0:0:0:0:
64,192,95724,1,0,0:0:0:0:
448,192,95979,1,0,0:0:0:0:
320,192,95979,1,0,0:0:0:0:
64,192,95979,1,0,0:0:0:0:
448,192,96234,1,0,0:0:0:0:
320,192,96234,1,0,0:0:0:0:
64,192,96234,1,0,0:0:0:0:
448,192,96362,1,0,0:0:0:0:
320,192,96362,1,0,0:0:0:0:
192,192,96362,1,0,0:0:0:0:
320,192,96490,1,0,0:0:0:0:
192,192,96490,1,0,0:0:0:0:
64,192,96490,1,0,0:0:0:0:
320,192,96745,1,0,0:0:0:0:
192,192,96745,1,0,0:0:0:0:
64,192,96745,1,0,0:0:0:0:
192,192,97000,1,0,0:0:0:0:
320,192,97000,1,0,0:0:0:0:
64,192,97000,1,0,0:0:0:0:
320,192,97256,1,0,0:0:0:0:
192,192,97256,1,0,0:0:0:0:
64,192,97256,1,0,0:0:0:0:
448,192,97511,1,0,0:0:0:0:
320,192,97511,1,0,0:0:0:0:
192,192,97511,1,0,0:0:0:0:
448,192,97766,1,0,0:0:0:0:
320,192,97766,1,0,0:0:0:0:
192,192,97766,1,0,0:0:0:0:
448,192,98022,1,0,0:0:0:0:
320,192,98022,1,0,0:0:0:0:
192,192,98022,1,0,0:0:0:0:
448,192,98277,1,0,0:0:0:0:
320,192,98277,1,0,0:0:0:0:
192,192,98277,1,0,0:0:0:0:
320,192,98405,1,0,0:0:0:0:
448,192,98468,1,0,0:0:0:0:
320,192,98532,1,0,0:0:0:0:
192,192,98532,1,0,0:0:0:0:
64,192,98532,1,0,0:0:0:0:
320,192,98788,1,0,0:0:0:0:
192,192,98788,1,0,0:0:0:0:
64,192,98788,1,0,0:0:0:0:
320,192,99043,1,0,0:0:0:0:
192,192,99043,1,0,0:0:0:0:
64,192,99043,1,0,0:0:0:0:
320,192,99298,1,0,0:0:0:0:
192,192,99298,1,0,0:0:0:0:
64,192,99298,1,0,0:0:0:0:
64,192,99554,1,0,0:0:0:0:
192,192,99617,1,0,0:0:0:0:
320,192,99681,1,0,0:0:0:0:
448,192,99745,1,0,0:0:0:0:
320,192,99809,1,0,0:0:0:0:
192,192,99873,1,0,0:0:0:0:
64,192,99937,1,0,0:0:0:0:
192,192,100000,1,0,0:0:0:0:
320,192,100064,128,0,100575:0:0:0:0:
448,192,100575,1,0,0:0:0:0:
320,192,100639,1,0,0:0:0:0:
192,192,100702,1,0,0:0:0:0:
320,192,100766,1,0,0:0:0:0:
192,192,100830,1,0,0:0:0:0:
64,192,100894,1,0,0:0:0:0:
448,192,100958,1,0,0:0:0:0:
320,192,101022,1,0,0:0:0:0:
64,192,101085,1,0,0:0:0:0:
192,192,101149,1,0,0:0:0:0:
320,192,101213,1,0,0:0:0:0:
192,192,101277,1,0,0:0:0:0:
320,192,101341,1,0,0:0:0:0:
448,192,101405,1,0,0:0:0:0:
64,192,101468,1,0,0:0:0:0:
192,192,101532,1,0,0:0:0:0:
448,192,101596,1,0,0:0:0:0:
320,192,101660,1,0,0:0:0:0:
192,192,101724,1,0,0:0:0:0:
64,192,101788,1,0,0:0:0:0:
320,192,101851,1,0,0:0:0:0:
192,192,101915,1,0,0:0:0:0:
64,192,101979,1,0,0:0:0:0:
192,192,102043,1,0,0:0:0:0:
320,192,102107,1,0,0:0:0:0:
448,192,102171,1,0,0:0:0:0:
192,192,102234,1,0,0:0:0:0:
320,192,102298,1,0,0:0:0:0:
448,192,102362,1,0,0:0:0:0:
320,192,102426,1,0,0:0:0:0:
192,192,102490,1,0,0:0:0:0:
64,192,102554,1,0,0:0:0:0:
320,192,102617,1,0,0:0:0:0:
448,192,102681,1,0,0:0:0:0:
192,192,102745,1,0,0:0:0:0:
64,192,102809,1,0,0:0:0:0:
448,192,102873,1,0,0:0:0:0:
320,192,102937,1,0,0:0:0:0:
64,192,103000,1,0,0:0:0:0:
192,192,103064,1,0,0:0:0:0:
448,192,103128,1,0,0:0:0:0:
320,192,103192,1,0,0:0:0:0:
192,192,103256,1,0,0:0:0:0:
64,192,103320,1,0,0:0:0:0:
448,192,103383,1,0,0:0:0:0:
320,192,103447,1,0,0:0:0:0:
192,192,103511,1,0,0:0:0:0:
64,192,103575,1,0,0:0:0:0:
320,192,103639,1,0,0:0:0:0:
448,192,103702,1,0,0:0:0:0:
192,192,103766,1,0,0:0:0:0:
320,192,103830,1,0,0:0:0:0:
448,192,103894,1,0,0:0:0:0:
192,192,103958,1,0,0:0:0:0:
64,192,104022,1,0,0:0:0:0:
192,192,104085,1,0,0:0:0:0:
448,192,104149,1,0,0:0:0:0:
320,192,104213,1,0,0:0:0:0:
64,192,104277,1,0,0:0:0:0:
192,192,104341,1,0,0:0:0:0:
448,192,104405,1,0,0:0:0:0:
320,192,104405,1,0,0:0:0:0:
64,192,104532,1,0,0:0:0:0:
192,192,104532,1,0,0:0:0:0:
448,192,104660,1,0,0:0:0:0:
320,192,104724,1,0,0:0:0:0:
192,192,104788,1,0,0:0:0:0:
320,192,104851,1,0,0:0:0:0:
192,192,104915,1,0,0:0:0:0:
64,192,104979,1,0,0:0:0:0:
448,192,105043,1,0,0:0:0:0:
320,192,105107,1,0,0:0:0:0:
64,192,105171,1,0,0:0:0:0:
192,192,105234,1,0,0:0:0:0:
320,192,105298,1,0,0:0:0:0:
192,192,105362,1,0,0:0:0:0:
320,192,105426,1,0,0:0:0:0:
448,192,105490,1,0,0:0:0:0:
64,192,105554,1,0,0:0:0:0:
192,192,105617,1,0,0:0:0:0:
448,192,105681,1,0,0:0:0:0:
320,192,105745,1,0,0:0:0:0:
192,192,105809,1,0,0:0:0:0:
64,192,105873,1,0,0:0:0:0:
320,192,105937,1,0,0:0:0:0:
192,192,106000,1,0,0:0:0:0:
64,192,106064,1,0,0:0:0:0:
192,192,106128,1,0,0:0:0:0:
320,192,106192,1,0,0:0:0:0:
448,192,106256,1,0,0:0:0:0:
192,192,106320,1,0,0:0:0:0:
320,192,106383,1,0,0:0:0:0:
448,192,106447,1,0,0:0:0:0:
320,192,106511,1,0,0:0:0:0:
192,192,106575,1,0,0:0:0:0:
64,192,106639,1,0,0:0:0:0:
320,192,106702,1,0,0:0:0:0:
448,192,106766,1,0,0:0:0:0:
192,192,106830,1,0,0:0:0:0:
64,192,106894,1,0,0:0:0:0:
448,192,106958,1,0,0:0:0:0:
320,192,107022,1,0,0:0:0:0:
64,192,107085,1,0,0:0:0:0:
192,192,107149,1,0,0:0:0:0:
448,192,107213,1,0,0:0:0:0:
320,192,107277,1,0,0:0:0:0:
192,192,107341,1,0,0:0:0:0:
64,192,107405,1,0,0:0:0:0:
448,192,107468,1,0,0:0:0:0:
320,192,107532,1,0,0:0:0:0:
192,192,107596,1,0,0:0:0:0:
64,192,107660,1,0,0:0:0:0:
448,192,107724,1,0,0:0:0:0:
320,192,107788,1,0,0:0:0:0:
64,192,107851,1,0,0:0:0:0:
192,192,107915,1,0,0:0:0:0:
320,192,107979,1,0,0:0:0:0:
448,192,108043,1,0,0:0:0:0:
320,192,108107,1,0,0:0:0:0:
192,192,108171,1,0,0:0:0:0:
448,192,108234,1,0,0:0:0:0:
320,192,108234,1,0,0:0:0:0:
192,192,108362,1,0,0:0:0:0:
64,192,108362,1,0,0:0:0:0:
320,192,108426,1,0,0:0:0:0:
448,192,108426,1,0,0:0:0:0:
192,192,108490,1,0,0:0:0:0:
64,192,108490,1,0,0:0:0:0:
320,192,108617,1,0,0:0:0:0:
448,192,108617,1,0,0:0:0:0:
64,192,108745,1,0,0:0:0:0:
192,192,108809,1,0,0:0:0:0:
320,192,108873,1,0,0:0:0:0:
192,192,108937,1,0,0:0:0:0:
320,192,109000,1,0,0:0:0:0:
448,192,109064,1,0,0:0:0:0:
64,192,109128,1,0,0:0:0:0:
192,192,109192,1,0,0:0:0:0:
448,192,109256,1,0,0:0:0:0:
320,192,109320,1,0,0:0:0:0:
192,192,109383,1,0,0:0:0:0:
320,192,109447,1,0,0:0:0:0:
192,192,109511,1,0,0:0:0:0:
64,192,109575,1,0,0:0:0:0:
448,192,109639,1,0,0:0:0:0:
320,192,109702,1,0,0:0:0:0:
64,192,109766,1,0,0:0:0:0:
192,192,109830,1,0,0:0:0:0:
320,192,109894,1,0,0:0:0:0:
448,192,109958,1,0,0:0:0:0:
192,192,110022,1,0,0:0:0:0:
320,192,110085,1,0,0:0:0:0:
448,192,110149,1,0,0:0:0:0:
320,192,110213,1,0,0:0:0:0:
192,192,110277,1,0,0:0:0:0:
64,192,110341,1,0,0:0:0:0:
320,192,110405,1,0,0:0:0:0:
192,192,110468,1,0,0:0:0:0:
64,192,110532,1,0,0:0:0:0:
192,192,110596,1,0,0:0:0:0:
320,192,110660,1,0,0:0:0:0:
448,192,110724,1,0,0:0:0:0:
192,192,110788,1,0,0:0:0:0:
64,192,110851,1,0,0:0:0:0:
320,192,110915,1,0,0:0:0:0:
448,192,110979,1,0,0:0:0:0:
64,192,111043,1,0,0:0:0:0:
192,192,111107,1,0,0:0:0:0:
448,192,111171,1,0,0:0:0:0:
320,192,111234,1,0,0:0:0:0:
64,192,111298,1,0,0:0:0:0:
192,192,111362,1,0,0:0:0:0:
320,192,111426,1,0,0:0:0:0:
448,192,111490,1,0,0:0:0:0:
64,192,111554,1,0,0:0:0:0:
192,192,111617,1,0,0:0:0:0:
320,192,111681,1,0,0:0:0:0:
448,192,111745,1,0,0:0:0:0:
192,192,111809,1,0,0:0:0:0:
64,192,111873,1,0,0:0:0:0:
320,192,111937,1,0,0:0:0:0:
192,192,112000,1,0,0:0:0:0:
64,192,112064,1,0,0:0:0:0:
448,192,112064,1,0,0:0:0:0:
320,192,112128,1,0,0:0:0:0:
448,192,112192,1,0,0:0:0:0:
64,192,112256,1,0,0:0:0:0:
192,192,112320,1,0,0:0:0:0:
320,192,112383,1,0,0:0:0:0:
448,192,112447,1,0,0:0:0:0:
320,192,112511,1,0,0:0:0:0:
64,192,112575,1,0,0:0:0:0:
192,192,112575,1,0,0:0:0:0:
448,192,112702,1,0,0:0:0:0:
320,192,112702,1,0,0:0:0:0:
64,192,112830,1,0,0:0:0:0:
192,192,112894,1,0,0:0:0:0:
320,192,112958,1,0,0:0:0:0:
192,192,113022,1,0,0:0:0:0:
320,192,113085,1,0,0:0:0:0:
448,192,113149,1,0,0:0:0:0:
64,192,113213,1,0,0:0:0:0:
192,192,113277,1,0,0:0:0:0:
448,192,113341,1,0,0:0:0:0:
320,192,113405,1,0,0:0:0:0:
192,192,113468,1,0,0:0:0:0:
320,192,113532,1,0,0:0:0:0:
192,192,113596,1,0,0:0:0:0:
64,192,113660,1,0,0:0:0:0:
448,192,113724,1,0,0:0:0:0:
320,192,113788,1,0,0:0:0:0:
64,192,113851,1,0,0:0:0:0:
192,192,113915,1,0,0:0:0:0:
320,192,113979,1,0,0:0:0:0:
448,192,114043,1,0,0:0:0:0:
192,192,114107,1,0,0:0:0:0:
320,192,114171,1,0,0:0:0:0:
448,192,114234,1,0,0:0:0:0:
320,192,114298,1,0,0:0:0:0:
192,192,114362,1,0,0:0:0:0:
64,192,114426,1,0,0:0:0:0:
320,192,114490,1,0,0:0:0:0:
192,192,114554,1,0,0:0:0:0:
64,192,114617,1,0,0:0:0:0:
192,192,114681,1,0,0:0:0:0:
320,192,114745,1,0,0:0:0:0:
448,192,114809,1,0,0:0:0:0:
192,192,114873,1,0,0:0:0:0:
64,192,114937,1,0,0:0:0:0:
320,192,115000,1,0,0:0:0:0:
448,192,115064,1,0,0:0:0:0:
64,192,115128,1,0,0:0:0:0:
192,192,115192,1,0,0:0:0:0:
448,192,115256,1,0,0:0:0:0:
320,192,115320,1,0,0:0:0:0:
64,192,115383,1,0,0:0:0:0:
192,192,115447,1,0,0:0:0:0:
320,192,115511,1,0,0:0:0:0:
448,192,115575,1,0,0:0:0:0:
64,192,115639,1,0,0:0:0:0:
192,192,115702,1,0,0:0:0:0:
320,192,115766,1,0,0:0:0:0:
448,192,115830,1,0,0:0:0:0:
192,192,115894,1,0,0:0:0:0:
320,192,115958,1,0,0:0:0:0:
448,192,116022,1,0,0:0:0:0:
64,192,116085,1,0,0:0:0:0:
192,192,116149,1,0,0:0:0:0:
320,192,116213,1,0,0:0:0:0:
448,192,116277,1,0,0:0:0:0:
320,192,116341,1,0,0:0:0:0:
192,192,116405,1,0,0:0:0:0:
64,192,116405,1,0,0:0:0:0:
192,192,116532,1,0,0:0:0:0:
320,192,116532,1,0,0:0:0:0:
320,192,116660,1,0,0:0:0:0:
448,192,116660,1,0,0:0:0:0:
320,192,116788,1,0,0:0:0:0:
192,192,116788,1,0,0:0:0:0:
64,192,116915,1,0,0:0:0:0:
192,192,116979,1,0,0:0:0:0:
320,192,117043,1,0,0:0:0:0:
192,192,117107,1,0,0:0:0:0:
320,192,117171,1,0,0:0:0:0:
448,192,117234,1,0,0:0:0:0:
64,192,117298,1,0,0:0:0:0:
192,192,117362,1,0,0:0:0:0:
448,192,117426,1,0,0:0:0:0:
320,192,117490,1,0,0:0:0:0:
192,192,117554,1,0,0:0:0:0:
320,192,117617,1,0,0:0:0:0:
192,192,117681,1,0,0:0:0:0:
64,192,117745,1,0,0:0:0:0:
448,192,117809,1,0,0:0:0:0:
320,192,117873,1,0,0:0:0:0:
64,192,117937,1,0,0:0:0:0:
192,192,118000,1,0,0:0:0:0:
320,192,118064,1,0,0:0:0:0:
448,192,118128,1,0,0:0:0:0:
192,192,118192,1,0,0:0:0:0:
320,192,118256,1,0,0:0:0:0:
448,192,118320,1,0,0:0:0:0:
320,192,118383,1,0,0:0:0:0:
192,192,118447,1,0,0:0:0:0:
64,192,118511,1,0,0:0:0:0:
320,192,118575,1,0,0:0:0:0:
192,192,118639,1,0,0:0:0:0:
64,192,118702,1,0,0:0:0:0:
192,192,118766,1,0,0:0:0:0:
320,192,118830,1,0,0:0:0:0:
448,192,118894,1,0,0:0:0:0:
192,192,118958,1,0,0:0:0:0:
64,192,119022,1,0,0:0:0:0:
320,192,119085,1,0,0:0:0:0:
448,192,119149,1,0,0:0:0:0:
64,192,119213,1,0,0:0:0:0:
192,192,119277,1,0,0:0:0:0:
448,192,119341,1,0,0:0:0:0:
320,192,119405,1,0,0:0:0:0:
64,192,119468,1,0,0:0:0:0:
192,192,119532,1,0,0:0:0:0:
320,192,119596,1,0,0:0:0:0:
448,192,119660,1,0,0:0:0:0:
64,192,119724,1,0,0:0:0:0:
192,192,119788,1,0,0:0:0:0:
320,192,119851,1,0,0:0:0:0:
448,192,119915,1,0,0:0:0:0:
192,192,119979,1,0,0:0:0:0:
64,192,120043,1,0,0:0:0:0:
320,192,120107,1,0,0:0:0:0:
192,192,120171,1,0,0:0:0:0:
64,192,120234,1,0,0:0:0:0:
448,192,120298,1,0,0:0:0:0:
320,192,120362,1,0,0:0:0:0:
192,192,120426,1,0,0:0:0:0:
64,192,120490,1,0,0:0:0:0:
192,192,120554,1,0,0:0:0:0:
448,192,120617,1,0,0:0:0:0:
320,192,120681,1,0,0:0:0:0:
64,192,120745,1,0,0:0:0:0:
192,192,120809,1,0,0:0:0:0:
448,192,120873,1,0,0:0:0:0:
320,192,120937,1,0,0:0:0:0:
64,192,121000,1,0,0:0:0:0:
192,192,121064,1,0,0:0:0:0:
320,192,121128,1,0,0:0:0:0:
192,192,121192,1,0,0:0:0:0:
320,192,121256,1,0,0:0:0:0:
448,192,121320,1,0,0:0:0:0:
64,192,121383,1,0,0:0:0:0:
192,192,121447,1,0,0:0:0:0:
448,192,121511,1,0,0:0:0:0:
320,192,121575,1,0,0:0:0:0:
192,192,121639,1,0,0:0:0:0:
320,192,121702,1,0,0:0:0:0:
192,192,121766,1,0,0:0:0:0:
64,192,121830,1,0,0:0:0:0:
448,192,121894,1,0,0:0:0:0:
320,192,121958,1,0,0:0:0:0:
64,192,122022,1,0,0:0:0:0:
192,192,122085,1,0,0:0:0:0:
320,192,122149,1,0,0:0:0:0:
448,192,122213,1,0,0:0:0:0:
192,192,122277,1,0,0:0:0:0:
320,192,122341,1,0,0:0:0:0:
448,192,122405,1,0,0:0:0:0:
320,192,122468,1,0,0:0:0:0:
192,192,122532,1,0,0:0:0:0:
64,192,122596,1,0,0:0:0:0:
320,192,122660,1,0,0:0:0:0:
192,192,122724,1,0,0:0:0:0:
64,192,122788,1,0,0:0:0:0:
192,192,122851,1,0,0:0:0:0:
320,192,122915,1,0,0:0:0:0:
448,192,122979,1,0,0:0:0:0:
192,192,123043,1,0,0:0:0:0:
64,192,123107,1,0,0:0:0:0:
320,192,123171,1,0,0:0:0:0:
448,192,123234,1,0,0:0:0:0:
64,192,123298,1,0,0:0:0:0:
192,192,123362,1,0,0:0:0:0:
448,192,123426,1,0,0:0:0:0:
320,192,123490,1,0,0:0:0:0:
64,192,123554,1,0,0:0:0:0:
192,192,123617,1,0,0:0:0:0:
320,192,123681,1,0,0:0:0:0:
448,192,123745,1,0,0:0:0:0:
64,192,123809,1,0,0:0:0:0:
192,192,123873,1,0,0:0:0:0:
320,192,123937,1,0,0:0:0:0:
448,192,124000,1,0,0:0:0:0:
64,192,124064,128,0,125085:0:0:0:0:
192,192,124064,1,0,0:0:0:0:
320,192,124128,1,0,0:0:0:0:
448,192,124192,1,0,0:0:0:0:
320,192,124256,1,0,0:0:0:0:
192,192,124320,1,0,0:0:0:0:
320,192,124383,1,0,0:0:0:0:
448,192,124447,1,0,0:0:0:0:
192,192,124511,1,0,0:0:0:0:
320,192,124575,1,0,0:0:0:0:
448,192,124575,128,0,125085:0:0:0:0:
192,192,124639,1,0,0:0:0:0:
320,192,124702,1,0,0:0:0:0:
192,192,124766,1,0,0:0:0:0:
320,192,124830,1,0,0:0:0:0:
192,192,124894,1,0,0:0:0:0:
320,192,124958,1,0,0:0:0:0:
192,192,125022,1,0,0:0:0:0:
320,192,125085,1,0,0:0:0:0:
64,192,125341,1,0,0:0:0:0:
192,192,125341,1,0,0:0:0:0:
448,192,125341,1,0,0:0:0:0:
64,192,125596,1,0,0:0:0:0:
192,192,125596,1,0,0:0:0:0:
448,192,125596,1,0,0:0:0:0:
64,192,125851,1,0,0:0:0:0:
192,192,125851,1,0,0:0:0:0:
448,192,125851,1,0,0:0:0:0:
64,192,126107,1,0,0:0:0:0:
320,192,126107,1,0,0:0:0:0:
448,192,126107,1,0,0:0:0:0:
64,192,126362,1,0,0:0:0:0:
320,192,126362,1,0,0:0:0:0:
448,192,126362,1,0,0:0:0:0:
64,192,126617,1,0,0:0:0:0:
320,192,126617,1,0,0:0:0:0:
448,192,126617,1,0,0:0:0:0:
64,192,126873,1,0,0:0:0:0:
320,192,126873,1,0,0:0:0:0:
448,192,126873,1,0,0:0:0:0:
192,192,127000,1,0,0:0:0:0:
320,192,127064,1,0,0:0:0:0:
64,192,127128,1,0,0:0:0:0:
192,192,127128,1,0,0:0:0:0:
448,192,127128,1,0,0:0:0:0:
64,192,127383,1,0,0:0:0:0:
192,192,127383,1,0,0:0:0:0:
448,192,127383,1,0,0:0:0:0:
64,192,127639,1,0,0:0:0:0:
192,192,127639,1,0,0:0:0:0:
448,192,127639,1,0,0:0:0:0:
64,192,127894,1,0,0:0:0:0:
192,192,127894,1,0,0:0:0:0:
448,192,127894,1,0,0:0:0:0:
64,192,128149,1,0,0:0:0:0:
320,192,128149,1,0,0:0:0:0:
448,192,128149,1,0,0:0:0:0:
64,192,128405,1,0,0:0:0:0:
320,192,128405,1,0,0:0:0:0:
448,192,128405,1,0,0:0:0:0:
64,192,128660,1,0,0:0:0:0:
320,192,128660,1,0,0:0:0:0:
448,192,128660,1,0,0:0:0:0:
64,192,128915,1,0,0:0:0:0:
320,192,128915,1,0,0:0:0:0:
448,192,128915,1,0,0:0:0:0:
192,192,129043,1,0,0:0:0:0:
320,192,129043,1,0,0:0:0:0:
448,192,129043,1,0,0:0:0:0:
64,192,129171,1,0,0:0:0:0:
192,192,129171,1,0,0:0:0:0:
320,192,129171,1,0,0:0:0:0:
64,192,129426,1,0,0:0:0:0:
192,192,129426,1,0,0:0:0:0:
320,192,129426,1,0,0:0:0:0:
64,192,129681,1,0,0:0:0:0:
320,192,129681,1,0,0:0:0:0:
192,192,129681,1,0,0:0:0:0:
64,192,129937,1,0,0:0:0:0:
192,192,129937,1,0,0:0:0:0:
320,192,129937,1,0,0:0:0:0:
192,192,130192,1,0,0:0:0:0:
320,192,130192,1,0,0:0:0:0:
448,192,130192,1,0,0:0:0:0:
192,192,130447,1,0,0:0:0:0:
320,192,130447,1,0,0:0:0:0:
448,192,130447,1,0,0:0:0:0:
192,192,130702,1,0,0:0:0:0:
320,192,130702,1,0,0:0:0:0:
448,192,130702,1,0,0:0:0:0:
192,192,130958,1,0,0:0:0:0:
320,192,130958,1,0,0:0:0:0:
448,192,130958,1,0,0:0:0:0:
320,192,131085,1,0,0:0:0:0:
448,192,131149,1,0,0:0:0:0:
64,192,131213,1,0,0:0:0:0:
192,192,131213,1,0,0:0:0:0:
320,192,131213,1,0,0:0:0:0:
64,192,131468,1,0,0:0:0:0:
192,192,131468,1,0,0:0:0:0:
320,192,131468,1,0,0:0:0:0:
64,192,131724,1,0,0:0:0:0:
192,192,131724,1,0,0:0:0:0:
320,192,131724,1,0,0:0:0:0:
64,192,131979,1,0,0:0:0:0:
192,192,131979,1,0,0:0:0:0:
320,192,131979,1,0,0:0:0:0:
64,192,132234,1,0,0:0:0:0:
192,192,132298,1,0,0:0:0:0:
320,192,132362,1,0,0:0:0:0:
448,192,132426,1,0,0:0:0:0:
64,192,132490,1,0,0:0:0:0:
192,192,132554,1,0,0:0:0:0:
320,192,132617,1,0,0:0:0:0:
448,192,132681,1,0,0:0:0:0:
64,192,132745,1,0,0:0:0:0:
192,192,132809,1,0,0:0:0:0:
448,192,132873,1,0,0:0:0:0:
320,192,132937,1,0,0:0:0:0:
64,192,133000,1,0,0:0:0:0:
192,192,133064,1,0,0:0:0:0:
448,192,133128,1,0,0:0:0:0:
320,192,133192,1,0,0:0:0:0:
448,192,133256,1,0,0:0:0:0:
192,192,133256,1,0,0:0:0:0:
64,192,133256,1,0,0:0:0:0:
448,192,133511,1,0,0:0:0:0:
192,192,133511,1,0,0:0:0:0:
64,192,133511,1,0,0:0:0:0:
448,192,133766,1,0,0:0:0:0:
192,192,133766,1,0,0:0:0:0:
64,192,133766,1,0,0:0:0:0:
448,192,134022,1,0,0:0:0:0:
192,192,134022,1,0,0:0:0:0:
64,192,134022,1,0,0:0:0:0:
448,192,134277,1,0,0:0:0:0:
320,192,134277,1,0,0:0:0:0:
64,192,134277,1,0,0:0:0:0:
448,192,134532,1,0,0:0:0:0:
320,192,134532,1,0,0:0:0:0:
64,192,134532,1,0,0:0:0:0:
448,192,134788,1,0,0:0:0:0:
320,192,134788,1,0,0:0:0:0:
64,192,134788,1,0,0:0:0:0:
448,192,135043,1,0,0:0:0:0:
320,192,135043,1,0,0:0:0:0:
64,192,135043,1,0,0:0:0:0:
192,192,135171,1,0,0:0:0:0:
320,192,135234,1,0,0:0:0:0:
448,192,135298,1,0,0:0:0:0:
192,192,135298,1,0,0:0:0:0:
64,192,135298,1,0,0:0:0:0:
448,192,135554,1,0,0:0:0:0:
192,192,135554,1,0,0:0:0:0:
64,192,135554,1,0,0:0:0:0:
448,192,135809,1,0,0:0:0:0:
192,192,135809,1,0,0:0:0:0:
64,192,135809,1,0,0:0:0:0:
448,192,136064,1,0,0:0:0:0:
192,192,136064,1,0,0:0:0:0:
64,192,136064,1,0,0:0:0:0:
448,192,136320,1,0,0:0:0:0:
320,192,136320,1,0,0:0:0:0:
64,192,136320,1,0,0:0:0:0:
448,192,136575,1,0,0:0:0:0:
320,192,136575,1,0,0:0:0:0:
64,192,136575,1,0,0:0:0:0:
448,192,136830,1,0,0:0:0:0:
320,192,136830,1,0,0:0:0:0:
64,192,136830,1,0,0:0:0:0:
448,192,137085,1,0,0:0:0:0:
320,192,137085,1,0,0:0:0:0:
64,192,137085,1,0,0:0:0:0:
448,192,137213,1,0,0:0:0:0:
320,192,137213,1,0,0:0:0:0:
192,192,137213,1,0,0:0:0:0:
320,192,137341,1,0,0:0:0:0:
192,192,137341,1,0,0:0:0:0:
64,192,137341,1,0,0:0:0:0:
320,192,137596,1,0,0:0:0:0:
192,192,137596,1,0,0:0:0:0:
64,192,137596,1,0,0:0:0:0:
192,192,137851,1,0,0:0:0:0:
320,192,137851,1,0,0:0:0:0:
64,192,137851,1,0,0:0:0:0:
320,192,138107,1,0,0:0:0:0:
192,192,138107,1,0,0:0:0:0:
64,192,138107,1,0,0:0:0:0:
448,192,138362,1,0,0:0:0:0:
320,192,138362,1,0,0:0:0:0:
192,192,138362,1,0,0:0:0:0:
448,192,138617,1,0,0:0:0:0:
320,192,138617,1,0,0:0:0:0:
192,192,138617,1,0,0:0:0:0:
448,192,138873,1,0,0:0:0:0:
320,192,138873,1,0,0:0:0:0:
192,192,138873,1,0,0:0:0:0:
448,192,139128,1,0,0:0:0:0:
320,192,139128,1,0,0:0:0:0:
192,192,139128,1,0,0:0:0:0:
320,192,139383,1,0,0:0:0:0:
192,192,139383,1,0,0:0:0:0:
64,192,139383,1,0,0:0:0:0:
320,192,139639,1,0,0:0:0:0:
192,192,139639,1,0,0:0:0:0:
64,192,139639,1,0,0:0:0:0:
320,192,139894,1,0,0:0:0:0:
192,192,139894,1,0,0:0:0:0:
64,192,139894,1,0,0:0:0:0:
320,192,140149,1,0,0:0:0:0:
192,192,140149,1,0,0:0:0:0:
64,192,140149,1,0,0:0:0:0:
64,192,140405,1,0,0:0:0:0:
192,192,140468,1,0,0:0:0:0:
320,192,140532,1,0,0:0:0:0:
448,192,140596,1,0,0:0:0:0:
320,192,140660,1,0,0:0:0:0:
192,192,140724,1,0,0:0:0:0:
64,192,140788,1,0,0:0:0:0:
192,192,140851,1,0,0:0:0:0:
320,192,140915,128,0,141426:0:0:0:0:
64,192,141426,1,4,0:0:0:0:
448,192,141426,1,4,0:0:0:0:
192,192,141426,1,4,0:0:0:0:
