osu file format v14

[General]
AudioFilename: audio.ogg
AudioLeadIn: 0
PreviewTime: 21673
Countdown: 0
SampleSet: Soft
StackLeniency: 0.7
Mode: 3
LetterboxInBreaks: 0
SpecialStyle: 0
WidescreenStoryboard: 1

[Editor]
DistanceSpacing: 1.5
BeatDivisor: 4
GridSize: 32
TimelineZoom: 1.7

[Metadata]
Title:Your New Home (TV Size)
TitleUnicode:Your New Home (TV Size)
Artist:Gooseworx
ArtistUnicode:Gooseworx
Creator:Monoseul
Version:Normal
Source:THE AMAZING DIGITAL CIRCUS
Tags:pomni evan alderete glitch productions orchestral classical instrumental pilot original soundtrack theme ost tadc
BeatmapID:4376015
BeatmapSetID:2088194

[Difficulty]
HPDrainRate:7
CircleSize:4
OverallDifficulty:7
ApproachRate:5
SliderMultiplier:1.4
SliderTickRate:1

[Events]
//Background and Video events
0,0,"pomni3.jpg",0,0
//Break Periods
//Storyboard Layer 0 (Background)
//Storyboard Layer 1 (Fail)
//Storyboard Layer 2 (Pass)
//Storyboard Layer 3 (Foreground)
//Storyboard Layer 4 (Overlay)
//Storyboard Sound Samples

[TimingPoints]
340,666.666666666667,4,2,1,10,1,0
21673,-100,4,2,1,20,0,0
43025,666.666666666667,4,2,1,20,1,1
53691,-100,4,2,1,15,0,8
55298,666.666666666667,9,2,1,20,1,1
61298,-100,9,2,1,10,0,0

[HitObjects]
64,192,340,5,0,0:0:0:0:
192,192,340,1,0,0:0:0:0:
448,192,1673,1,0,0:0:0:0:
64,192,1673,1,0,0:0:0:0:
320,192,2006,1,0,0:0:0:0:
320,192,2340,1,0,0:0:0:0:
192,192,2340,1,0,0:0:0:0:
192,192,2673,1,0,0:0:0:0:
64,192,3006,1,0,0:0:0:0:
448,192,3006,1,0,0:0:0:0:
192,192,3673,1,0,0:0:0:0:
448,192,4340,1,0,0:0:0:0:
64,192,4340,1,0,0:0:0:0:
320,192,4673,1,0,0:0:0:0:
192,192,5006,1,0,0:0:0:0:
320,192,5006,1,0,0:0:0:0:
192,192,5340,1,0,0:0:0:0:
320,192,5506,1,0,0:0:0:0:
64,192,5673,1,0,0:0:0:0:
448,192,5673,1,0,0:0:0:0:
320,192,6340,1,0,0:0:0:0:
448,192,7006,1,0,0:0:0:0:
64,192,7006,1,0,0:0:0:0:
320,192,7340,1,0,0:0:0:0:
320,192,7673,1,0,0:0:0:0:
192,192,7673,1,0,0:0:0:0:
192,192,8006,1,0,0:0:0:0:
448,192,8340,1,0,0:0:0:0:
320,192,8340,1,0,0:0:0:0:
64,192,8673,1,0,0:0:0:0:
192,192,9006,1,0,0:0:0:0:
320,192,9006,1,0,0:0:0:0:
448,192,9340,1,0,0:0:0:0:
64,192,9673,1,0,0:0:0:0:
192,192,9673,1,0,0:0:0:0:
448,192,10006,1,0,0:0:0:0:
320,192,10340,1,0,0:0:0:0:
192,192,10340,1,0,0:0:0:0:
64,192,10673,1,0,0:0:0:0:
320,192,11006,1,0,0:0:0:0:
448,192,11006,1,0,0:0:0:0:
64,192,12340,1,0,0:0:0:0:
448,192,12340,1,0,0:0:0:0:
192,192,12673,1,0,0:0:0:0:
192,192,13006,1,0,0:0:0:0:
320,192,13006,1,0,0:0:0:0:
320,192,13340,1,0,0:0:0:0:
448,192,13673,1,0,0:0:0:0:
64,192,13673,1,0,0:0:0:0:
320,192,14340,1,0,0:0:0:0:
64,192,15006,1,0,0:0:0:0:
448,192,15006,1,0,0:0:0:0:
192,192,15340,1,0,0:0:0:0:
320,192,15673,1,0,0:0:0:0:
192,192,15673,1,0,0:0:0:0:
320,192,16006,1,0,0:0:0:0:
192,192,16173,1,0,0:0:0:0:
448,192,16340,1,0,0:0:0:0:
64,192,16340,1,0,0:0:0:0:
192,192,17006,1,0,0:0:0:0:
448,192,17673,1,0,0:0:0:0:
320,192,18006,1,0,0:0:0:0:
320,192,18340,1,0,0:0:0:0:
192,192,18673,1,0,0:0:0:0:
320,192,18840,1,0,0:0:0:0:
64,192,19006,1,0,0:0:0:0:
448,192,19006,1,0,0:0:0:0:
192,192,19673,1,0,0:0:0:0:
192,192,20340,1,0,0:0:0:0:
320,192,20340,128,0,20673:0:0:0:0:
448,192,21006,128,0,21340:0:0:0:0:
320,192,21006,128,0,21340:0:0:0:0:
64,192,21673,128,0,23006:0:0:0:0:
448,192,21673,128,0,23006:0:0:0:0:
320,192,23006,128,0,23673:0:0:0:0:
448,192,23340,128,0,23673:0:0:0:0:
192,192,23673,128,0,24340:0:0:0:0:
320,192,24006,128,0,24340:0:0:0:0:
64,192,24340,128,0,25673:0:0:0:0:
448,192,25006,1,0,0:0:0:0:
448,192,25673,128,0,26340:0:0:0:0:
320,192,26006,128,0,26340:0:0:0:0:
192,192,26340,128,0,26673:0:0:0:0:
64,192,26673,128,0,26840:0:0:0:0:
320,192,26840,128,0,27006:0:0:0:0:
448,192,27006,128,0,28340:0:0:0:0:
64,192,27673,1,0,0:0:0:0:
192,192,28340,128,0,29006:0:0:0:0:
64,192,28673,128,0,29006:0:0:0:0:
320,192,29006,128,0,29673:0:0:0:0:
192,192,29340,128,0,29673:0:0:0:0:
448,192,29673,128,0,30340:0:0:0:0:
64,192,30006,128,0,30340:0:0:0:0:
320,192,30340,128,0,31006:0:0:0:0:
64,192,30673,128,0,31006:0:0:0:0:
192,192,31006,128,0,31340:0:0:0:0:
448,192,31340,128,0,32006:0:0:0:0:
320,192,31673,128,0,32006:0:0:0:0:
192,192,32006,128,0,32340:0:0:0:0:
64,192,32340,128,0,33673:0:0:0:0:
448,192,32340,128,0,33673:0:0:0:0:
320,192,33673,128,0,34340:0:0:0:0:
448,192,34006,128,0,34340:0:0:0:0:
192,192,34340,128,0,35006:0:0:0:0:
64,192,34673,128,0,35006:0:0:0:0:
448,192,35006,128,0,36340:0:0:0:0:
192,192,35673,1,0,0:0:0:0:
192,192,36340,128,0,37006:0:0:0:0:
320,192,36673,128,0,37006:0:0:0:0:
448,192,37006,128,0,37340:0:0:0:0:
192,192,37340,128,0,37506:0:0:0:0:
320,192,37506,128,0,37673:0:0:0:0:
64,192,37673,128,0,39006:0:0:0:0:
448,192,38340,1,0,0:0:0:0:
320,192,39006,128,0,39673:0:0:0:0:
448,192,39340,128,0,39673:0:0:0:0:
192,192,39673,128,0,40340:0:0:0:0:
320,192,40006,128,0,40340:0:0:0:0:
64,192,40340,128,0,41006:0:0:0:0:
448,192,40673,128,0,41006:0:0:0:0:
192,192,41006,128,0,41673:0:0:0:0:
64,192,41340,128,0,41673:0:0:0:0:
448,192,41673,128,0,42006:0:0:0:0:
192,192,42006,128,0,42673:0:0:0:0:
320,192,42340,128,0,42673:0:0:0:0:
448,192,42673,128,0,43025:0:0:0:0:
192,192,43025,128,0,44358:0:0:0:0:
64,192,43025,128,0,44358:0:0:0:0:
448,192,43691,1,0,0:0:0:0:
448,192,44358,128,0,44525:0:0:0:0:
64,192,44525,128,0,44691:0:0:0:0:
448,192,44691,128,0,44858:0:0:0:0:
64,192,44858,128,0,45025:0:0:0:0:
192,192,45025,1,0,0:0:0:0:
320,192,45247,1,0,0:0:0:0:
192,192,45469,1,0,0:0:0:0:
320,192,45691,128,0,47025:0:0:0:0:
448,192,45691,128,0,47025:0:0:0:0:
64,192,46358,1,0,0:0:0:0:
64,192,47025,128,0,47191:0:0:0:0:
448,192,47191,128,0,47358:0:0:0:0:
64,192,47358,128,0,47525:0:0:0:0:
448,192,47525,128,0,47691:0:0:0:0:
320,192,47691,1,0,0:0:0:0:
192,192,47913,1,0,0:0:0:0:
320,192,48136,1,0,0:0:0:0:
64,192,48358,128,0,49691:0:0:0:0:
448,192,48358,128,0,49691:0:0:0:0:
320,192,49025,1,0,0:0:0:0:
320,192,49691,128,0,49858:0:0:0:0:
192,192,49858,128,0,50025:0:0:0:0:
320,192,50025,128,0,50191:0:0:0:0:
192,192,50191,128,0,50358:0:0:0:0:
448,192,50358,1,0,0:0:0:0:
64,192,50580,1,0,0:0:0:0:
320,192,50802,1,0,0:0:0:0:
64,192,51025,128,0,51691:0:0:0:0:
448,192,51025,128,0,51691:0:0:0:0:
192,192,51691,1,0,0:0:0:0:
320,192,51913,1,0,0:0:0:0:
64,192,52136,1,0,0:0:0:0:
320,192,52358,128,0,52802:0:0:0:0:
448,192,52358,128,0,52802:0:0:0:0:
64,192,52802,1,0,0:0:0:0:
448,192,53025,1,0,0:0:0:0:
320,192,53025,128,0,53247:0:0:0:0:
192,192,53247,128,0,53469:0:0:0:0:
320,192,53469,128,0,53691:0:0:0:0:
64,192,55298,128,0,61298:0:0:0:0:
448,192,55298,128,0,61298:0:0:0:0:
320,192,55298,128,0,61298:0:0:0:0:
