osu file format v14

[General]
AudioFilename: audio.mp3
AudioLeadIn: 0
PreviewTime: 167568
Countdown: 0
SampleSet: Normal
StackLeniency: 0.7
Mode: 1
LetterboxInBreaks: 0
WidescreenStoryboard: 0

[Editor]
DistanceSpacing: 1.7
BeatDivisor: 4
GridSize: 32
TimelineZoom: 2.2

[Metadata]
Title:Hikaru*ra (hurce Bootleg Mix)
TitleUnicode:光る*ら (hurce Bootleg Mix)
Artist:Goose house
ArtistUnicode:Goose house
Creator:Maeda
Version:to be the starry sky
Source:四月は君の嘘
Tags:anime japanese remix makina j-core hardcore 175 光るなら OP Opening J-POP JPOP Hikaru nara hikarunara shigatsu wa kimi no uso your lie in april A-Remix Nation 12 Star will shine above you... for you sounds
BeatmapID:2649491
BeatmapSetID:1275135

[Difficulty]
HPDrainRate:4.5
CircleSize:5
OverallDifficulty:6.5
ApproachRate:5
SliderMultiplier:1.4
SliderTickRate:1

[Events]
//Background and Video events
0,0,"Shigatsu.wa.Kimi.no.Uso.full.1923817.jpg",0,-50
//Break Periods
//Storyboard Layer 0 (Background)
//Storyboard Layer 1 (Fail)
//Storyboard Layer 2 (Pass)
//Storyboard Layer 3 (Foreground)
//Storyboard Layer 4 (Overlay)
//Storyboard Sound Samples

[TimingPoints]
340,342.857142857143,4,1,0,70,1,0
682,-111.111111111111,4,1,0,70,0,0
11225,-108.108108108108,4,1,0,70,0,0
11311,-105.263157894737,4,1,0,80,0,0
16711,-100,4,1,0,90,0,0
66082,-100,4,1,0,85,0,0
100454,-100,4,1,0,85,0,0
100625,-104.166666666667,4,1,0,85,0,0
100968,-108.695652173913,4,1,0,85,0,0
101311,-113.636363636364,4,1,0,85,0,0
101654,-119.047619047619,4,1,0,85,0,0
101825,-125,4,1,0,60,0,0
123682,-111.111111111111,4,1,0,70,0,0
134654,-100,4,1,0,90,0,0
145711,-95.2380952380952,4,1,0,100,0,1
166282,-100,4,1,0,80,0,0
167654,-95.2380952380952,4,1,0,100,0,1
189511,-95.2380952380952,4,1,0,70,0,1
189597,-95.2380952380952,4,1,0,70,0,0
189854,-111.111111111111,4,1,0,70,0,0
200482,-100,4,1,0,90,0,0
211282,-100,4,1,0,80,0,0
233482,-125,4,1,0,60,0,0
241711,-166.666666666667,4,1,0,60,0,0
244368,-100,4,1,0,90,0,0
255168,-100,4,1,0,90,0,0
266397,-95.2380952380952,4,1,0,100,0,1
286968,-100,4,1,0,80,0,0
288340,-95.2380952380952,4,1,0,100,0,1
310282,-100,4,1,0,90,0,0
332140,-100,4,1,0,85,0,0
354082,-100,4,1,0,80,0,0
376111,-100,4,1,0,50,0,0
376796,-100,4,1,0,46,0,0
377482,-100,4,1,0,42,0,0
378168,-100,4,1,0,38,0,0
378853,-100,4,1,0,34,0,0
379539,-100,4,1,0,30,0,0
380225,-100,4,1,0,25,0,0
380910,-100,4,1,0,21,0,0
381596,-100,4,1,0,17,0,0
382282,-100,4,1,0,13,0,0
382968,-100,4,1,0,9,0,0
383653,-100,4,1,0,5,0,0

[HitObjects]
256,192,340,5,4,0:0:0:0:
256,192,682,1,8,0:0:0:0:
256,192,1025,1,8,0:0:0:0:
256,192,1368,1,8,0:0:0:0:
256,192,1711,1,8,0:0:0:0:
256,192,2054,1,8,0:0:0:0:
256,192,2397,1,8,0:0:0:0:
256,192,2740,1,8,0:0:0:0:
256,192,2911,1,8,0:0:0:0:
256,192,3082,1,8,0:0:0:0:
256,192,3425,1,8,0:0:0:0:
256,192,3768,1,8,0:0:0:0:
256,192,4111,1,8,0:0:0:0:
256,192,4454,1,8,0:0:0:0:
256,192,4797,1,8,0:0:0:0:
256,192,4968,1,8,0:0:0:0:
256,192,5140,1,8,0:0:0:0:
256,192,5225,1,8,0:0:0:0:
256,192,5311,1,8,0:0:0:0:
256,192,5482,1,8,0:0:0:0:
256,192,5654,1,8,0:0:0:0:
256,192,5825,1,8,0:0:0:0:
256,192,6168,1,8,0:0:0:0:
256,192,6511,1,8,0:0:0:0:
256,192,6854,1,8,0:0:0:0:
256,192,7197,1,8,0:0:0:0:
256,192,7540,1,8,0:0:0:0:
256,192,7882,1,8,0:0:0:0:
256,192,8225,1,8,0:0:0:0:
256,192,8397,1,8,0:0:0:0:
256,192,8568,1,8,0:0:0:0:
256,192,8911,1,8,0:0:0:0:
256,192,9254,1,8,0:0:0:0:
256,192,9597,1,8,0:0:0:0:
256,192,9940,1,8,0:0:0:0:
256,192,10111,1,8,0:0:0:0:
256,192,10282,1,8,0:0:0:0:
256,192,10368,1,8,0:0:0:0:
256,192,10454,1,8,0:0:0:0:
256,192,10625,1,8,0:0:0:0:
256,192,10968,1,8,0:0:0:0:
256,192,11140,1,8,0:0:0:0:
256,192,11225,1,8,0:0:0:0:
256,192,11311,1,4,0:0:0:0:
256,192,11654,1,8,0:0:0:0:
256,192,11911,1,8,0:0:0:0:
256,192,11997,1,0,0:0:0:0:
256,192,12168,1,0,0:0:0:0:
256,192,12340,1,8,0:0:0:0:
256,192,12682,1,0,0:0:0:0:
256,192,12854,1,0,0:0:0:0:
256,192,13025,1,8,0:0:0:0:
256,192,13282,1,8,0:0:0:0:
256,192,13368,1,0,0:0:0:0:
256,192,13540,1,0,0:0:0:0:
256,192,13711,1,8,0:0:0:0:
256,192,14054,1,0,0:0:0:0:
256,192,14225,1,0,0:0:0:0:
256,192,14397,1,8,0:0:0:0:
256,192,14654,1,8,0:0:0:0:
256,192,14740,1,0,0:0:0:0:
256,192,14911,1,0,0:0:0:0:
256,192,15082,1,8,0:0:0:0:
256,192,15168,1,8,0:0:0:0:
256,192,15254,1,8,0:0:0:0:
256,192,15340,1,8,0:0:0:0:
256,192,15425,1,0,0:0:0:0:
256,192,15597,1,0,0:0:0:0:
256,192,15768,1,8,0:0:0:0:
256,192,15940,1,0,0:0:0:0:
256,192,16111,1,0,0:0:0:0:
256,192,16197,1,0,0:0:0:0:
256,192,16282,1,0,0:0:0:0:
256,192,16454,1,8,0:0:0:0:
256,192,16797,1,12,0:0:0:0:
256,192,16968,1,8,0:0:0:0:
256,192,17054,1,8,0:0:0:0:
256,192,17140,1,0,0:0:0:0:
256,192,17311,1,8,0:0:0:0:
256,192,17482,1,0,0:0:0:0:
256,192,17568,1,0,0:0:0:0:
256,192,17654,1,0,0:0:0:0:
256,192,17740,1,0,0:0:0:0:
256,192,17825,1,8,0:0:0:0:
256,192,17997,1,0,0:0:0:0:
256,192,18168,1,12,0:0:0:0:
256,192,18340,1,0,0:0:0:0:
256,192,18425,1,0,0:0:0:0:
256,192,18511,1,8,0:0:0:0:
256,192,18682,1,8,0:0:0:0:
256,192,18854,1,0,0:0:0:0:
256,192,18940,1,8,0:0:0:0:
256,192,19025,1,0,0:0:0:0:
256,192,19111,1,0,0:0:0:0:
256,192,19197,1,8,0:0:0:0:
256,192,19368,1,0,0:0:0:0:
256,192,19540,1,12,0:0:0:0:
256,192,19711,1,8,0:0:0:0:
256,192,19797,1,8,0:0:0:0:
256,192,19882,1,0,0:0:0:0:
256,192,20054,1,0,0:0:0:0:
256,192,20225,1,12,0:0:0:0:
256,192,20397,1,8,0:0:0:0:
256,192,20482,1,0,0:0:0:0:
256,192,20568,1,8,0:0:0:0:
256,192,20654,1,8,0:0:0:0:
256,192,20740,1,0,0:0:0:0:
256,192,20911,1,12,0:0:0:0:
256,192,22111,1,0,0:0:0:0:
256,192,22282,1,4,0:0:0:0:
256,192,22454,1,8,0:0:0:0:
256,192,22625,1,0,0:0:0:0:
256,192,22711,1,8,0:0:0:0:
256,192,22882,1,8,0:0:0:0:
256,192,22968,1,0,0:0:0:0:
256,192,23054,1,0,0:0:0:0:
256,192,23140,1,8,0:0:0:0:
256,192,23311,1,8,0:0:0:0:
256,192,23397,1,8,0:0:0:0:
256,192,23482,1,0,0:0:0:0:
256,192,23654,1,0,0:0:0:0:
256,192,23740,1,8,0:0:0:0:
256,192,23825,1,0,0:0:0:0:
256,192,23997,1,8,0:0:0:0:
256,192,24082,1,0,0:0:0:0:
256,192,24254,1,8,0:0:0:0:
256,192,24340,1,0,0:0:0:0:
256,192,24425,1,0,0:0:0:0:
256,192,24511,1,8,0:0:0:0:
256,192,24682,1,8,0:0:0:0:
256,192,24768,1,8,0:0:0:0:
256,192,24854,1,0,0:0:0:0:
256,192,24940,1,8,0:0:0:0:
256,192,25025,1,0,0:0:0:0:
256,192,25197,1,8,0:0:0:0:
256,192,25368,1,0,0:0:0:0:
256,192,25540,1,8,0:0:0:0:
256,192,25625,1,8,0:0:0:0:
256,192,25711,1,0,0:0:0:0:
256,192,25797,1,8,0:0:0:0:
256,192,25882,1,0,0:0:0:0:
256,192,26054,1,8,0:0:0:0:
256,192,26140,1,8,0:0:0:0:
256,192,26225,1,0,0:0:0:0:
256,192,26311,1,0,0:0:0:0:
256,192,26397,1,8,0:0:0:0:
256,192,26482,1,0,0:0:0:0:
256,192,26568,1,8,0:0:0:0:
256,192,26740,1,0,0:0:0:0:
256,192,26911,1,8,0:0:0:0:
256,192,26997,1,8,0:0:0:0:
256,192,27082,1,0,0:0:0:0:
256,192,27168,1,8,0:0:0:0:
256,192,27254,1,0,0:0:0:0:
256,192,27340,1,0,0:0:0:0:
256,192,27425,1,8,0:0:0:0:
256,192,27597,1,8,0:0:0:0:
256,192,27768,1,0,0:0:0:0:
256,192,27940,1,8,0:0:0:0:
256,192,28025,1,8,0:0:0:0:
256,192,28111,1,0,0:0:0:0:
256,192,28197,1,8,0:0:0:0:
256,192,28368,1,8,0:0:0:0:
256,192,28454,1,0,0:0:0:0:
256,192,28540,1,0,0:0:0:0:
256,192,28625,1,8,0:0:0:0:
256,192,28711,1,0,0:0:0:0:
256,192,28797,1,8,0:0:0:0:
256,192,28882,1,8,0:0:0:0:
256,192,28968,1,0,0:0:0:0:
256,192,29140,1,8,0:0:0:0:
256,192,29225,1,0,0:0:0:0:
256,192,29311,1,0,0:0:0:0:
256,192,29482,1,8,0:0:0:0:
256,192,29568,1,0,0:0:0:0:
256,192,29740,1,8,0:0:0:0:
256,192,29825,1,0,0:0:0:0:
256,192,29911,1,0,0:0:0:0:
256,192,29997,1,8,0:0:0:0:
256,192,30168,1,8,0:0:0:0:
256,192,30254,1,8,0:0:0:0:
256,192,30340,1,0,0:0:0:0:
256,192,30425,1,0,0:0:0:0:
256,192,30511,1,0,0:0:0:0:
256,192,30682,1,0,0:0:0:0:
256,192,30854,1,8,0:0:0:0:
256,192,31025,1,8,0:0:0:0:
256,192,31111,1,8,0:0:0:0:
256,192,31197,1,0,0:0:0:0:
256,192,31282,1,8,0:0:0:0:
256,192,31368,1,0,0:0:0:0:
256,192,31540,1,8,0:0:0:0:
256,192,31625,1,8,0:0:0:0:
256,192,31711,1,0,0:0:0:0:
256,192,31797,1,0,0:0:0:0:
256,192,31882,1,8,0:0:0:0:
256,192,31968,1,0,0:0:0:0:
256,192,32054,1,0,0:0:0:0:
256,192,32225,1,0,0:0:0:0:
256,192,32397,1,8,0:0:0:0:
256,192,32482,1,8,0:0:0:0:
256,192,32568,1,0,0:0:0:0:
256,192,32654,1,0,0:0:0:0:
256,192,32740,1,0,0:0:0:0:
256,192,32825,1,8,0:0:0:0:
256,192,32911,1,0,0:0:0:0:
256,192,33082,1,0,0:0:0:0:
256,192,33254,1,4,0:0:0:0:
256,192,33425,1,8,0:0:0:0:
256,192,33597,1,0,0:0:0:0:
256,192,33682,1,8,0:0:0:0:
256,192,33854,1,8,0:0:0:0:
256,192,33940,1,0,0:0:0:0:
256,192,34025,1,0,0:0:0:0:
256,192,34111,1,8,0:0:0:0:
256,192,34282,1,8,0:0:0:0:
256,192,34368,1,8,0:0:0:0:
256,192,34454,1,0,0:0:0:0:
256,192,34625,1,0,0:0:0:0:
256,192,34711,1,0,0:0:0:0:
256,192,34797,1,8,0:0:0:0:
256,192,34968,1,0,0:0:0:0:
256,192,35054,1,8,0:0:0:0:
256,192,35225,1,8,0:0:0:0:
256,192,35311,1,8,0:0:0:0:
256,192,35397,1,0,0:0:0:0:
256,192,35482,1,8,0:0:0:0:
256,192,35654,1,8,0:0:0:0:
256,192,35740,1,8,0:0:0:0:
256,192,35825,1,0,0:0:0:0:
256,192,35997,1,0,0:0:0:0:
256,192,36168,1,0,0:0:0:0:
256,192,36254,1,0,0:0:0:0:
256,192,36340,1,8,0:0:0:0:
256,192,36511,1,8,0:0:0:0:
256,192,36597,1,8,0:0:0:0:
256,192,36682,1,0,0:0:0:0:
256,192,36768,1,8,0:0:0:0:
256,192,36854,1,0,0:0:0:0:
256,192,37025,1,8,0:0:0:0:
256,192,37111,1,8,0:0:0:0:
256,192,37197,1,0,0:0:0:0:
256,192,37282,1,0,0:0:0:0:
256,192,37368,1,8,0:0:0:0:
256,192,37454,1,0,0:0:0:0:
256,192,37540,1,8,0:0:0:0:
256,192,37711,1,8,0:0:0:0:
256,192,37882,1,8,0:0:0:0:
256,192,37968,1,8,0:0:0:0:
256,192,38054,1,0,0:0:0:0:
256,192,38140,1,8,0:0:0:0:
256,192,38225,1,0,0:0:0:0:
256,192,38311,1,0,0:0:0:0:
256,192,38397,1,8,0:0:0:0:
256,192,38568,1,8,0:0:0:0:
256,192,38740,1,0,0:0:0:0:
256,192,38825,1,0,0:0:0:0:
256,192,38911,1,8,0:0:0:0:
256,192,38997,1,0,0:0:0:0:
256,192,39082,1,8,0:0:0:0:
256,192,39254,1,0,0:0:0:0:
256,192,39340,1,8,0:0:0:0:
256,192,39511,1,8,0:0:0:0:
256,192,39597,1,0,0:0:0:0:
256,192,39682,1,0,0:0:0:0:
256,192,39768,1,8,0:0:0:0:
256,192,39940,1,8,0:0:0:0:
256,192,40111,1,0,0:0:0:0:
256,192,40197,1,8,0:0:0:0:
256,192,40282,1,0,0:0:0:0:
256,192,40368,1,0,0:0:0:0:
256,192,40454,1,8,0:0:0:0:
256,192,40625,1,0,0:0:0:0:
256,192,40711,1,8,0:0:0:0:
256,192,40882,1,8,0:0:0:0:
256,192,40968,1,0,0:0:0:0:
256,192,41054,1,0,0:0:0:0:
256,192,41140,1,8,0:0:0:0:
256,192,41311,1,0,0:0:0:0:
256,192,41482,1,8,0:0:0:0:
256,192,41568,1,8,0:0:0:0:
256,192,41654,1,8,0:0:0:0:
256,192,41740,1,0,0:0:0:0:
256,192,41825,1,8,0:0:0:0:
256,192,41911,1,8,0:0:0:0:
256,192,41997,1,0,0:0:0:0:
256,192,42082,1,0,0:0:0:0:
256,192,42168,1,8,0:0:0:0:
256,192,42254,1,0,0:0:0:0:
256,192,42340,1,0,0:0:0:0:
256,192,42425,1,0,0:0:0:0:
256,192,42511,1,8,0:0:0:0:
256,192,42597,1,8,0:0:0:0:
256,192,42682,1,8,0:0:0:0:
256,192,42768,1,8,0:0:0:0:
256,192,42854,1,0,0:0:0:0:
256,192,43111,1,0,0:0:0:0:
256,192,43197,1,8,0:0:0:0:
256,192,43368,1,8,0:0:0:0:
256,192,43454,1,8,0:0:0:0:
256,192,43540,1,0,0:0:0:0:
256,192,43625,1,0,0:0:0:0:
256,192,43711,1,8,0:0:0:0:
256,192,43882,1,12,0:0:0:0:
256,192,44225,1,4,0:0:0:0:
256,192,44482,1,8,0:0:0:0:
256,192,44568,1,0,0:0:0:0:
256,192,44740,1,8,0:0:0:0:
256,192,44911,1,0,0:0:0:0:
256,192,44997,1,0,0:0:0:0:
256,192,45082,1,8,0:0:0:0:
256,192,45254,1,0,0:0:0:0:
256,192,45425,1,8,0:0:0:0:
256,192,45511,1,0,0:0:0:0:
256,192,45682,1,0,0:0:0:0:
256,192,45768,1,8,0:0:0:0:
256,192,45940,1,8,0:0:0:0:
256,192,46111,1,0,0:0:0:0:
256,192,46197,1,0,0:0:0:0:
256,192,46282,1,8,0:0:0:0:
256,192,46368,1,8,0:0:0:0:
256,192,46454,1,0,0:0:0:0:
256,192,46625,1,8,0:0:0:0:
256,192,46711,1,0,0:0:0:0:
256,192,46797,1,8,0:0:0:0:
256,192,46968,1,8,0:0:0:0:
256,192,47054,1,8,0:0:0:0:
256,192,47140,1,0,0:0:0:0:
256,192,47225,1,0,0:0:0:0:
256,192,47311,1,8,0:0:0:0:
256,192,47482,1,8,0:0:0:0:
256,192,47654,1,8,0:0:0:0:
256,192,47740,1,8,0:0:0:0:
256,192,47825,1,0,0:0:0:0:
256,192,47997,1,8,0:0:0:0:
256,192,48168,1,0,0:0:0:0:
256,192,48254,1,8,0:0:0:0:
256,192,48425,1,8,0:0:0:0:
256,192,48511,1,0,0:0:0:0:
256,192,48682,1,8,0:0:0:0:
256,192,48854,1,0,0:0:0:0:
256,192,48940,1,0,0:0:0:0:
256,192,49025,1,8,0:0:0:0:
256,192,49111,1,8,0:0:0:0:
256,192,49197,1,0,0:0:0:0:
256,192,49368,1,8,0:0:0:0:
256,192,49540,1,0,0:0:0:0:
256,192,49711,1,0,0:0:0:0:
256,192,49968,1,8,0:0:0:0:
256,192,50054,1,0,0:0:0:0:
256,192,50225,1,8,0:0:0:0:
256,192,50397,1,0,0:0:0:0:
256,192,50482,1,0,0:0:0:0:
256,192,50568,1,8,0:0:0:0:
256,192,50740,1,0,0:0:0:0:
256,192,50911,1,8,0:0:0:0:
256,192,50997,1,0,0:0:0:0:
256,192,51082,1,8,0:0:0:0:
256,192,51168,1,8,0:0:0:0:
256,192,51254,1,0,0:0:0:0:
256,192,51425,1,8,0:0:0:0:
256,192,51597,1,0,0:0:0:0:
256,192,51682,1,0,0:0:0:0:
256,192,51768,1,8,0:0:0:0:
256,192,51854,1,0,0:0:0:0:
256,192,51940,1,8,0:0:0:0:
256,192,52111,1,0,0:0:0:0:
256,192,52282,1,0,0:0:0:0:
256,192,52368,1,8,0:0:0:0:
256,192,52540,1,8,0:0:0:0:
256,192,52625,1,0,0:0:0:0:
256,192,52797,1,8,0:0:0:0:
256,192,52882,1,8,0:0:0:0:
256,192,52968,1,0,0:0:0:0:
256,192,53140,1,8,0:0:0:0:
256,192,53225,1,0,0:0:0:0:
256,192,53311,1,0,0:0:0:0:
256,192,53397,1,0,0:0:0:0:
256,192,53482,1,8,0:0:0:0:
256,192,53654,1,0,0:0:0:0:
256,192,53740,1,0,0:0:0:0:
256,192,53825,1,8,0:0:0:0:
256,192,53997,1,0,0:0:0:0:
256,192,54168,1,8,0:0:0:0:
256,192,54254,1,8,0:0:0:0:
256,192,54340,1,0,0:0:0:0:
256,192,54511,1,8,0:0:0:0:
256,192,54854,1,8,0:0:0:0:
256,192,54940,1,8,0:0:0:0:
256,192,55025,1,0,0:0:0:0:
256,192,55197,1,4,0:0:0:0:
256,192,55454,1,8,0:0:0:0:
256,192,55540,1,0,0:0:0:0:
256,192,55711,1,8,0:0:0:0:
256,192,55882,1,0,0:0:0:0:
256,192,55968,1,0,0:0:0:0:
256,192,56054,1,8,0:0:0:0:
256,192,56225,1,0,0:0:0:0:
256,192,56397,1,8,0:0:0:0:
256,192,56482,1,0,0:0:0:0:
256,192,56654,1,0,0:0:0:0:
256,192,56740,1,8,0:0:0:0:
256,192,56911,1,8,0:0:0:0:
256,192,57082,1,0,0:0:0:0:
256,192,57168,1,0,0:0:0:0:
256,192,57254,1,8,0:0:0:0:
256,192,57340,1,8,0:0:0:0:
256,192,57425,1,0,0:0:0:0:
256,192,57597,1,8,0:0:0:0:
256,192,57682,1,0,0:0:0:0:
256,192,57768,1,8,0:0:0:0:
256,192,57940,1,8,0:0:0:0:
256,192,58025,1,8,0:0:0:0:
256,192,58111,1,0,0:0:0:0:
256,192,58197,1,0,0:0:0:0:
256,192,58282,1,8,0:0:0:0:
256,192,58454,1,0,0:0:0:0:
256,192,58625,1,8,0:0:0:0:
256,192,58711,1,8,0:0:0:0:
256,192,58797,1,0,0:0:0:0:
256,192,58968,1,8,0:0:0:0:
256,192,59140,1,0,0:0:0:0:
256,192,59225,1,8,0:0:0:0:
256,192,59397,1,8,0:0:0:0:
256,192,59482,5,0,0:0:0:0:
256,192,59654,1,8,0:0:0:0:
256,192,59825,1,0,0:0:0:0:
256,192,59911,1,0,0:0:0:0:
256,192,59997,1,8,0:0:0:0:
256,192,60082,1,8,0:0:0:0:
256,192,60168,1,0,0:0:0:0:
256,192,60340,1,8,0:0:0:0:
256,192,60425,1,8,0:0:0:0:
256,192,60511,1,0,0:0:0:0:
256,192,60682,5,12,0:0:0:0:
256,192,60854,1,0,0:0:0:0:
256,192,60940,1,0,0:0:0:0:
256,192,61025,1,8,0:0:0:0:
256,192,61197,1,0,0:0:0:0:
256,192,61368,1,8,0:0:0:0:
256,192,61454,1,8,0:0:0:0:
256,192,61540,1,0,0:0:0:0:
256,192,61625,1,0,0:0:0:0:
256,192,61711,1,8,0:0:0:0:
256,192,61797,1,8,0:0:0:0:
256,192,61882,1,8,0:0:0:0:
256,192,61968,1,0,0:0:0:0:
256,192,62054,1,8,0:0:0:0:
256,192,62225,1,0,0:0:0:0:
256,192,62397,1,8,0:0:0:0:
256,192,62482,1,0,0:0:0:0:
256,192,62568,1,0,0:0:0:0:
256,192,62654,1,0,0:0:0:0:
256,192,62740,1,8,0:0:0:0:
256,192,62825,1,8,0:0:0:0:
256,192,62911,1,8,0:0:0:0:
256,192,62997,1,0,0:0:0:0:
256,192,63082,1,8,0:0:0:0:
256,192,63140,1,0,0:0:0:0:
256,192,63197,1,0,0:0:0:0:
256,192,63254,1,8,0:0:0:0:
256,192,63425,1,8,0:0:0:0:
256,192,63511,1,8,0:0:0:0:
256,192,63597,1,0,0:0:0:0:
256,192,63682,1,0,0:0:0:0:
256,192,63768,1,8,0:0:0:0:
256,192,63854,1,8,0:0:0:0:
256,192,63940,1,8,0:0:0:0:
256,192,64025,1,0,0:0:0:0:
256,192,64111,1,8,0:0:0:0:
256,192,64168,1,0,0:0:0:0:
256,192,64225,1,0,0:0:0:0:
256,192,64282,1,8,0:0:0:0:
256,192,64368,1,8,0:0:0:0:
256,192,64454,1,0,0:0:0:0:
256,192,64511,1,8,0:0:0:0:
256,192,64568,1,8,0:0:0:0:
256,192,64625,1,0,0:0:0:0:
256,192,64711,1,0,0:0:0:0:
256,192,64797,1,8,0:0:0:0:
256,192,64968,1,8,0:0:0:0:
256,192,65140,1,8,0:0:0:0:
256,192,65225,1,8,0:0:0:0:
256,192,65311,1,8,0:0:0:0:
256,192,65397,1,8,0:0:0:0:
256,192,66168,1,4,0:0:0:0:
256,192,66511,1,0,0:0:0:0:
256,192,66854,1,8,0:0:0:0:
256,192,67197,1,8,0:0:0:0:
256,192,67540,1,0,0:0:0:0:
256,192,67882,1,8,0:0:0:0:
256,192,68225,1,0,0:0:0:0:
256,192,68568,1,8,0:0:0:0:
256,192,68740,1,8,0:0:0:0:
256,192,68911,1,0,0:0:0:0:
256,192,69254,1,0,0:0:0:0:
256,192,69597,1,8,0:0:0:0:
256,192,69940,1,0,0:0:0:0:
256,192,70282,1,8,0:0:0:0:
256,192,70625,1,8,0:0:0:0:
256,192,70797,1,8,0:0:0:0:
256,192,70968,1,0,0:0:0:0:
256,192,71054,1,0,0:0:0:0:
256,192,71140,1,8,0:0:0:0:
256,192,71311,1,8,0:0:0:0:
256,192,71482,1,8,0:0:0:0:
256,192,71654,1,0,0:0:0:0:
256,192,71997,1,0,0:0:0:0:
256,192,72340,1,8,0:0:0:0:
256,192,72682,1,8,0:0:0:0:
256,192,73025,1,8,0:0:0:0:
256,192,73368,1,0,0:0:0:0:
256,192,73711,1,8,0:0:0:0:
256,192,74054,1,0,0:0:0:0:
256,192,74225,1,0,0:0:0:0:
256,192,74397,1,8,0:0:0:0:
256,192,74740,1,0,0:0:0:0:
256,192,75082,1,8,0:0:0:0:
256,192,75425,1,8,0:0:0:0:
256,192,75768,1,4,0:0:0:0:
256,192,76797,1,8,0:0:0:0:
256,192,76882,1,8,0:0:0:0:
256,192,76968,1,0,0:0:0:0:
256,192,77140,1,4,0:0:0:0:
256,192,77482,1,8,0:0:0:0:
256,192,77654,1,0,0:0:0:0:
256,192,77825,1,0,0:0:0:0:
256,192,77911,1,0,0:0:0:0:
256,192,77997,1,8,0:0:0:0:
256,192,78168,1,8,0:0:0:0:
256,192,78340,1,0,0:0:0:0:
256,192,78511,1,8,0:0:0:0:
256,192,78597,1,8,0:0:0:0:
256,192,78682,1,0,0:0:0:0:
256,192,78854,1,8,0:0:0:0:
256,192,79025,1,0,0:0:0:0:
256,192,79197,1,8,0:0:0:0:
256,192,79282,1,0,0:0:0:0:
256,192,79368,1,0,0:0:0:0:
256,192,79454,1,0,0:0:0:0:
256,192,79540,1,8,0:0:0:0:
256,192,79711,1,8,0:0:0:0:
256,192,79882,1,0,0:0:0:0:
256,192,80225,1,8,0:0:0:0:
256,192,80397,1,0,0:0:0:0:
256,192,80568,1,0,0:0:0:0:
256,192,80654,1,0,0:0:0:0:
256,192,80740,1,8,0:0:0:0:
256,192,80911,1,0,0:0:0:0:
256,192,81082,1,8,0:0:0:0:
256,192,81254,1,8,0:0:0:0:
256,192,81340,1,0,0:0:0:0:
256,192,81425,1,8,0:0:0:0:
256,192,81511,1,8,0:0:0:0:
256,192,81597,1,0,0:0:0:0:
256,192,81768,1,8,0:0:0:0:
256,192,81940,1,0,0:0:0:0:
256,192,82025,1,0,0:0:0:0:
256,192,82111,1,8,0:0:0:0:
256,192,82282,1,0,0:0:0:0:
256,192,82454,1,8,0:0:0:0:
256,192,82625,1,4,0:0:0:0:
256,192,82968,1,8,0:0:0:0:
256,192,83140,1,8,0:0:0:0:
256,192,83225,1,8,0:0:0:0:
256,192,83311,1,0,0:0:0:0:
256,192,83482,1,8,0:0:0:0:
256,192,83654,1,0,0:0:0:0:
256,192,83740,1,0,0:0:0:0:
256,192,83825,1,8,0:0:0:0:
256,192,83997,1,4,0:0:0:0:
256,192,84340,1,8,0:0:0:0:
256,192,84511,1,0,0:0:0:0:
256,192,84597,1,8,0:0:0:0:
256,192,84682,1,0,0:0:0:0:
256,192,84854,1,8,0:0:0:0:
256,192,85025,1,8,0:0:0:0:
256,192,85111,1,0,0:0:0:0:
256,192,85197,1,0,0:0:0:0:
256,192,85368,1,4,0:0:0:0:
256,192,85540,1,0,0:0:0:0:
256,192,85711,1,8,0:0:0:0:
256,192,85882,1,0,0:0:0:0:
256,192,86054,1,12,0:0:0:0:
256,192,86311,1,0,0:0:0:0:
256,192,86568,1,8,0:0:0:0:
256,192,86740,1,4,0:0:0:0:
256,192,87940,1,0,0:0:0:0:
256,192,88111,1,4,0:0:0:0:
256,192,88368,1,0,0:0:0:0:
256,192,88454,1,8,0:0:0:0:
256,192,88625,1,0,0:0:0:0:
256,192,88797,1,8,0:0:0:0:
256,192,88882,1,8,0:0:0:0:
256,192,88968,1,0,0:0:0:0:
256,192,89140,1,8,0:0:0:0:
256,192,89311,1,0,0:0:0:0:
256,192,89397,1,0,0:0:0:0:
256,192,89482,1,8,0:0:0:0:
256,192,89568,1,8,0:0:0:0:
256,192,89654,1,0,0:0:0:0:
256,192,89825,1,8,0:0:0:0:
256,192,89997,1,0,0:0:0:0:
256,192,90082,1,8,0:0:0:0:
256,192,90254,1,8,0:0:0:0:
256,192,90340,1,0,0:0:0:0:
256,192,90511,1,8,0:0:0:0:
256,192,90682,1,0,0:0:0:0:
256,192,90854,1,0,0:0:0:0:
256,192,91025,1,8,0:0:0:0:
256,192,91111,1,0,0:0:0:0:
256,192,91197,1,8,0:0:0:0:
256,192,91368,1,0,0:0:0:0:
256,192,91540,1,8,0:0:0:0:
256,192,91625,1,8,0:0:0:0:
256,192,91711,1,0,0:0:0:0:
256,192,91882,1,8,0:0:0:0:
256,192,92054,1,0,0:0:0:0:
256,192,92140,1,0,0:0:0:0:
256,192,92225,1,8,0:0:0:0:
256,192,92311,1,0,0:0:0:0:
256,192,92397,1,8,0:0:0:0:
256,192,92568,5,8,0:0:0:0:
256,192,92740,1,0,0:0:0:0:
256,192,92825,1,8,0:0:0:0:
256,192,92997,1,8,0:0:0:0:
256,192,93082,1,0,0:0:0:0:
256,192,93254,1,8,0:0:0:0:
256,192,93425,1,0,0:0:0:0:
256,192,93597,1,0,0:0:0:0:
256,192,93768,1,0,0:0:0:0:
256,192,93854,1,0,0:0:0:0:
256,192,93940,1,8,0:0:0:0:
256,192,94111,1,0,0:0:0:0:
256,192,94282,1,8,0:0:0:0:
256,192,94368,1,8,0:0:0:0:
256,192,94454,1,0,0:0:0:0:
256,192,94540,1,0,0:0:0:0:
256,192,94625,1,8,0:0:0:0:
256,192,94797,1,0,0:0:0:0:
256,192,94968,1,8,0:0:0:0:
256,192,95054,1,8,0:0:0:0:
256,192,95140,1,0,0:0:0:0:
256,192,95311,1,8,0:0:0:0:
256,192,95482,1,0,0:0:0:0:
256,192,95568,1,0,0:0:0:0:
256,192,95654,1,8,0:0:0:0:
256,192,95740,1,0,0:0:0:0:
256,192,95825,1,0,0:0:0:0:
256,192,95997,1,8,0:0:0:0:
256,192,96168,1,0,0:0:0:0:
256,192,96254,1,0,0:0:0:0:
256,192,96340,1,8,0:0:0:0:
256,192,96425,1,0,0:0:0:0:
256,192,96511,1,8,0:0:0:0:
256,192,96682,1,0,0:0:0:0:
256,192,96854,1,8,0:0:0:0:
256,192,96940,1,8,0:0:0:0:
256,192,97025,1,0,0:0:0:0:
256,192,97111,1,8,0:0:0:0:
256,192,97197,1,0,0:0:0:0:
256,192,97368,1,8,0:0:0:0:
256,192,97454,1,0,0:0:0:0:
256,192,97540,1,0,0:0:0:0:
256,192,97625,1,0,0:0:0:0:
256,192,97711,1,8,0:0:0:0:
256,192,97882,1,8,0:0:0:0:
256,192,97968,1,8,0:0:0:0:
256,192,98054,1,0,0:0:0:0:
256,192,98225,1,8,0:0:0:0:
256,192,98311,1,8,0:0:0:0:
256,192,98397,1,0,0:0:0:0:
256,192,98482,1,0,0:0:0:0:
256,192,98568,1,8,0:0:0:0:
256,192,98654,1,0,0:0:0:0:
256,192,98740,1,8,0:0:0:0:
256,192,98911,1,8,0:0:0:0:
256,192,99082,5,0,0:0:0:0:
256,192,99168,1,0,0:0:0:0:
256,192,99254,1,0,0:0:0:0:
256,192,99340,1,8,0:0:0:0:
256,192,99425,1,0,0:0:0:0:
256,192,99511,1,8,0:0:0:0:
256,192,99597,1,8,0:0:0:0:
256,192,99682,1,8,0:0:0:0:
256,192,99768,1,0,0:0:0:0:
256,192,99825,1,8,0:0:0:0:
256,192,99882,1,8,0:0:0:0:
256,192,99940,1,0,0:0:0:0:
256,192,100025,1,0,0:0:0:0:
256,192,100111,1,8,0:0:0:0:
256,192,100168,1,0,0:0:0:0:
256,192,100225,1,0,0:0:0:0:
256,192,100282,1,8,0:0:0:0:
256,192,100625,1,8,0:0:0:0:
256,192,100968,1,8,0:0:0:0:
256,192,101311,1,8,0:0:0:0:
256,192,101654,1,8,0:0:0:0:
256,192,101825,1,4,0:0:0:0:
256,192,102340,1,0,0:0:0:0:
256,192,103025,1,8,0:0:0:0:
256,192,104568,1,0,0:0:0:0:
256,192,105082,1,8,0:0:0:0:
256,192,105768,1,8,0:0:0:0:
256,192,107311,1,0,0:0:0:0:
256,192,107825,1,8,0:0:0:0:
256,192,108511,1,8,0:0:0:0:
256,192,110054,1,0,0:0:0:0:
256,192,110568,1,0,0:0:0:0:
256,192,111254,1,8,0:0:0:0:
256,192,112111,1,8,0:0:0:0:
256,192,112797,1,4,0:0:0:0:
256,192,113311,1,0,0:0:0:0:
256,192,113997,1,8,0:0:0:0:
256,192,115540,1,0,0:0:0:0:
256,192,116054,1,8,0:0:0:0:
256,192,116740,1,8,0:0:0:0:
256,192,118282,1,0,0:0:0:0:
256,192,118797,1,0,0:0:0:0:
256,192,119482,1,8,0:0:0:0:
256,192,120168,1,8,0:0:0:0:
256,192,121025,1,0,0:0:0:0:
256,192,121540,1,0,0:0:0:0:
256,192,122225,1,8,0:0:0:0:
256,192,123768,5,4,0:0:0:0:
256,192,124111,1,0,0:0:0:0:
256,192,124282,1,8,0:0:0:0:
256,192,124625,1,0,0:0:0:0:
256,192,124797,1,0,0:0:0:0:
256,192,124968,1,8,0:0:0:0:
256,192,125311,1,0,0:0:0:0:
256,192,125654,1,8,0:0:0:0:
256,192,125997,1,0,0:0:0:0:
256,192,126168,1,0,0:0:0:0:
256,192,126340,1,8,0:0:0:0:
256,192,126511,1,0,0:0:0:0:
256,192,126854,1,0,0:0:0:0:
256,192,127025,1,8,0:0:0:0:
256,192,127368,1,0,0:0:0:0:
256,192,127540,1,0,0:0:0:0:
256,192,127711,1,8,0:0:0:0:
256,192,128054,1,0,0:0:0:0:
256,192,128225,1,8,0:0:0:0:
256,192,128397,1,8,0:0:0:0:
256,192,128568,1,0,0:0:0:0:
256,192,128911,1,8,0:0:0:0:
256,192,129254,1,0,0:0:0:0:
256,192,129597,1,0,0:0:0:0:
256,192,129768,1,8,0:0:0:0:
256,192,130111,1,0,0:0:0:0:
256,192,130282,1,0,0:0:0:0:
256,192,130454,1,8,0:0:0:0:
256,192,130797,1,0,0:0:0:0:
256,192,130968,1,8,0:0:0:0:
256,192,131140,1,8,0:0:0:0:
256,192,131311,1,0,0:0:0:0:
256,192,131654,1,8,0:0:0:0:
256,192,131997,1,0,0:0:0:0:
256,192,132340,1,0,0:0:0:0:
256,192,132511,1,8,0:0:0:0:
256,192,132854,1,0,0:0:0:0:
256,192,133025,1,0,0:0:0:0:
256,192,133197,1,8,0:0:0:0:
256,192,133540,1,8,0:0:0:0:
256,192,133711,1,8,0:0:0:0:
256,192,133882,1,8,0:0:0:0:
256,192,134054,1,0,0:0:0:0:
256,192,134740,1,4,0:0:0:0:
256,192,134911,1,8,0:0:0:0:
256,192,135082,1,0,0:0:0:0:
256,192,135168,1,8,0:0:0:0:
256,192,135340,1,8,0:0:0:0:
256,192,135425,1,0,0:0:0:0:
256,192,135597,1,8,0:0:0:0:
256,192,135768,1,8,0:0:0:0:
256,192,135854,1,8,0:0:0:0:
256,192,135940,1,0,0:0:0:0:
256,192,136025,1,0,0:0:0:0:
256,192,136111,1,8,0:0:0:0:
256,192,136282,1,8,0:0:0:0:
256,192,136454,1,0,0:0:0:0:
256,192,136540,1,8,0:0:0:0:
256,192,136711,1,8,0:0:0:0:
256,192,136797,1,0,0:0:0:0:
256,192,136968,1,8,0:0:0:0:
256,192,137054,1,8,0:0:0:0:
256,192,137140,1,0,0:0:0:0:
256,192,137311,1,8,0:0:0:0:
256,192,137482,1,0,0:0:0:0:
256,192,137654,1,8,0:0:0:0:
256,192,137825,1,0,0:0:0:0:
256,192,137911,1,8,0:0:0:0:
256,192,138082,1,8,0:0:0:0:
256,192,138168,1,0,0:0:0:0:
256,192,138254,1,8,0:0:0:0:
256,192,138425,1,8,0:0:0:0:
256,192,138511,1,0,0:0:0:0:
256,192,138682,1,8,0:0:0:0:
256,192,138854,1,0,0:0:0:0:
256,192,138940,1,0,0:0:0:0:
256,192,139025,1,8,0:0:0:0:
256,192,139111,1,0,0:0:0:0:
256,192,139282,1,0,0:0:0:0:
256,192,139368,1,8,0:0:0:0:
256,192,139540,1,8,0:0:0:0:
256,192,139625,1,8,0:0:0:0:
256,192,139711,1,0,0:0:0:0:
256,192,139797,1,8,0:0:0:0:
256,192,139882,1,0,0:0:0:0:
256,192,140054,1,8,0:0:0:0:
256,192,140225,1,8,0:0:0:0:
256,192,140311,1,8,0:0:0:0:
256,192,140397,1,0,0:0:0:0:
256,192,140482,1,0,0:0:0:0:
256,192,140568,1,8,0:0:0:0:
256,192,140654,1,0,0:0:0:0:
256,192,140740,1,0,0:0:0:0:
256,192,140825,1,0,0:0:0:0:
256,192,140911,1,8,0:0:0:0:
256,192,140997,1,8,0:0:0:0:
256,192,141082,1,0,0:0:0:0:
256,192,141168,1,0,0:0:0:0:
256,192,141254,1,8,0:0:0:0:
256,192,141340,1,8,0:0:0:0:
256,192,141425,1,8,0:0:0:0:
256,192,141511,1,0,0:0:0:0:
256,192,141597,1,8,0:0:0:0:
256,192,141682,1,8,0:0:0:0:
256,192,141768,1,0,0:0:0:0:
256,192,141854,1,0,0:0:0:0:
256,192,141940,1,8,0:0:0:0:
256,192,142025,1,8,0:0:0:0:
256,192,142111,1,8,0:0:0:0:
256,192,142197,1,0,0:0:0:0:
256,192,142282,1,8,0:0:0:0:
256,192,142368,1,0,0:0:0:0:
256,192,142454,1,8,0:0:0:0:
256,192,142540,1,0,0:0:0:0:
256,192,142625,1,8,0:0:0:0:
256,192,142711,1,8,0:0:0:0:
256,192,142797,1,0,0:0:0:0:
256,192,142882,1,0,0:0:0:0:
256,192,142968,1,8,0:0:0:0:
256,192,143054,1,0,0:0:0:0:
256,192,143140,1,0,0:0:0:0:
256,192,143225,1,0,0:0:0:0:
256,192,143311,1,8,0:0:0:0:
256,192,143397,1,8,0:0:0:0:
256,192,143482,1,0,0:0:0:0:
256,192,143568,1,0,0:0:0:0:
256,192,143654,1,8,0:0:0:0:
256,192,143740,1,0,0:0:0:0:
256,192,143825,1,8,0:0:0:0:
256,192,143911,1,0,0:0:0:0:
256,192,143997,1,8,0:0:0:0:
256,192,144082,1,8,0:0:0:0:
256,192,144168,1,8,0:0:0:0:
256,192,144254,1,8,0:0:0:0:
256,192,144340,1,4,0:0:0:0:
256,192,144597,1,0,0:0:0:0:
256,192,144682,1,8,0:0:0:0:
256,192,144854,1,0,0:0:0:0:
256,192,144940,1,0,0:0:0:0:
256,192,145025,1,8,0:0:0:0:
256,192,145197,1,0,0:0:0:0:
256,192,145368,1,12,0:0:0:0:
256,192,145711,1,4,0:0:0:0:
256,192,145882,1,8,0:0:0:0:
256,192,146054,1,0,0:0:0:0:
256,192,146140,1,8,0:0:0:0:
256,192,146311,1,8,0:0:0:0:
256,192,146397,1,0,0:0:0:0:
256,192,146568,1,8,0:0:0:0:
256,192,146740,1,0,0:0:0:0:
256,192,146825,1,0,0:0:0:0:
256,192,146911,1,8,0:0:0:0:
256,192,146997,1,0,0:0:0:0:
256,192,147082,1,8,0:0:0:0:
256,192,147254,1,8,0:0:0:0:
256,192,147425,1,0,0:0:0:0:
256,192,147511,1,8,0:0:0:0:
256,192,147682,1,8,0:0:0:0:
256,192,147768,1,8,0:0:0:0:
256,192,147854,1,0,0:0:0:0:
256,192,147940,1,8,0:0:0:0:
256,192,148111,1,8,0:0:0:0:
256,192,148282,1,0,0:0:0:0:
256,192,148368,1,0,0:0:0:0:
256,192,148454,1,8,0:0:0:0:
256,192,148625,1,0,0:0:0:0:
256,192,148797,1,0,0:0:0:0:
256,192,148882,1,8,0:0:0:0:
256,192,149054,1,8,0:0:0:0:
256,192,149140,1,0,0:0:0:0:
256,192,149225,1,8,0:0:0:0:
256,192,149397,1,8,0:0:0:0:
256,192,149482,1,0,0:0:0:0:
256,192,149568,1,0,0:0:0:0:
256,192,149654,1,8,0:0:0:0:
256,192,149825,1,8,0:0:0:0:
256,192,149997,1,0,0:0:0:0:
256,192,150168,1,8,0:0:0:0:
256,192,150254,1,8,0:0:0:0:
256,192,150425,1,0,0:0:0:0:
256,192,150511,1,8,0:0:0:0:
256,192,150682,1,0,0:0:0:0:
256,192,150768,1,8,0:0:0:0:
256,192,150854,1,0,0:0:0:0:
256,192,150940,1,0,0:0:0:0:
256,192,151025,1,8,0:0:0:0:
256,192,151197,1,0,0:0:0:0:
256,192,151368,1,8,0:0:0:0:
256,192,151540,1,0,0:0:0:0:
256,192,151625,1,8,0:0:0:0:
256,192,151797,1,8,0:0:0:0:
256,192,151882,1,0,0:0:0:0:
256,192,152054,1,8,0:0:0:0:
256,192,152225,1,0,0:0:0:0:
256,192,152311,1,0,0:0:0:0:
256,192,152397,1,8,0:0:0:0:
256,192,152482,1,0,0:0:0:0:
256,192,152568,1,8,0:0:0:0:
256,192,152740,1,8,0:0:0:0:
256,192,152911,1,0,0:0:0:0:
256,192,152997,1,8,0:0:0:0:
256,192,153168,1,0,0:0:0:0:
256,192,153254,1,8,0:0:0:0:
256,192,153425,1,0,0:0:0:0:
256,192,153597,1,8,0:0:0:0:
256,192,153682,1,8,0:0:0:0:
256,192,153768,1,0,0:0:0:0:
256,192,153854,1,0,0:0:0:0:
256,192,153940,1,8,0:0:0:0:
256,192,154111,1,0,0:0:0:0:
256,192,154282,1,0,0:0:0:0:
256,192,154368,1,8,0:0:0:0:
256,192,154540,1,8,0:0:0:0:
256,192,154625,1,0,0:0:0:0:
256,192,154797,1,8,0:0:0:0:
256,192,154882,1,8,0:0:0:0:
256,192,154968,1,0,0:0:0:0:
256,192,155054,1,0,0:0:0:0:
256,192,155140,1,8,0:0:0:0:
256,192,155311,1,8,0:0:0:0:
256,192,155482,1,0,0:0:0:0:
256,192,155654,1,8,0:0:0:0:
256,192,155740,1,8,0:0:0:0:
256,192,155911,1,0,0:0:0:0:
256,192,155997,1,8,0:0:0:0:
256,192,156168,1,0,0:0:0:0:
256,192,156254,1,8,0:0:0:0:
256,192,156511,1,8,0:0:0:0:
256,192,156682,1,4,0:0:0:0:
256,192,156854,1,8,0:0:0:0:
256,192,157025,1,0,0:0:0:0:
256,192,157111,1,8,0:0:0:0:
256,192,157282,1,8,0:0:0:0:
256,192,157368,1,0,0:0:0:0:
256,192,157540,1,8,0:0:0:0:
256,192,157711,1,0,0:0:0:0:
256,192,157797,1,0,0:0:0:0:
256,192,157882,1,8,0:0:0:0:
256,192,157968,1,0,0:0:0:0:
256,192,158054,1,8,0:0:0:0:
256,192,158225,1,8,0:0:0:0:
256,192,158397,1,0,0:0:0:0:
256,192,158482,1,8,0:0:0:0:
256,192,158654,1,8,0:0:0:0:
256,192,158740,1,8,0:0:0:0:
256,192,158825,1,0,0:0:0:0:
256,192,158911,1,8,0:0:0:0:
256,192,159082,1,8,0:0:0:0:
256,192,159254,1,0,0:0:0:0:
256,192,159340,1,0,0:0:0:0:
256,192,159425,1,8,0:0:0:0:
256,192,159597,1,0,0:0:0:0:
256,192,159768,1,0,0:0:0:0:
256,192,159854,1,8,0:0:0:0:
256,192,160025,1,8,0:0:0:0:
256,192,160111,1,0,0:0:0:0:
256,192,160197,1,8,0:0:0:0:
256,192,160368,1,8,0:0:0:0:
256,192,160454,1,0,0:0:0:0:
256,192,160540,1,0,0:0:0:0:
256,192,160625,1,8,0:0:0:0:
256,192,160797,1,8,0:0:0:0:
256,192,160968,1,8,0:0:0:0:
256,192,161054,1,0,0:0:0:0:
256,192,161225,1,0,0:0:0:0:
256,192,161311,1,8,0:0:0:0:
256,192,161397,1,0,0:0:0:0:
256,192,161482,1,8,0:0:0:0:
256,192,161568,1,8,0:0:0:0:
256,192,161740,1,8,0:0:0:0:
256,192,161825,1,0,0:0:0:0:
256,192,161997,1,8,0:0:0:0:
256,192,162168,1,0,0:0:0:0:
256,192,162340,1,8,0:0:0:0:
256,192,162511,1,0,0:0:0:0:
256,192,162597,1,8,0:0:0:0:
256,192,162768,1,8,0:0:0:0:
256,192,162854,1,0,0:0:0:0:
256,192,163025,1,8,0:0:0:0:
256,192,163197,1,0,0:0:0:0:
256,192,163282,1,0,0:0:0:0:
256,192,163368,1,8,0:0:0:0:
256,192,163454,1,0,0:0:0:0:
256,192,163540,1,8,0:0:0:0:
256,192,163711,1,8,0:0:0:0:
256,192,163882,1,0,0:0:0:0:
256,192,163968,1,8,0:0:0:0:
256,192,164140,1,8,0:0:0:0:
256,192,164225,1,8,0:0:0:0:
256,192,164311,1,0,0:0:0:0:
256,192,164397,1,8,0:0:0:0:
256,192,164568,1,8,0:0:0:0:
256,192,164740,1,0,0:0:0:0:
256,192,164825,1,0,0:0:0:0:
256,192,164911,1,8,0:0:0:0:
256,192,165082,1,0,0:0:0:0:
256,192,165254,1,0,0:0:0:0:
256,192,165340,1,8,0:0:0:0:
256,192,165425,1,0,0:0:0:0:
256,192,165511,1,0,0:0:0:0:
256,192,165597,1,8,0:0:0:0:
256,192,165768,1,8,0:0:0:0:
256,192,165854,1,0,0:0:0:0:
256,192,166025,1,0,0:0:0:0:
256,192,166111,1,8,0:0:0:0:
256,192,166282,1,8,0:0:0:0:
256,192,166540,1,0,0:0:0:0:
256,192,166797,1,0,0:0:0:0:
256,192,166968,1,8,0:0:0:0:
256,192,167225,1,8,0:0:0:0:
256,192,167482,1,8,0:0:0:0:
256,192,167654,1,4,0:0:0:0:
256,192,167825,1,8,0:0:0:0:
256,192,167911,1,8,0:0:0:0:
256,192,167997,1,0,0:0:0:0:
256,192,168168,1,8,0:0:0:0:
256,192,168340,1,0,0:0:0:0:
256,192,168425,1,8,0:0:0:0:
256,192,168511,1,0,0:0:0:0:
256,192,168682,1,0,0:0:0:0:
256,192,168768,1,0,0:0:0:0:
256,192,168854,1,8,0:0:0:0:
256,192,168940,1,0,0:0:0:0:
256,192,169025,1,8,0:0:0:0:
256,192,169197,1,8,0:0:0:0:
256,192,169282,1,8,0:0:0:0:
256,192,169368,1,0,0:0:0:0:
256,192,169540,1,8,0:0:0:0:
256,192,169711,1,0,0:0:0:0:
256,192,169797,1,0,0:0:0:0:
256,192,169882,1,8,0:0:0:0:
256,192,169968,1,8,0:0:0:0:
256,192,170054,1,0,0:0:0:0:
256,192,170225,1,8,0:0:0:0:
256,192,170397,1,0,0:0:0:0:
256,192,170568,1,8,0:0:0:0:
256,192,170654,1,8,0:0:0:0:
256,192,170740,1,0,0:0:0:0:
256,192,170911,1,8,0:0:0:0:
256,192,171082,1,0,0:0:0:0:
256,192,171168,1,0,0:0:0:0:
256,192,171254,1,8,0:0:0:0:
256,192,171340,1,0,0:0:0:0:
256,192,171425,1,8,0:0:0:0:
256,192,171597,1,8,0:0:0:0:
256,192,171682,1,8,0:0:0:0:
256,192,171768,1,0,0:0:0:0:
256,192,171940,1,0,0:0:0:0:
256,192,172025,1,0,0:0:0:0:
256,192,172111,1,8,0:0:0:0:
256,192,172282,1,8,0:0:0:0:
256,192,172368,1,8,0:0:0:0:
256,192,172454,1,0,0:0:0:0:
256,192,172540,1,8,0:0:0:0:
256,192,172625,1,0,0:0:0:0:
256,192,172797,1,8,0:0:0:0:
256,192,172968,1,8,0:0:0:0:
256,192,173054,1,8,0:0:0:0:
256,192,173140,1,0,0:0:0:0:
256,192,173311,1,0,0:0:0:0:
256,192,173397,1,0,0:0:0:0:
256,192,173482,1,8,0:0:0:0:
256,192,173654,1,8,0:0:0:0:
256,192,173825,1,0,0:0:0:0:
256,192,173911,1,8,0:0:0:0:
256,192,173997,1,8,0:0:0:0:
256,192,174168,1,0,0:0:0:0:
256,192,174340,1,8,0:0:0:0:
256,192,174425,1,8,0:0:0:0:
256,192,174511,1,0,0:0:0:0:
256,192,174597,1,0,0:0:0:0:
256,192,174682,1,8,0:0:0:0:
256,192,174854,1,0,0:0:0:0:
256,192,174940,1,0,0:0:0:0:
256,192,175025,1,8,0:0:0:0:
256,192,175197,1,0,0:0:0:0:
256,192,175368,1,8,0:0:0:0:
256,192,175454,1,8,0:0:0:0:
256,192,175540,1,0,0:0:0:0:
256,192,175711,1,8,0:0:0:0:
256,192,175882,1,0,0:0:0:0:
256,192,175968,1,8,0:0:0:0:
256,192,176054,1,8,0:0:0:0:
256,192,176140,1,8,0:0:0:0:
256,192,176225,1,0,0:0:0:0:
256,192,176397,1,8,0:0:0:0:
256,192,176482,1,8,0:0:0:0:
256,192,176568,1,0,0:0:0:0:
256,192,176740,1,8,0:0:0:0:
256,192,176911,1,0,0:0:0:0:
256,192,176997,1,0,0:0:0:0:
256,192,177082,1,8,0:0:0:0:
256,192,177254,1,0,0:0:0:0:
256,192,177425,1,8,0:0:0:0:
256,192,177511,1,0,0:0:0:0:
256,192,177597,1,8,0:0:0:0:
256,192,177682,1,8,0:0:0:0:
256,192,177768,1,0,0:0:0:0:
256,192,177940,1,8,0:0:0:0:
256,192,178111,1,8,0:0:0:0:
256,192,178197,1,0,0:0:0:0:
256,192,178454,1,0,0:0:0:0:
256,192,178625,1,4,0:0:0:0:
256,192,178797,1,8,0:0:0:0:
256,192,178882,1,8,0:0:0:0:
256,192,178968,1,0,0:0:0:0:
256,192,179140,1,8,0:0:0:0:
256,192,179311,1,0,0:0:0:0:
256,192,179397,1,8,0:0:0:0:
256,192,179482,1,0,0:0:0:0:
256,192,179654,1,0,0:0:0:0:
256,192,179740,1,0,0:0:0:0:
256,192,179825,1,8,0:0:0:0:
256,192,179911,1,0,0:0:0:0:
256,192,179997,1,8,0:0:0:0:
256,192,180168,1,8,0:0:0:0:
256,192,180254,1,0,0:0:0:0:
256,192,180340,1,8,0:0:0:0:
256,192,180511,1,8,0:0:0:0:
256,192,180682,1,0,0:0:0:0:
256,192,180768,1,0,0:0:0:0:
256,192,180854,1,8,0:0:0:0:
256,192,180940,1,8,0:0:0:0:
256,192,181025,1,0,0:0:0:0:
256,192,181197,1,8,0:0:0:0:
256,192,181368,1,0,0:0:0:0:
256,192,181540,1,8,0:0:0:0:
256,192,181625,1,8,0:0:0:0:
256,192,181711,1,0,0:0:0:0:
256,192,181882,1,8,0:0:0:0:
256,192,182054,1,0,0:0:0:0:
256,192,182140,1,0,0:0:0:0:
256,192,182225,1,8,0:0:0:0:
256,192,182311,1,0,0:0:0:0:
256,192,182397,1,8,0:0:0:0:
256,192,182568,1,8,0:0:0:0:
256,192,182654,1,8,0:0:0:0:
256,192,182740,1,0,0:0:0:0:
256,192,182911,1,0,0:0:0:0:
256,192,182997,5,0,0:0:0:0:
256,192,183082,1,8,0:0:0:0:
256,192,183254,1,8,0:0:0:0:
256,192,183340,1,8,0:0:0:0:
256,192,183425,1,0,0:0:0:0:
256,192,183511,1,8,0:0:0:0:
256,192,183597,1,0,0:0:0:0:
256,192,183768,1,8,0:0:0:0:
256,192,183940,1,8,0:0:0:0:
256,192,184111,5,4,0:0:0:0:
256,192,184282,1,0,0:0:0:0:
256,192,184368,1,0,0:0:0:0:
256,192,184454,1,8,0:0:0:0:
256,192,184625,1,0,0:0:0:0:
256,192,184797,1,8,0:0:0:0:
256,192,184882,1,8,0:0:0:0:
256,192,184968,1,0,0:0:0:0:
256,192,185054,1,0,0:0:0:0:
256,192,185140,1,8,0:0:0:0:
256,192,185225,1,8,0:0:0:0:
256,192,185311,1,8,0:0:0:0:
256,192,185397,1,0,0:0:0:0:
256,192,185482,1,8,0:0:0:0:
256,192,185654,1,0,0:0:0:0:
256,192,185825,1,8,0:0:0:0:
256,192,185911,1,0,0:0:0:0:
256,192,185997,1,0,0:0:0:0:
256,192,186082,1,0,0:0:0:0:
256,192,186168,1,8,0:0:0:0:
256,192,186254,1,8,0:0:0:0:
256,192,186340,1,8,0:0:0:0:
256,192,186425,1,0,0:0:0:0:
256,192,186511,1,8,0:0:0:0:
256,192,186568,1,0,0:0:0:0:
256,192,186625,1,0,0:0:0:0:
256,192,186682,1,8,0:0:0:0:
256,192,186854,1,8,0:0:0:0:
256,192,186940,1,8,0:0:0:0:
256,192,187025,1,0,0:0:0:0:
256,192,187111,1,0,0:0:0:0:
256,192,187197,1,8,0:0:0:0:
256,192,187282,1,8,0:0:0:0:
256,192,187368,1,8,0:0:0:0:
256,192,187454,1,0,0:0:0:0:
256,192,187540,1,8,0:0:0:0:
256,192,187597,1,0,0:0:0:0:
256,192,187654,1,0,0:0:0:0:
256,192,187711,1,8,0:0:0:0:
256,192,187797,1,8,0:0:0:0:
256,192,187882,1,0,0:0:0:0:
256,192,187940,1,8,0:0:0:0:
256,192,187997,1,8,0:0:0:0:
256,192,188054,1,0,0:0:0:0:
256,192,188140,1,0,0:0:0:0:
256,192,188225,1,8,0:0:0:0:
256,192,188397,1,8,0:0:0:0:
256,192,188568,1,8,0:0:0:0:
256,192,188654,1,8,0:0:0:0:
256,192,188740,1,8,0:0:0:0:
256,192,188825,1,8,0:0:0:0:
256,192,188911,1,0,0:0:0:0:
256,192,189597,1,4,0:0:0:0:
256,192,189940,1,8,0:0:0:0:
256,192,190282,1,0,0:0:0:0:
256,192,190625,1,8,0:0:0:0:
256,192,190968,1,0,0:0:0:0:
256,192,191311,1,8,0:0:0:0:
256,192,191654,1,0,0:0:0:0:
256,192,191997,1,8,0:0:0:0:
256,192,192168,1,8,0:0:0:0:
256,192,192340,1,0,0:0:0:0:
256,192,192682,1,8,0:0:0:0:
256,192,193025,1,0,0:0:0:0:
256,192,193368,1,8,0:0:0:0:
256,192,193711,1,0,0:0:0:0:
256,192,194054,1,8,0:0:0:0:
256,192,194225,1,8,0:0:0:0:
256,192,194397,1,0,0:0:0:0:
256,192,194482,1,0,0:0:0:0:
256,192,194568,1,8,0:0:0:0:
256,192,194740,1,8,0:0:0:0:
256,192,194911,1,8,0:0:0:0:
256,192,195082,1,0,0:0:0:0:
256,192,195254,1,0,0:0:0:0:
256,192,195425,1,8,0:0:0:0:
256,192,195511,1,8,0:0:0:0:
256,192,195682,1,8,0:0:0:0:
256,192,195768,1,0,0:0:0:0:
256,192,195940,1,0,0:0:0:0:
256,192,196111,1,8,0:0:0:0:
256,192,196197,1,8,0:0:0:0:
256,192,196282,1,0,0:0:0:0:
256,192,196454,1,0,0:0:0:0:
256,192,196797,1,8,0:0:0:0:
256,192,197140,1,0,0:0:0:0:
256,192,197482,1,8,0:0:0:0:
256,192,197654,1,8,0:0:0:0:
256,192,197825,1,0,0:0:0:0:
256,192,197997,1,0,0:0:0:0:
256,192,198168,1,8,0:0:0:0:
256,192,198340,1,8,0:0:0:0:
256,192,198425,1,0,0:0:0:0:
256,192,198511,1,0,0:0:0:0:
256,192,198682,1,8,0:0:0:0:
256,192,198854,1,8,0:0:0:0:
256,192,198940,1,8,0:0:0:0:
256,192,199025,1,0,0:0:0:0:
256,192,199197,1,0,0:0:0:0:
256,192,199282,1,8,0:0:0:0:
256,192,199368,1,0,0:0:0:0:
256,192,199540,1,8,0:0:0:0:
256,192,199711,1,8,0:0:0:0:
256,192,199797,1,8,0:0:0:0:
256,192,199882,1,0,0:0:0:0:
256,192,200054,1,8,0:0:0:0:
256,192,200225,1,0,0:0:0:0:
256,192,200568,1,4,0:0:0:0:
256,192,200740,1,8,0:0:0:0:
256,192,200911,1,0,0:0:0:0:
256,192,200997,1,8,0:0:0:0:
256,192,201168,1,8,0:0:0:0:
256,192,201254,1,0,0:0:0:0:
256,192,201340,1,0,0:0:0:0:
256,192,201425,1,8,0:0:0:0:
256,192,201511,1,0,0:0:0:0:
256,192,201597,1,8,0:0:0:0:
256,192,201682,1,8,0:0:0:0:
256,192,201768,1,0,0:0:0:0:
256,192,201940,1,0,0:0:0:0:
256,192,202025,1,8,0:0:0:0:
256,192,202111,1,8,0:0:0:0:
256,192,202282,1,0,0:0:0:0:
256,192,202368,1,8,0:0:0:0:
256,192,202540,1,8,0:0:0:0:
256,192,202625,1,0,0:0:0:0:
256,192,202711,1,0,0:0:0:0:
256,192,202797,1,8,0:0:0:0:
256,192,202968,1,8,0:0:0:0:
256,192,203054,1,8,0:0:0:0:
256,192,203140,1,0,0:0:0:0:
256,192,203311,1,0,0:0:0:0:
256,192,203482,1,0,0:0:0:0:
256,192,203568,1,0,0:0:0:0:
256,192,203654,1,8,0:0:0:0:
256,192,203825,1,0,0:0:0:0:
256,192,203911,1,8,0:0:0:0:
256,192,203997,1,8,0:0:0:0:
256,192,204082,1,8,0:0:0:0:
256,192,204168,1,0,0:0:0:0:
256,192,204340,1,8,0:0:0:0:
256,192,204425,1,0,0:0:0:0:
256,192,204511,1,0,0:0:0:0:
256,192,204597,1,0,0:0:0:0:
256,192,204682,1,8,0:0:0:0:
256,192,204768,1,0,0:0:0:0:
256,192,204854,1,8,0:0:0:0:
256,192,205025,1,8,0:0:0:0:
256,192,205197,1,0,0:0:0:0:
256,192,205282,1,0,0:0:0:0:
256,192,205454,1,0,0:0:0:0:
256,192,205540,1,8,0:0:0:0:
256,192,205625,1,0,0:0:0:0:
256,192,205711,1,8,0:0:0:0:
256,192,205882,1,8,0:0:0:0:
256,192,206054,1,0,0:0:0:0:
256,192,206140,1,0,0:0:0:0:
256,192,206225,1,8,0:0:0:0:
256,192,206397,1,8,0:0:0:0:
256,192,206568,1,0,0:0:0:0:
256,192,206654,1,8,0:0:0:0:
256,192,206825,1,8,0:0:0:0:
256,192,206911,1,0,0:0:0:0:
256,192,206997,1,0,0:0:0:0:
256,192,207082,1,8,0:0:0:0:
256,192,207254,1,8,0:0:0:0:
256,192,207425,1,0,0:0:0:0:
256,192,207511,1,0,0:0:0:0:
256,192,207597,1,8,0:0:0:0:
256,192,207768,1,8,0:0:0:0:
256,192,207940,1,0,0:0:0:0:
256,192,208025,1,8,0:0:0:0:
256,192,208197,1,8,0:0:0:0:
256,192,208282,1,8,0:0:0:0:
256,192,208368,1,0,0:0:0:0:
256,192,208454,1,8,0:0:0:0:
256,192,208540,1,8,0:0:0:0:
256,192,208625,1,0,0:0:0:0:
256,192,208797,1,0,0:0:0:0:
256,192,208968,1,0,0:0:0:0:
256,192,209140,1,8,0:0:0:0:
256,192,209311,1,0,0:0:0:0:
256,192,209482,1,8,0:0:0:0:
256,192,209568,1,8,0:0:0:0:
256,192,209654,1,8,0:0:0:0:
256,192,209740,1,0,0:0:0:0:
256,192,209825,1,8,0:0:0:0:
256,192,209911,1,8,0:0:0:0:
256,192,209997,1,0,0:0:0:0:
256,192,210082,1,0,0:0:0:0:
256,192,210168,1,8,0:0:0:0:
256,192,211368,1,0,0:0:0:0:
256,192,211540,1,4,0:0:0:0:
256,192,211882,1,8,0:0:0:0:
256,192,212054,1,0,0:0:0:0:
256,192,212225,1,8,0:0:0:0:
256,192,212311,1,8,0:0:0:0:
256,192,212397,1,0,0:0:0:0:
256,192,212568,1,8,0:0:0:0:
256,192,212740,1,0,0:0:0:0:
256,192,212911,1,8,0:0:0:0:
256,192,212997,1,8,0:0:0:0:
256,192,213082,1,0,0:0:0:0:
256,192,213168,1,8,0:0:0:0:
256,192,213254,1,0,0:0:0:0:
256,192,213425,1,8,0:0:0:0:
256,192,213597,1,0,0:0:0:0:
256,192,213682,1,0,0:0:0:0:
256,192,213768,1,8,0:0:0:0:
256,192,213940,1,0,0:0:0:0:
256,192,214111,1,8,0:0:0:0:
256,192,214282,1,0,0:0:0:0:
256,192,214625,1,8,0:0:0:0:
256,192,214797,1,8,0:0:0:0:
256,192,214882,1,8,0:0:0:0:
256,192,214968,1,0,0:0:0:0:
256,192,215140,1,8,0:0:0:0:
256,192,215311,1,0,0:0:0:0:
256,192,215397,1,8,0:0:0:0:
256,192,215482,1,8,0:0:0:0:
256,192,215568,1,8,0:0:0:0:
256,192,215654,1,0,0:0:0:0:
256,192,215825,1,0,0:0:0:0:
256,192,215911,1,8,0:0:0:0:
256,192,215997,1,0,0:0:0:0:
256,192,216168,1,8,0:0:0:0:
256,192,216340,1,0,0:0:0:0:
256,192,216425,1,8,0:0:0:0:
256,192,216597,1,8,0:0:0:0:
256,192,216682,1,0,0:0:0:0:
256,192,216854,1,8,0:0:0:0:
256,192,217025,1,0,0:0:0:0:
256,192,217368,1,8,0:0:0:0:
256,192,217540,1,0,0:0:0:0:
256,192,217711,1,8,0:0:0:0:
256,192,217797,1,0,0:0:0:0:
256,192,217882,1,0,0:0:0:0:
256,192,218054,1,8,0:0:0:0:
256,192,218225,1,0,0:0:0:0:
256,192,218311,1,0,0:0:0:0:
256,192,218397,1,8,0:0:0:0:
256,192,218482,1,8,0:0:0:0:
256,192,218568,1,0,0:0:0:0:
256,192,218740,1,8,0:0:0:0:
256,192,218911,1,0,0:0:0:0:
256,192,218997,1,0,0:0:0:0:
256,192,219082,1,8,0:0:0:0:
256,192,219254,1,0,0:0:0:0:
256,192,219425,1,8,0:0:0:0:
256,192,219511,1,8,0:0:0:0:
256,192,219597,1,0,0:0:0:0:
256,192,219768,1,8,0:0:0:0:
256,192,220111,1,8,0:0:0:0:
256,192,220282,1,0,0:0:0:0:
256,192,220454,1,8,0:0:0:0:
256,192,220540,1,8,0:0:0:0:
256,192,220625,1,0,0:0:0:0:
256,192,220711,1,0,0:0:0:0:
256,192,220797,1,8,0:0:0:0:
256,192,220968,1,8,0:0:0:0:
256,192,221140,1,0,0:0:0:0:
256,192,221482,1,12,0:0:0:0:
256,192,222168,1,12,0:0:0:0:
256,192,222340,1,0,0:0:0:0:
256,192,222511,1,4,0:0:0:0:
256,192,222768,1,0,0:0:0:0:
256,192,222854,1,8,0:0:0:0:
256,192,223025,1,0,0:0:0:0:
256,192,223197,1,8,0:0:0:0:
256,192,223282,1,8,0:0:0:0:
256,192,223368,1,0,0:0:0:0:
256,192,223454,1,0,0:0:0:0:
256,192,223540,1,8,0:0:0:0:
256,192,223711,1,8,0:0:0:0:
256,192,223882,1,0,0:0:0:0:
256,192,224054,1,8,0:0:0:0:
256,192,224140,1,8,0:0:0:0:
256,192,224225,1,0,0:0:0:0:
256,192,224311,1,8,0:0:0:0:
256,192,224482,1,8,0:0:0:0:
256,192,224568,1,0,0:0:0:0:
256,192,224740,1,8,0:0:0:0:
256,192,224911,1,0,0:0:0:0:
256,192,224997,1,0,0:0:0:0:
256,192,225082,1,8,0:0:0:0:
256,192,225254,1,0,0:0:0:0:
256,192,225511,1,8,0:0:0:0:
256,192,225597,1,0,0:0:0:0:
256,192,225768,1,8,0:0:0:0:
256,192,225940,1,0,0:0:0:0:
256,192,226025,1,8,0:0:0:0:
256,192,226111,1,8,0:0:0:0:
256,192,226197,1,0,0:0:0:0:
256,192,226282,1,8,0:0:0:0:
256,192,226454,1,0,0:0:0:0:
256,192,226540,1,8,0:0:0:0:
256,192,226711,1,8,0:0:0:0:
256,192,226797,1,0,0:0:0:0:
256,192,226968,5,8,0:0:0:0:
256,192,227140,1,0,0:0:0:0:
256,192,227225,1,0,0:0:0:0:
256,192,227311,1,8,0:0:0:0:
256,192,227397,1,8,0:0:0:0:
256,192,227482,1,0,0:0:0:0:
256,192,227654,1,8,0:0:0:0:
256,192,227825,1,0,0:0:0:0:
256,192,227997,5,4,0:0:0:0:
256,192,228168,1,0,0:0:0:0:
256,192,228254,1,0,0:0:0:0:
256,192,228340,1,8,0:0:0:0:
256,192,228511,1,0,0:0:0:0:
256,192,228682,1,8,0:0:0:0:
256,192,228768,1,8,0:0:0:0:
256,192,228854,1,0,0:0:0:0:
256,192,228940,1,0,0:0:0:0:
256,192,229025,1,8,0:0:0:0:
256,192,229111,1,8,0:0:0:0:
256,192,229197,1,8,0:0:0:0:
256,192,229282,1,0,0:0:0:0:
256,192,229368,1,8,0:0:0:0:
256,192,229540,1,0,0:0:0:0:
256,192,229711,1,8,0:0:0:0:
256,192,229797,1,0,0:0:0:0:
256,192,229882,1,0,0:0:0:0:
256,192,229968,1,0,0:0:0:0:
256,192,230054,1,8,0:0:0:0:
256,192,230140,1,8,0:0:0:0:
256,192,230225,1,8,0:0:0:0:
256,192,230311,1,0,0:0:0:0:
256,192,230397,1,8,0:0:0:0:
256,192,230454,1,0,0:0:0:0:
256,192,230511,1,0,0:0:0:0:
256,192,230568,1,8,0:0:0:0:
256,192,230740,5,0,0:0:0:0:
256,192,230825,1,0,0:0:0:0:
256,192,230911,1,0,0:0:0:0:
256,192,230997,1,8,0:0:0:0:
256,192,231082,1,0,0:0:0:0:
256,192,231168,1,8,0:0:0:0:
256,192,231254,1,8,0:0:0:0:
256,192,231340,1,8,0:0:0:0:
256,192,231425,1,0,0:0:0:0:
256,192,231482,1,8,0:0:0:0:
256,192,231540,1,8,0:0:0:0:
256,192,231597,1,0,0:0:0:0:
256,192,231682,1,0,0:0:0:0:
256,192,231768,1,8,0:0:0:0:
256,192,231825,1,0,0:0:0:0:
256,192,231882,1,0,0:0:0:0:
256,192,231940,1,8,0:0:0:0:
256,192,233482,1,4,0:0:0:0:
256,192,233997,1,0,0:0:0:0:
256,192,234682,1,8,0:0:0:0:
256,192,236225,1,0,0:0:0:0:
256,192,236740,1,8,0:0:0:0:
256,192,237425,1,8,0:0:0:0:
256,192,238968,1,0,0:0:0:0:
256,192,239482,1,0,0:0:0:0:
256,192,240168,1,8,0:0:0:0:
256,192,241711,1,8,0:0:0:0:
256,192,244454,1,4,0:0:0:0:
256,192,244797,1,8,0:0:0:0:
256,192,245140,1,8,0:0:0:0:
256,192,245482,1,8,0:0:0:0:
256,192,245825,1,8,0:0:0:0:
256,192,246168,1,8,0:0:0:0:
256,192,246511,1,8,0:0:0:0:
256,192,246854,1,8,0:0:0:0:
256,192,247025,1,8,0:0:0:0:
256,192,247197,1,8,0:0:0:0:
256,192,247540,1,8,0:0:0:0:
256,192,247882,1,8,0:0:0:0:
256,192,248225,1,8,0:0:0:0:
256,192,248568,1,8,0:0:0:0:
256,192,248911,1,8,0:0:0:0:
256,192,249082,1,8,0:0:0:0:
256,192,249254,1,8,0:0:0:0:
256,192,249340,1,8,0:0:0:0:
256,192,249425,1,8,0:0:0:0:
256,192,249597,1,8,0:0:0:0:
256,192,249768,1,8,0:0:0:0:
256,192,249940,1,8,0:0:0:0:
256,192,250282,1,8,0:0:0:0:
256,192,250625,1,8,0:0:0:0:
256,192,250968,1,8,0:0:0:0:
256,192,251311,1,8,0:0:0:0:
256,192,251654,1,8,0:0:0:0:
256,192,251997,1,8,0:0:0:0:
256,192,252340,1,8,0:0:0:0:
256,192,252511,1,8,0:0:0:0:
256,192,252682,1,8,0:0:0:0:
256,192,253025,1,8,0:0:0:0:
256,192,253368,1,8,0:0:0:0:
256,192,253711,1,8,0:0:0:0:
256,192,254054,1,8,0:0:0:0:
256,192,254225,1,8,0:0:0:0:
256,192,254397,5,8,0:0:0:0:
256,192,254482,1,8,0:0:0:0:
256,192,254568,1,8,0:0:0:0:
256,192,254740,1,8,0:0:0:0:
256,192,254997,1,0,0:0:0:0:
256,192,255082,1,8,0:0:0:0:
256,192,255254,5,0,0:0:0:0:
256,192,255425,1,8,0:0:0:0:
256,192,255511,1,8,0:0:0:0:
256,192,255597,1,0,0:0:0:0:
256,192,255682,1,0,0:0:0:0:
256,192,255768,1,8,0:0:0:0:
256,192,255854,1,0,0:0:0:0:
256,192,255940,1,0,0:0:0:0:
256,192,256025,1,0,0:0:0:0:
256,192,256111,1,8,0:0:0:0:
256,192,256197,1,0,0:0:0:0:
256,192,256282,1,8,0:0:0:0:
256,192,256368,1,0,0:0:0:0:
256,192,256454,1,8,0:0:0:0:
256,192,256540,1,8,0:0:0:0:
256,192,256625,1,8,0:0:0:0:
256,192,256711,1,0,0:0:0:0:
256,192,256797,1,8,0:0:0:0:
256,192,256882,1,0,0:0:0:0:
256,192,256968,1,8,0:0:0:0:
256,192,257054,1,0,0:0:0:0:
256,192,257140,1,8,0:0:0:0:
256,192,257225,1,8,0:0:0:0:
256,192,257311,1,0,0:0:0:0:
256,192,257397,1,0,0:0:0:0:
256,192,257482,1,8,0:0:0:0:
256,192,257568,1,8,0:0:0:0:
256,192,257654,1,8,0:0:0:0:
256,192,257740,1,0,0:0:0:0:
256,192,257825,1,8,0:0:0:0:
256,192,257911,1,8,0:0:0:0:
256,192,257997,1,0,0:0:0:0:
256,192,258082,1,0,0:0:0:0:
256,192,258168,1,8,0:0:0:0:
256,192,258254,1,0,0:0:0:0:
256,192,258340,1,8,0:0:0:0:
256,192,258425,1,0,0:0:0:0:
256,192,258511,1,8,0:0:0:0:
256,192,258597,1,8,0:0:0:0:
256,192,258682,1,8,0:0:0:0:
256,192,258768,1,0,0:0:0:0:
256,192,258854,1,8,0:0:0:0:
256,192,258940,1,8,0:0:0:0:
256,192,259025,1,0,0:0:0:0:
256,192,259111,1,0,0:0:0:0:
256,192,259197,1,8,0:0:0:0:
256,192,259282,1,0,0:0:0:0:
256,192,259368,1,8,0:0:0:0:
256,192,259454,1,0,0:0:0:0:
256,192,259540,1,8,0:0:0:0:
256,192,259625,1,8,0:0:0:0:
256,192,259711,1,8,0:0:0:0:
256,192,259797,1,0,0:0:0:0:
256,192,259882,1,8,0:0:0:0:
256,192,259968,1,0,0:0:0:0:
256,192,260054,1,0,0:0:0:0:
256,192,260140,1,0,0:0:0:0:
256,192,260225,1,8,0:0:0:0:
256,192,260311,1,8,0:0:0:0:
256,192,260397,1,0,0:0:0:0:
256,192,260482,1,0,0:0:0:0:
256,192,260568,1,8,0:0:0:0:
256,192,260654,1,0,0:0:0:0:
256,192,260740,1,0,0:0:0:0:
256,192,260825,1,0,0:0:0:0:
256,192,260911,1,8,0:0:0:0:
256,192,260968,1,0,0:0:0:0:
256,192,261025,1,0,0:0:0:0:
256,192,261082,1,8,0:0:0:0:
256,192,261168,1,8,0:0:0:0:
256,192,261254,1,0,0:0:0:0:
256,192,261311,1,8,0:0:0:0:
256,192,261368,1,8,0:0:0:0:
256,192,261425,1,0,0:0:0:0:
256,192,261511,1,0,0:0:0:0:
256,192,261597,1,8,0:0:0:0:
256,192,261654,1,0,0:0:0:0:
256,192,261711,1,0,0:0:0:0:
256,192,261768,1,8,0:0:0:0:
256,192,261854,1,8,0:0:0:0:
256,192,261940,1,0,0:0:0:0:
256,192,261997,1,8,0:0:0:0:
256,192,262054,1,8,0:0:0:0:
256,192,262111,1,0,0:0:0:0:
256,192,262197,1,0,0:0:0:0:
256,192,262282,1,8,0:0:0:0:
256,192,262454,1,8,0:0:0:0:
256,192,262540,1,8,0:0:0:0:
256,192,262625,1,0,0:0:0:0:
256,192,262711,1,0,0:0:0:0:
256,192,262797,1,8,0:0:0:0:
256,192,262968,1,8,0:0:0:0:
256,192,263054,1,0,0:0:0:0:
256,192,263140,1,8,0:0:0:0:
256,192,263311,1,8,0:0:0:0:
256,192,263482,1,8,0:0:0:0:
256,192,263654,1,4,0:0:0:0:
256,192,266054,1,12,0:0:0:0:
256,192,266397,1,4,0:0:0:0:
256,192,266568,1,8,0:0:0:0:
256,192,266740,1,0,0:0:0:0:
256,192,266825,1,8,0:0:0:0:
256,192,266997,1,8,0:0:0:0:
256,192,267082,1,0,0:0:0:0:
256,192,267254,1,8,0:0:0:0:
256,192,267425,1,0,0:0:0:0:
256,192,267511,1,0,0:0:0:0:
256,192,267597,1,8,0:0:0:0:
256,192,267682,1,0,0:0:0:0:
256,192,267768,1,8,0:0:0:0:
256,192,267940,1,8,0:0:0:0:
256,192,268111,1,0,0:0:0:0:
256,192,268197,1,8,0:0:0:0:
256,192,268368,1,8,0:0:0:0:
256,192,268454,1,8,0:0:0:0:
256,192,268540,1,0,0:0:0:0:
256,192,268625,1,8,0:0:0:0:
256,192,268797,1,8,0:0:0:0:
256,192,268968,1,0,0:0:0:0:
256,192,269054,1,0,0:0:0:0:
256,192,269140,1,8,0:0:0:0:
256,192,269311,1,0,0:0:0:0:
256,192,269482,1,0,0:0:0:0:
256,192,269568,1,8,0:0:0:0:
256,192,269740,1,8,0:0:0:0:
256,192,269825,1,0,0:0:0:0:
256,192,269911,1,8,0:0:0:0:
256,192,270082,1,8,0:0:0:0:
256,192,270168,1,0,0:0:0:0:
256,192,270254,1,0,0:0:0:0:
256,192,270340,1,8,0:0:0:0:
256,192,270511,1,8,0:0:0:0:
256,192,270682,1,0,0:0:0:0:
256,192,270854,1,8,0:0:0:0:
256,192,270940,1,8,0:0:0:0:
256,192,271111,1,0,0:0:0:0:
256,192,271197,1,8,0:0:0:0:
256,192,271368,1,0,0:0:0:0:
256,192,271454,1,8,0:0:0:0:
256,192,271540,1,0,0:0:0:0:
256,192,271625,1,0,0:0:0:0:
256,192,271711,1,8,0:0:0:0:
256,192,271882,1,0,0:0:0:0:
256,192,272054,1,8,0:0:0:0:
256,192,272225,1,0,0:0:0:0:
256,192,272311,1,8,0:0:0:0:
256,192,272482,1,8,0:0:0:0:
256,192,272568,1,0,0:0:0:0:
256,192,272740,1,8,0:0:0:0:
256,192,272911,1,0,0:0:0:0:
256,192,272997,1,0,0:0:0:0:
256,192,273082,1,8,0:0:0:0:
256,192,273168,1,0,0:0:0:0:
256,192,273254,1,8,0:0:0:0:
256,192,273425,1,8,0:0:0:0:
256,192,273597,1,0,0:0:0:0:
256,192,273682,1,8,0:0:0:0:
256,192,273854,1,8,0:0:0:0:
256,192,273940,1,8,0:0:0:0:
256,192,274111,1,0,0:0:0:0:
256,192,274282,1,8,0:0:0:0:
256,192,274368,1,8,0:0:0:0:
256,192,274454,1,0,0:0:0:0:
256,192,274540,1,0,0:0:0:0:
256,192,274625,1,8,0:0:0:0:
256,192,274797,1,0,0:0:0:0:
256,192,274968,1,0,0:0:0:0:
256,192,275054,1,8,0:0:0:0:
256,192,275225,1,8,0:0:0:0:
256,192,275311,1,0,0:0:0:0:
256,192,275482,1,8,0:0:0:0:
256,192,275568,1,8,0:0:0:0:
256,192,275654,1,0,0:0:0:0:
256,192,275740,1,0,0:0:0:0:
256,192,275825,1,8,0:0:0:0:
256,192,275997,1,8,0:0:0:0:
256,192,276168,1,0,0:0:0:0:
256,192,276340,1,8,0:0:0:0:
256,192,276425,1,8,0:0:0:0:
256,192,276597,1,0,0:0:0:0:
256,192,276682,1,8,0:0:0:0:
256,192,276854,1,0,0:0:0:0:
256,192,276940,1,8,0:0:0:0:
256,192,277197,1,8,0:0:0:0:
256,192,277368,1,4,0:0:0:0:
256,192,277540,1,8,0:0:0:0:
256,192,277711,1,0,0:0:0:0:
256,192,277797,1,8,0:0:0:0:
256,192,277968,1,8,0:0:0:0:
256,192,278054,1,0,0:0:0:0:
256,192,278225,1,8,0:0:0:0:
256,192,278397,1,0,0:0:0:0:
256,192,278482,1,0,0:0:0:0:
256,192,278568,1,8,0:0:0:0:
256,192,278654,1,0,0:0:0:0:
256,192,278740,1,8,0:0:0:0:
256,192,278911,1,8,0:0:0:0:
256,192,279082,1,0,0:0:0:0:
256,192,279168,1,8,0:0:0:0:
256,192,279340,1,8,0:0:0:0:
256,192,279425,1,0,0:0:0:0:
256,192,279511,1,0,0:0:0:0:
256,192,279597,1,8,0:0:0:0:
256,192,279768,1,8,0:0:0:0:
256,192,279940,1,0,0:0:0:0:
256,192,280025,1,0,0:0:0:0:
256,192,280111,1,8,0:0:0:0:
256,192,280282,1,0,0:0:0:0:
256,192,280454,1,0,0:0:0:0:
256,192,280540,1,8,0:0:0:0:
256,192,280711,1,8,0:0:0:0:
256,192,280797,1,0,0:0:0:0:
256,192,280882,1,8,0:0:0:0:
256,192,281054,1,8,0:0:0:0:
256,192,281140,1,0,0:0:0:0:
256,192,281225,1,0,0:0:0:0:
256,192,281311,1,8,0:0:0:0:
256,192,281482,1,8,0:0:0:0:
256,192,281654,1,8,0:0:0:0:
256,192,281740,1,0,0:0:0:0:
256,192,281911,1,0,0:0:0:0:
256,192,281997,1,8,0:0:0:0:
256,192,282082,1,0,0:0:0:0:
256,192,282168,1,8,0:0:0:0:
256,192,282254,1,8,0:0:0:0:
256,192,282425,1,8,0:0:0:0:
256,192,282511,1,0,0:0:0:0:
256,192,282682,1,8,0:0:0:0:
256,192,282854,1,0,0:0:0:0:
256,192,283025,1,8,0:0:0:0:
256,192,283197,1,0,0:0:0:0:
256,192,283282,1,8,0:0:0:0:
256,192,283454,1,8,0:0:0:0:
256,192,283540,1,0,0:0:0:0:
256,192,283711,1,8,0:0:0:0:
256,192,283882,1,0,0:0:0:0:
256,192,283968,1,0,0:0:0:0:
256,192,284054,1,8,0:0:0:0:
256,192,284140,1,0,0:0:0:0:
256,192,284225,1,8,0:0:0:0:
256,192,284397,1,8,0:0:0:0:
256,192,284568,1,0,0:0:0:0:
256,192,284654,1,8,0:0:0:0:
256,192,284825,1,8,0:0:0:0:
256,192,284911,1,8,0:0:0:0:
256,192,284997,1,0,0:0:0:0:
256,192,285082,1,8,0:0:0:0:
256,192,285254,1,8,0:0:0:0:
256,192,285425,1,0,0:0:0:0:
256,192,285511,1,0,0:0:0:0:
256,192,285597,1,8,0:0:0:0:
256,192,285768,1,0,0:0:0:0:
256,192,285940,1,0,0:0:0:0:
256,192,286025,1,8,0:0:0:0:
256,192,286111,1,0,0:0:0:0:
256,192,286197,1,0,0:0:0:0:
256,192,286282,1,8,0:0:0:0:
256,192,286454,1,8,0:0:0:0:
256,192,286540,1,0,0:0:0:0:
256,192,286711,1,0,0:0:0:0:
256,192,286797,1,8,0:0:0:0:
256,192,286968,1,8,0:0:0:0:
256,192,287225,1,0,0:0:0:0:
256,192,287482,1,0,0:0:0:0:
256,192,287654,1,8,0:0:0:0:
256,192,287911,1,8,0:0:0:0:
256,192,288168,1,8,0:0:0:0:
256,192,288340,1,4,0:0:0:0:
256,192,288511,1,8,0:0:0:0:
256,192,288597,1,8,0:0:0:0:
256,192,288682,1,0,0:0:0:0:
256,192,288854,1,8,0:0:0:0:
256,192,289025,1,0,0:0:0:0:
256,192,289111,1,8,0:0:0:0:
256,192,289197,1,0,0:0:0:0:
256,192,289368,1,0,0:0:0:0:
256,192,289454,1,0,0:0:0:0:
256,192,289540,1,8,0:0:0:0:
256,192,289625,1,0,0:0:0:0:
256,192,289711,1,8,0:0:0:0:
256,192,289882,1,8,0:0:0:0:
256,192,289968,1,8,0:0:0:0:
256,192,290054,1,0,0:0:0:0:
256,192,290225,1,8,0:0:0:0:
256,192,290397,1,0,0:0:0:0:
256,192,290482,1,0,0:0:0:0:
256,192,290568,1,8,0:0:0:0:
256,192,290654,1,8,0:0:0:0:
256,192,290740,1,0,0:0:0:0:
256,192,290911,1,8,0:0:0:0:
256,192,291082,1,0,0:0:0:0:
256,192,291254,1,8,0:0:0:0:
256,192,291340,1,8,0:0:0:0:
256,192,291425,1,0,0:0:0:0:
256,192,291597,1,8,0:0:0:0:
256,192,291768,1,0,0:0:0:0:
256,192,291854,1,0,0:0:0:0:
256,192,291940,1,8,0:0:0:0:
256,192,292025,1,0,0:0:0:0:
256,192,292111,1,8,0:0:0:0:
256,192,292282,1,8,0:0:0:0:
256,192,292368,1,8,0:0:0:0:
256,192,292454,1,0,0:0:0:0:
256,192,292625,1,0,0:0:0:0:
256,192,292711,1,0,0:0:0:0:
256,192,292797,1,8,0:0:0:0:
256,192,292968,1,8,0:0:0:0:
256,192,293054,1,8,0:0:0:0:
256,192,293140,1,0,0:0:0:0:
256,192,293225,1,8,0:0:0:0:
256,192,293311,1,0,0:0:0:0:
256,192,293482,1,8,0:0:0:0:
256,192,293654,1,8,0:0:0:0:
256,192,293740,1,8,0:0:0:0:
256,192,293825,1,0,0:0:0:0:
256,192,293997,1,0,0:0:0:0:
256,192,294082,1,0,0:0:0:0:
256,192,294168,1,8,0:0:0:0:
256,192,294340,1,8,0:0:0:0:
256,192,294511,1,0,0:0:0:0:
256,192,294597,1,8,0:0:0:0:
256,192,294682,1,8,0:0:0:0:
256,192,294854,1,0,0:0:0:0:
256,192,295025,1,8,0:0:0:0:
256,192,295111,1,8,0:0:0:0:
256,192,295197,1,0,0:0:0:0:
256,192,295282,1,0,0:0:0:0:
256,192,295368,1,8,0:0:0:0:
256,192,295540,1,0,0:0:0:0:
256,192,295625,1,0,0:0:0:0:
256,192,295711,1,8,0:0:0:0:
256,192,295882,1,0,0:0:0:0:
256,192,296054,1,8,0:0:0:0:
256,192,296140,1,8,0:0:0:0:
256,192,296225,1,0,0:0:0:0:
256,192,296397,1,8,0:0:0:0:
256,192,296568,1,0,0:0:0:0:
256,192,296654,1,8,0:0:0:0:
256,192,296740,1,8,0:0:0:0:
256,192,296825,1,8,0:0:0:0:
256,192,296911,1,0,0:0:0:0:
256,192,297082,1,8,0:0:0:0:
256,192,297168,1,8,0:0:0:0:
256,192,297254,1,0,0:0:0:0:
256,192,297425,1,8,0:0:0:0:
256,192,297597,1,0,0:0:0:0:
256,192,297682,1,0,0:0:0:0:
256,192,297768,1,8,0:0:0:0:
256,192,297940,1,0,0:0:0:0:
256,192,298111,1,8,0:0:0:0:
256,192,298197,1,0,0:0:0:0:
256,192,298282,1,8,0:0:0:0:
256,192,298368,1,8,0:0:0:0:
256,192,298454,1,0,0:0:0:0:
256,192,298625,1,8,0:0:0:0:
256,192,298797,1,8,0:0:0:0:
256,192,298882,1,0,0:0:0:0:
256,192,299140,1,0,0:0:0:0:
256,192,299311,1,4,0:0:0:0:
256,192,299482,1,8,0:0:0:0:
256,192,299568,1,8,0:0:0:0:
256,192,299654,1,0,0:0:0:0:
256,192,299825,1,8,0:0:0:0:
256,192,299997,1,0,0:0:0:0:
256,192,300082,1,8,0:0:0:0:
256,192,300168,1,0,0:0:0:0:
256,192,300340,1,0,0:0:0:0:
256,192,300425,1,0,0:0:0:0:
256,192,300511,1,8,0:0:0:0:
256,192,300597,1,0,0:0:0:0:
256,192,300682,1,8,0:0:0:0:
256,192,300854,1,8,0:0:0:0:
256,192,300940,1,0,0:0:0:0:
256,192,301025,1,8,0:0:0:0:
256,192,301197,1,8,0:0:0:0:
256,192,301368,1,0,0:0:0:0:
256,192,301454,1,0,0:0:0:0:
256,192,301540,1,8,0:0:0:0:
256,192,301625,1,8,0:0:0:0:
256,192,301711,1,0,0:0:0:0:
256,192,301882,1,8,0:0:0:0:
256,192,302054,1,0,0:0:0:0:
256,192,302225,1,8,0:0:0:0:
256,192,302311,1,8,0:0:0:0:
256,192,302397,1,0,0:0:0:0:
256,192,302568,1,8,0:0:0:0:
256,192,302740,1,0,0:0:0:0:
256,192,302825,1,0,0:0:0:0:
256,192,302911,1,8,0:0:0:0:
256,192,302997,1,0,0:0:0:0:
256,192,303082,1,8,0:0:0:0:
256,192,303254,1,8,0:0:0:0:
256,192,303340,1,8,0:0:0:0:
256,192,303425,1,0,0:0:0:0:
256,192,303597,1,0,0:0:0:0:
256,192,303682,5,0,0:0:0:0:
256,192,303768,1,8,0:0:0:0:
256,192,303940,1,8,0:0:0:0:
256,192,304025,1,8,0:0:0:0:
256,192,304111,1,0,0:0:0:0:
256,192,304197,1,8,0:0:0:0:
256,192,304282,1,0,0:0:0:0:
256,192,304454,1,8,0:0:0:0:
256,192,304625,1,8,0:0:0:0:
256,192,304797,5,4,0:0:0:0:
256,192,304968,1,0,0:0:0:0:
256,192,305054,1,0,0:0:0:0:
256,192,305140,1,8,0:0:0:0:
256,192,305311,1,0,0:0:0:0:
256,192,305482,1,8,0:0:0:0:
256,192,305568,1,8,0:0:0:0:
256,192,305654,1,0,0:0:0:0:
256,192,305740,1,0,0:0:0:0:
256,192,305825,1,8,0:0:0:0:
256,192,305911,1,8,0:0:0:0:
256,192,305997,1,8,0:0:0:0:
256,192,306082,1,0,0:0:0:0:
256,192,306168,1,8,0:0:0:0:
256,192,306340,1,0,0:0:0:0:
256,192,306511,1,8,0:0:0:0:
256,192,306597,1,0,0:0:0:0:
256,192,306682,1,0,0:0:0:0:
256,192,306768,1,0,0:0:0:0:
256,192,306854,1,8,0:0:0:0:
256,192,306940,1,8,0:0:0:0:
256,192,307025,1,8,0:0:0:0:
256,192,307111,1,0,0:0:0:0:
256,192,307197,1,8,0:0:0:0:
256,192,307254,1,0,0:0:0:0:
256,192,307311,1,0,0:0:0:0:
256,192,307368,1,8,0:0:0:0:
256,192,307540,1,8,0:0:0:0:
256,192,307625,1,8,0:0:0:0:
256,192,307711,1,0,0:0:0:0:
256,192,307797,1,0,0:0:0:0:
256,192,307882,1,8,0:0:0:0:
256,192,307968,1,8,0:0:0:0:
256,192,308054,1,8,0:0:0:0:
256,192,308140,1,0,0:0:0:0:
256,192,308225,1,8,0:0:0:0:
256,192,308282,1,0,0:0:0:0:
256,192,308340,1,0,0:0:0:0:
256,192,308397,1,8,0:0:0:0:
256,192,308482,1,8,0:0:0:0:
256,192,308568,1,0,0:0:0:0:
256,192,308625,1,8,0:0:0:0:
256,192,308682,1,8,0:0:0:0:
256,192,308740,1,0,0:0:0:0:
256,192,308825,1,0,0:0:0:0:
256,192,308911,1,8,0:0:0:0:
256,192,309082,1,8,0:0:0:0:
256,192,309254,1,8,0:0:0:0:
256,192,309340,1,8,0:0:0:0:
256,192,309425,1,8,0:0:0:0:
256,192,309511,1,8,0:0:0:0:
256,192,309597,1,0,0:0:0:0:
256,192,310282,1,4,0:0:0:0:
256,192,310625,1,8,0:0:0:0:
256,192,310797,1,0,0:0:0:0:
256,192,310968,1,0,0:0:0:0:
256,192,311054,1,0,0:0:0:0:
256,192,311140,1,8,0:0:0:0:
256,192,311311,1,8,0:0:0:0:
256,192,311482,1,0,0:0:0:0:
256,192,311654,1,8,0:0:0:0:
256,192,311740,1,8,0:0:0:0:
256,192,311825,1,0,0:0:0:0:
256,192,311911,1,0,0:0:0:0:
256,192,311997,1,8,0:0:0:0:
256,192,312168,1,0,0:0:0:0:
256,192,312340,1,8,0:0:0:0:
256,192,312425,1,0,0:0:0:0:
256,192,312511,1,0,0:0:0:0:
256,192,312682,1,8,0:0:0:0:
256,192,312854,1,8,0:0:0:0:
256,192,313025,1,0,0:0:0:0:
256,192,313368,1,8,0:0:0:0:
256,192,313540,1,0,0:0:0:0:
256,192,313711,1,0,0:0:0:0:
256,192,313797,1,0,0:0:0:0:
256,192,313882,1,8,0:0:0:0:
256,192,314054,1,0,0:0:0:0:
256,192,314225,1,8,0:0:0:0:
256,192,314311,1,0,0:0:0:0:
256,192,314482,1,0,0:0:0:0:
256,192,314568,1,8,0:0:0:0:
256,192,314740,1,0,0:0:0:0:
256,192,314911,1,8,0:0:0:0:
256,192,314997,1,0,0:0:0:0:
256,192,315082,1,8,0:0:0:0:
256,192,315168,1,8,0:0:0:0:
256,192,315254,1,0,0:0:0:0:
256,192,315425,1,8,0:0:0:0:
256,192,315597,1,0,0:0:0:0:
256,192,315768,1,0,0:0:0:0:
256,192,316111,1,8,0:0:0:0:
256,192,316282,1,0,0:0:0:0:
256,192,316454,1,8,0:0:0:0:
256,192,316540,1,0,0:0:0:0:
256,192,316625,1,0,0:0:0:0:
256,192,316797,1,8,0:0:0:0:
256,192,316968,1,0,0:0:0:0:
256,192,317140,1,0,0:0:0:0:
256,192,317225,1,0,0:0:0:0:
256,192,317311,1,8,0:0:0:0:
256,192,317397,1,0,0:0:0:0:
256,192,317482,1,8,0:0:0:0:
256,192,317654,1,0,0:0:0:0:
256,192,317825,1,8,0:0:0:0:
256,192,317911,1,8,0:0:0:0:
256,192,317997,1,0,0:0:0:0:
256,192,318168,1,8,0:0:0:0:
256,192,318340,1,8,0:0:0:0:
256,192,318511,1,0,0:0:0:0:
256,192,318854,1,8,0:0:0:0:
256,192,319025,1,0,0:0:0:0:
256,192,319197,1,8,0:0:0:0:
256,192,319282,1,0,0:0:0:0:
256,192,319368,1,0,0:0:0:0:
256,192,319454,1,0,0:0:0:0:
256,192,319540,1,8,0:0:0:0:
256,192,319711,1,0,0:0:0:0:
256,192,319882,1,8,0:0:0:0:
256,192,319968,1,8,0:0:0:0:
256,192,320054,1,0,0:0:0:0:
256,192,320225,1,8,0:0:0:0:
256,192,320311,1,0,0:0:0:0:
256,192,320397,1,8,0:0:0:0:
256,192,320568,1,0,0:0:0:0:
256,192,320740,1,8,0:0:0:0:
256,192,320825,1,8,0:0:0:0:
256,192,320911,1,0,0:0:0:0:
256,192,321082,1,0,0:0:0:0:
256,192,321254,1,4,0:0:0:0:
256,192,321511,1,0,0:0:0:0:
256,192,321597,1,8,0:0:0:0:
256,192,321768,1,0,0:0:0:0:
256,192,321940,1,8,0:0:0:0:
256,192,322025,1,0,0:0:0:0:
256,192,322111,1,0,0:0:0:0:
256,192,322282,1,8,0:0:0:0:
256,192,322454,1,0,0:0:0:0:
256,192,322540,1,0,0:0:0:0:
256,192,322625,1,8,0:0:0:0:
256,192,322711,1,8,0:0:0:0:
256,192,322797,1,0,0:0:0:0:
256,192,322968,1,8,0:0:0:0:
256,192,323140,1,0,0:0:0:0:
256,192,323225,1,0,0:0:0:0:
256,192,323311,1,8,0:0:0:0:
256,192,323482,1,8,0:0:0:0:
256,192,323568,1,8,0:0:0:0:
256,192,323654,1,0,0:0:0:0:
256,192,323825,1,8,0:0:0:0:
256,192,323997,1,0,0:0:0:0:
256,192,324254,1,8,0:0:0:0:
256,192,324340,1,0,0:0:0:0:
256,192,324511,1,8,0:0:0:0:
256,192,324682,1,0,0:0:0:0:
256,192,324768,1,0,0:0:0:0:
256,192,324854,1,8,0:0:0:0:
256,192,325025,1,0,0:0:0:0:
256,192,325197,1,8,0:0:0:0:
256,192,325282,1,0,0:0:0:0:
256,192,325454,1,0,0:0:0:0:
256,192,325540,1,8,0:0:0:0:
256,192,325711,1,0,0:0:0:0:
256,192,325882,1,8,0:0:0:0:
256,192,325968,1,8,0:0:0:0:
256,192,326054,1,0,0:0:0:0:
256,192,326140,1,0,0:0:0:0:
256,192,326225,1,8,0:0:0:0:
256,192,326397,1,8,0:0:0:0:
256,192,326568,1,8,0:0:0:0:
256,192,326740,1,4,0:0:0:0:
256,192,326911,1,0,0:0:0:0:
256,192,326997,1,0,0:0:0:0:
256,192,327082,1,8,0:0:0:0:
256,192,327254,1,0,0:0:0:0:
256,192,327425,1,8,0:0:0:0:
256,192,327511,1,0,0:0:0:0:
256,192,327597,1,8,0:0:0:0:
256,192,327682,1,8,0:0:0:0:
256,192,327768,1,0,0:0:0:0:
256,192,327940,1,0,0:0:0:0:
256,192,328111,1,12,0:0:0:0:
256,192,328282,1,8,0:0:0:0:
256,192,328368,1,0,0:0:0:0:
256,192,328454,1,0,0:0:0:0:
256,192,328625,1,8,0:0:0:0:
256,192,328797,1,8,0:0:0:0:
256,192,328882,1,8,0:0:0:0:
256,192,328968,1,0,0:0:0:0:
256,192,329054,1,8,0:0:0:0:
256,192,329140,1,0,0:0:0:0:
256,192,329311,1,8,0:0:0:0:
256,192,329482,1,8,0:0:0:0:
256,192,329568,1,8,0:0:0:0:
256,192,329654,1,8,0:0:0:0:
256,192,329740,1,0,0:0:0:0:
256,192,329825,1,8,0:0:0:0:
256,192,329911,1,8,0:0:0:0:
256,192,329997,1,0,0:0:0:0:
256,192,330082,1,0,0:0:0:0:
256,192,330168,1,8,0:0:0:0:
256,192,330254,1,0,0:0:0:0:
256,192,330340,1,8,0:0:0:0:
256,192,330425,1,0,0:0:0:0:
256,192,330511,1,8,0:0:0:0:
256,192,330597,1,8,0:0:0:0:
256,192,330682,1,8,0:0:0:0:
256,192,330768,1,8,0:0:0:0:
256,192,330854,1,4,0:0:0:0:
256,192,331025,1,0,0:0:0:0:
256,192,331197,1,8,0:0:0:0:
256,192,331282,1,8,0:0:0:0:
256,192,331368,1,8,0:0:0:0:
256,192,331454,1,8,0:0:0:0:
256,192,332225,1,4,0:0:0:0:
256,192,332482,1,8,0:0:0:0:
256,192,332568,1,0,0:0:0:0:
256,192,332740,1,8,0:0:0:0:
256,192,332911,1,0,0:0:0:0:
256,192,332997,1,8,0:0:0:0:
256,192,333168,1,8,0:0:0:0:
256,192,333254,1,0,0:0:0:0:
256,192,333340,1,0,0:0:0:0:
256,192,333425,1,8,0:0:0:0:
256,192,333597,1,0,0:0:0:0:
256,192,333768,1,8,0:0:0:0:
256,192,333854,1,8,0:0:0:0:
256,192,333940,1,0,0:0:0:0:
256,192,334111,1,8,0:0:0:0:
256,192,334197,1,8,0:0:0:0:
256,192,334282,1,0,0:0:0:0:
256,192,334368,1,8,0:0:0:0:
256,192,334540,1,8,0:0:0:0:
256,192,334625,1,0,0:0:0:0:
256,192,334797,1,8,0:0:0:0:
256,192,334968,1,0,0:0:0:0:
256,192,335225,1,8,0:0:0:0:
256,192,335311,1,0,0:0:0:0:
256,192,335482,1,8,0:0:0:0:
256,192,335654,1,0,0:0:0:0:
256,192,335740,1,8,0:0:0:0:
256,192,335911,1,8,0:0:0:0:
256,192,335997,1,0,0:0:0:0:
256,192,336082,1,0,0:0:0:0:
256,192,336168,1,8,0:0:0:0:
256,192,336340,1,0,0:0:0:0:
256,192,336511,1,0,0:0:0:0:
256,192,336597,1,8,0:0:0:0:
256,192,336682,1,0,0:0:0:0:
256,192,336854,1,8,0:0:0:0:
256,192,336940,1,8,0:0:0:0:
256,192,337025,1,0,0:0:0:0:
256,192,337111,1,8,0:0:0:0:
256,192,337282,1,8,0:0:0:0:
256,192,337368,1,0,0:0:0:0:
256,192,337540,1,8,0:0:0:0:
256,192,337711,1,0,0:0:0:0:
256,192,337968,1,8,0:0:0:0:
256,192,338054,1,0,0:0:0:0:
256,192,338225,1,8,0:0:0:0:
256,192,338397,1,0,0:0:0:0:
256,192,338482,1,8,0:0:0:0:
256,192,338654,1,8,0:0:0:0:
256,192,338740,1,0,0:0:0:0:
256,192,338825,1,0,0:0:0:0:
256,192,338911,1,8,0:0:0:0:
256,192,339082,1,0,0:0:0:0:
256,192,339254,1,8,0:0:0:0:
256,192,339340,1,8,0:0:0:0:
256,192,339425,1,0,0:0:0:0:
256,192,339597,1,8,0:0:0:0:
256,192,339682,1,8,0:0:0:0:
256,192,339768,1,0,0:0:0:0:
256,192,339854,1,8,0:0:0:0:
256,192,340025,1,8,0:0:0:0:
256,192,340111,1,0,0:0:0:0:
256,192,340282,1,8,0:0:0:0:
256,192,340454,1,0,0:0:0:0:
256,192,340711,1,8,0:0:0:0:
256,192,340797,1,0,0:0:0:0:
256,192,340968,1,8,0:0:0:0:
256,192,341140,1,0,0:0:0:0:
256,192,341225,1,8,0:0:0:0:
256,192,341397,1,8,0:0:0:0:
256,192,341482,1,0,0:0:0:0:
256,192,341568,1,0,0:0:0:0:
256,192,341654,1,8,0:0:0:0:
256,192,341825,1,0,0:0:0:0:
256,192,341997,1,8,0:0:0:0:
256,192,342082,1,8,0:0:0:0:
256,192,342168,1,0,0:0:0:0:
256,192,342254,1,0,0:0:0:0:
256,192,342340,1,8,0:0:0:0:
256,192,342511,1,0,0:0:0:0:
256,192,342597,1,8,0:0:0:0:
256,192,342768,1,8,0:0:0:0:
256,192,342854,1,0,0:0:0:0:
256,192,343025,1,8,0:0:0:0:
256,192,343197,1,4,0:0:0:0:
256,192,343454,1,8,0:0:0:0:
256,192,343540,1,0,0:0:0:0:
256,192,343711,1,8,0:0:0:0:
256,192,343882,1,0,0:0:0:0:
256,192,343968,1,8,0:0:0:0:
256,192,344140,1,8,0:0:0:0:
256,192,344225,1,0,0:0:0:0:
256,192,344311,1,0,0:0:0:0:
256,192,344397,1,8,0:0:0:0:
256,192,344568,1,0,0:0:0:0:
256,192,344740,1,0,0:0:0:0:
256,192,344825,1,8,0:0:0:0:
256,192,344911,1,0,0:0:0:0:
256,192,345082,1,8,0:0:0:0:
256,192,345168,1,8,0:0:0:0:
256,192,345254,1,0,0:0:0:0:
256,192,345340,1,8,0:0:0:0:
256,192,345511,1,8,0:0:0:0:
256,192,345597,1,0,0:0:0:0:
256,192,345768,1,8,0:0:0:0:
256,192,345940,1,0,0:0:0:0:
256,192,346197,1,8,0:0:0:0:
256,192,346282,1,0,0:0:0:0:
256,192,346454,1,8,0:0:0:0:
256,192,346625,1,0,0:0:0:0:
256,192,346711,1,8,0:0:0:0:
256,192,346882,1,8,0:0:0:0:
256,192,346968,1,0,0:0:0:0:
256,192,347054,1,0,0:0:0:0:
256,192,347140,1,8,0:0:0:0:
256,192,347311,1,0,0:0:0:0:
256,192,347482,1,8,0:0:0:0:
256,192,347568,1,8,0:0:0:0:
256,192,347654,1,0,0:0:0:0:
256,192,347825,1,8,0:0:0:0:
256,192,347911,1,8,0:0:0:0:
256,192,347997,1,0,0:0:0:0:
256,192,348082,1,8,0:0:0:0:
256,192,348254,1,8,0:0:0:0:
256,192,348340,1,0,0:0:0:0:
256,192,348511,1,8,0:0:0:0:
256,192,348682,1,4,0:0:0:0:
256,192,348940,1,8,0:0:0:0:
256,192,349025,1,0,0:0:0:0:
256,192,349197,1,8,0:0:0:0:
256,192,349368,1,0,0:0:0:0:
256,192,349454,1,8,0:0:0:0:
256,192,349625,1,8,0:0:0:0:
256,192,349711,1,0,0:0:0:0:
256,192,349797,1,0,0:0:0:0:
256,192,349882,1,8,0:0:0:0:
256,192,350054,1,4,0:0:0:0:
256,192,350311,1,8,0:0:0:0:
256,192,350397,1,0,0:0:0:0:
256,192,350568,1,8,0:0:0:0:
256,192,350654,1,8,0:0:0:0:
256,192,350740,1,0,0:0:0:0:
256,192,350825,1,8,0:0:0:0:
256,192,350997,1,8,0:0:0:0:
256,192,351082,1,0,0:0:0:0:
256,192,351254,1,8,0:0:0:0:
256,192,351425,1,4,0:0:0:0:
256,192,351597,1,0,0:0:0:0:
256,192,351682,1,0,0:0:0:0:
256,192,351768,1,8,0:0:0:0:
256,192,351940,1,0,0:0:0:0:
256,192,352111,1,8,0:0:0:0:
256,192,352197,1,8,0:0:0:0:
256,192,352282,1,8,0:0:0:0:
256,192,352368,1,0,0:0:0:0:
256,192,352454,1,8,0:0:0:0:
256,192,352540,1,8,0:0:0:0:
256,192,352625,1,8,0:0:0:0:
256,192,352711,1,8,0:0:0:0:
256,192,352797,1,0,0:0:0:0:
256,192,353140,1,8,0:0:0:0:
256,192,353482,1,8,0:0:0:0:
256,192,353654,1,8,0:0:0:0:
256,192,353825,1,8,0:0:0:0:
256,192,354168,1,4,0:0:0:0:
256,192,354511,1,8,0:0:0:0:
256,192,354854,1,0,0:0:0:0:
256,192,355197,1,8,0:0:0:0:
256,192,355540,1,0,0:0:0:0:
256,192,355882,1,8,0:0:0:0:
256,192,356225,1,0,0:0:0:0:
256,192,356568,1,8,0:0:0:0:
256,192,356740,1,8,0:0:0:0:
256,192,356911,1,0,0:0:0:0:
256,192,357254,1,8,0:0:0:0:
256,192,357597,1,0,0:0:0:0:
256,192,357940,1,8,0:0:0:0:
256,192,358282,1,0,0:0:0:0:
256,192,358625,1,8,0:0:0:0:
256,192,358797,1,8,0:0:0:0:
256,192,358968,1,0,0:0:0:0:
256,192,359054,1,0,0:0:0:0:
256,192,359140,1,8,0:0:0:0:
256,192,359311,1,8,0:0:0:0:
256,192,359482,1,8,0:0:0:0:
256,192,359654,1,0,0:0:0:0:
256,192,359997,1,8,0:0:0:0:
256,192,360340,1,0,0:0:0:0:
256,192,360682,1,8,0:0:0:0:
256,192,361025,1,0,0:0:0:0:
256,192,361368,1,8,0:0:0:0:
256,192,361711,1,0,0:0:0:0:
256,192,362054,1,8,0:0:0:0:
256,192,362225,1,8,0:0:0:0:
256,192,362397,1,0,0:0:0:0:
256,192,362740,1,8,0:0:0:0:
256,192,363082,1,0,0:0:0:0:
256,192,363425,1,8,0:0:0:0:
256,192,363768,1,0,0:0:0:0:
256,192,363940,1,8,0:0:0:0:
256,192,364111,1,8,0:0:0:0:
256,192,364197,1,8,0:0:0:0:
256,192,364282,1,8,0:0:0:0:
256,192,364454,1,8,0:0:0:0:
256,192,364797,1,8,0:0:0:0:
256,192,364968,1,8,0:0:0:0:
256,192,365054,1,8,0:0:0:0:
256,192,365140,1,4,0:0:0:0:
256,192,365482,1,8,0:0:0:0:
256,192,365825,1,0,0:0:0:0:
256,192,366168,1,8,0:0:0:0:
256,192,366511,1,0,0:0:0:0:
256,192,366854,1,8,0:0:0:0:
256,192,367197,1,0,0:0:0:0:
256,192,367540,1,8,0:0:0:0:
256,192,367711,1,8,0:0:0:0:
256,192,367882,1,0,0:0:0:0:
256,192,368225,1,8,0:0:0:0:
256,192,368568,1,0,0:0:0:0:
256,192,368911,1,8,0:0:0:0:
256,192,369254,1,0,0:0:0:0:
256,192,369597,1,8,0:0:0:0:
256,192,369768,1,8,0:0:0:0:
256,192,369940,1,0,0:0:0:0:
256,192,370025,1,0,0:0:0:0:
256,192,370111,1,8,0:0:0:0:
256,192,370282,1,8,0:0:0:0:
256,192,370454,1,8,0:0:0:0:
256,192,370625,1,4,0:0:0:0:
256,192,370968,1,8,0:0:0:0:
256,192,371311,1,0,0:0:0:0:
256,192,371654,1,8,0:0:0:0:
256,192,371997,1,4,0:0:0:0:
256,192,372340,1,8,0:0:0:0:
256,192,372682,1,0,0:0:0:0:
256,192,373025,1,8,0:0:0:0:
256,192,373197,1,8,0:0:0:0:
256,192,373368,1,4,0:0:0:0:
256,192,373540,1,0,0:0:0:0:
256,192,373711,1,8,0:0:0:0:
256,192,373882,1,8,0:0:0:0:
256,192,374054,1,4,0:0:0:0:
256,192,374311,1,0,0:0:0:0:
256,192,374568,1,8,0:0:0:0:
256,192,374740,1,4,0:0:0:0:
256,192,375425,1,8,0:0:0:0:
256,192,375511,1,8,0:0:0:0:
256,192,375597,1,0,0:0:0:0:
256,192,375768,1,12,0:0:0:0:
256,192,376111,1,4,0:0:0:0:
256,192,376282,12,0,384340,0:0:0:0:
