osu file format v14

[General]
AudioFilename: audio.mp3
AudioLeadIn: 0
PreviewTime: 52815
Countdown: 0
SampleSet: Soft
StackLeniency: 0.3
Mode: 0
LetterboxInBreaks: 0
WidescreenStoryboard: 1

[Editor]
Bookmarks: 82815
DistanceSpacing: 1.3
BeatDivisor: 4
GridSize: 8
TimelineZoom: 1

[Metadata]
Title:Hikaru nara -TV size-
TitleUnicode:Hikaru nara -TV size-
Artist:Goose house
ArtistUnicode:Goose house
Creator:Njou
Version:Insane (2024)
Source:四月は君の嘘
Tags:shigatsu wa kimi no uso your lie in april opening
BeatmapID:4556275
BeatmapSetID:1913418

[Difficulty]
HPDrainRate:5
CircleSize:3.8
OverallDifficulty:8
ApproachRate:8.8
SliderMultiplier:1.6
SliderTickRate:1

[Events]
//Background and Video events
0,0,"BG.jpg",0,0
//Break Periods
//Storyboard Layer 0 (Background)
//Storyboard Layer 1 (Fail)
//Storyboard Layer 2 (Pass)
//Storyboard Layer 3 (Foreground)
//Storyboard Layer 4 (Overlay)
//Storyboard Sound Samples

[TimingPoints]
315,375,4,2,0,100,1,0
315,-125,4,2,0,40,0,0
4065,-100,4,2,0,40,0,0
12127,-125,4,2,0,40,0,0
13815,-100,4,2,0,40,0,0
37815,-125,4,2,0,40,0,0
43815,-100,4,2,0,40,0,0
52815,-83.3333333333333,4,2,0,40,0,1
76815,-100,4,2,0,40,0,0
88065,-100,4,2,0,40,0,0
88815,-100,4,2,0,5,0,0

[HitObjects]
5,346,315,6,0,P|39:341|68:334,1,64
148,357,690,1,0,0:0:0:0:
236,236,877,2,0,P|170:235|123:280,1,128
148,357,1440,1,0,0:0:0:0:
46,253,1627,2,0,P|37:184|23:126,1,128
73,59,2190,1,0,0:0:0:0:
159,149,2377,2,0,P|266:144|218:38,1,256
205,38,3221,1,0,0:0:0:0:
185,40,3315,5,0,0:0:0:0:
159,149,3502,1,0,0:0:0:0:
77,71,3690,5,0,0:0:0:0:
133,260,3877,1,0,0:0:0:0:
268,117,4065,6,0,P|308:122|347:132,1,80
485,202,4440,2,0,P|445:207|407:217,1,80
292,318,4815,5,0,0:0:0:0:
347,132,5002,1,0,0:0:0:0:
440,303,5190,1,0,0:0:0:0:
229,231,5377,2,0,P|234:191|244:153,1,80
277,53,5752,1,0,0:0:0:0:
347,132,5940,1,0,0:0:0:0:
508,83,6127,6,0,P|457:25|381:32,1,160
347,132,6690,1,0,0:0:0:0:
269,28,6877,2,0,P|230:18|190:13,1,80
103,131,7252,2,0,P|143:126|182:117,1,80
57,35,7627,6,0,P|1:89|2:167,1,160
155,210,8190,1,0,0:0:0:0:
101,298,8377,2,0,P|62:307|22:312,1,80
155,210,8752,1,0,0:0:0:0:
189,352,8940,1,0,0:0:0:0:
51,207,9127,6,0,P|81:136|154:107,1,160
243,157,9690,1,0,0:0:0:0:
155,210,9878,1,0,0:0:0:0:
296,245,10065,2,0,P|335:239|374:230,1,80
437,146,10440,2,0,P|474:196|474:257,1,120
460,280,10815,5,0,0:0:0:0:
272,327,11002,1,0,0:0:0:0:
272,327,11377,5,0,0:0:0:0:
460,374,11565,1,0,0:0:0:0:
460,374,11940,5,0,0:0:0:0:
272,233,12127,2,0,P|209:246|146:255,1,128
59,189,12690,5,0,0:0:0:0:
159,145,12877,1,0,0:0:0:0:
146,255,13065,5,0,0:0:0:0:
72,77,13252,1,0,0:0:0:0:
262,101,13440,5,0,0:0:0:0:
59,189,13627,1,0,0:0:0:0:
174,33,13815,6,0,P|240:7|332:16,1,160
369,113,14377,1,0,0:0:0:0:
262,101,14565,1,0,0:0:0:0:
262,101,14752,1,0,0:0:0:0:
327,14,14940,1,0,0:0:0:0:
476,125,15127,6,0,L|448:282,1,160
383,364,15690,1,0,0:0:0:0:
265,287,15877,2,0,P|303:277|343:272,1,80
461,378,16252,2,0,P|421:372|382:363,1,80
343,272,16627,1,0,0:0:0:0:
216,362,16815,6,0,P|137:375|57:382,1,160
0,278,17377,1,0,0:0:0:0:
104,290,17565,1,0,0:0:0:0:
104,290,17753,1,0,0:0:0:0:
166,205,17940,1,0,0:0:0:0:
19,78,18127,6,0,P|0:150|62:192,1,160
142,124,18690,1,0,0:0:0:0:
278,195,18877,2,0,P|272:235|263:274,1,80
142,124,19252,2,0,P|148:84|157:45,1,80
255,12,19627,1,0,0:0:0:0:
393,99,19815,6,0,L|472:113,1,80
436,13,20190,2,0,L|358:0,1,80
263,38,20565,1,0,0:0:0:0:
263,38,20752,1,0,0:0:0:0:
408,177,20940,2,0,P|402:137|393:98,1,80
260,203,21315,6,0,P|289:230|327:243,1,80
342,346,21690,2,0,P|379:334|409:308,1,80
408,177,22065,1,0,0:0:0:0:
408,177,22252,1,0,0:0:0:0:
327,243,22440,2,0,L|248:229,1,80
156,365,22815,6,0,P|157:306|118:262,1,120
90,262,23190,2,0,L|11:275,1,80
38,175,23565,1,0,0:0:0:0:
38,175,23752,1,0,0:0:0:0:
177,210,23940,1,0,0:0:0:0:
108,51,24127,6,0,P|108:91|121:129,1,80
273,106,24502,2,0,P|238:85|199:78,1,80
144,221,24877,2,0,P|178:201|204:171,1,80
251,0,25252,1,0,0:0:0:0:
341,51,25440,2,0,P|401:42|459:28,1,120
486,44,25815,6,0,L|470:130,1,80
488,300,26190,2,0,L|502:222,1,80
472,122,26565,1,0,0:0:0:0:
373,152,26752,1,0,0:0:0:0:
502,221,26940,1,0,0:0:0:0:
396,51,27127,1,0,0:0:0:0:
396,51,27315,6,0,P|355:51|318:65,1,80
170,175,27690,2,0,P|129:174|92:160,1,80
248,109,28065,1,0,0:0:0:0:
248,109,28252,2,0,P|267:144|274:183,1,80
196,276,28627,1,0,0:0:0:0:
329,383,28815,6,0,L|407:369,1,80
462,253,29190,2,0,L|384:267,2,80
510,160,29752,1,0,0:0:0:0:
351,49,29940,1,0,0:0:0:0:
286,233,30127,6,0,P|246:227|207:218,1,80
49,163,30502,2,0,P|89:157|128:149,1,80
198,72,30877,2,0,P|231:143|207:217,1,160
75,252,31440,1,0,0:0:0:0:
184,234,31627,1,0,0:0:0:0:
231,359,31815,6,0,P|309:351|371:303,1,160
400,202,32377,1,0,0:0:0:0:
298,227,32565,1,0,0:0:0:0:
298,227,32752,1,0,0:0:0:0:
473,278,32940,2,0,P|500:225|501:192,1,80
386,42,33315,6,0,L|399:201,1,160
371,303,33877,1,0,0:0:0:0:
501,176,34065,1,0,0:0:0:0:
501,176,34252,1,0,0:0:0:0:
298,227,34440,2,0,P|258:221|219:212,1,80
163,124,34815,5,0,0:0:0:0:
98,263,35002,1,0,0:0:0:0:
15,104,35190,2,0,P|24:143|30:183,1,80
19,331,35565,1,0,0:0:0:0:
98,263,35753,1,0,0:0:0:0:
228,366,35940,2,0,P|189:357|150:352,1,80
98,263,36315,5,0,0:0:0:0:
282,200,36502,1,0,0:0:0:0:
345,384,36690,1,0,0:0:0:0:
192,180,36877,2,0,P|210:145|240:119,1,80
369,292,37252,2,0,P|296:274|282:200,1,160
380,195,37815,6,0,P|443:193|506:179,1,128
493,90,38377,2,0,P|430:103|366:106,1,128
418,14,38940,1,0,0:0:0:0:
418,14,39315,6,0,P|449:12|481:5,2,64
329,4,39877,2,0,P|268:17|240:72,1,128
315,155,40440,1,0,0:0:0:0:
315,155,40815,6,0,P|328:217|331:281,1,128
276,352,41377,2,0,P|213:365|149:368,1,128
72,295,41940,1,0,0:0:0:0:
72,295,42315,6,0,P|65:326|63:358,2,64
157,269,42877,2,0,P|208:236|209:174,1,128
118,107,43440,1,0,0:0:0:0:
461,15,43815,5,0,0:0:0:0:
461,15,44002,1,0,0:0:0:0:
371,82,44190,2,0,P|325:71|291:66,1,80
118,107,44565,5,0,0:0:0:0:
118,107,44752,1,0,0:0:0:0:
208,174,44940,2,0,P|253:163|288:158,1,80
475,219,45315,5,0,0:0:0:0:
475,219,45502,1,0,0:0:0:0:
300,283,45690,1,0,0:0:0:0:
379,115,45877,1,0,0:0:0:0:
377,347,46065,6,0,P|344:370|307:383,1,80
316,184,46440,2,0,P|352:200|382:226,1,80
206,319,46815,6,0,P|201:279|209:240,1,80
385,147,47190,2,0,P|352:170|315:183,1,80
213,120,47565,5,0,0:0:0:0:
213,120,47752,1,0,0:0:0:0:
117,179,47940,2,0,L|30:163,1,80
117,61,48315,5,0,0:0:0:0:
117,61,48502,1,0,0:0:0:0:
213,120,48690,2,0,L|299:104,1,80
481,156,49065,6,0,P|507:128|513:89,1,80
407,235,49440,2,0,P|380:206|374:167,1,80
483,303,49815,5,0,0:0:0:0:
270,351,50002,1,0,0:0:0:0:
270,351,50377,5,0,0:0:0:0:
398,149,50564,1,0,0:0:0:0:
398,149,50940,5,0,0:0:0:0:
132,88,51127,1,0,0:0:0:0:
132,88,51502,5,0,0:0:0:0:
199,156,51690,1,0,0:0:0:0:
225,63,51877,1,0,0:0:0:0:
105,180,52065,5,0,0:0:0:0:
293,132,52252,1,0,0:0:0:0:
63,19,52440,1,0,0:0:0:0:
173,249,52627,1,0,0:0:0:0:
319,10,52815,5,0,0:0:0:0:
370,212,53002,1,0,0:0:0:0:
192,106,53190,1,0,0:0:0:0:
437,60,53377,1,0,0:0:0:0:
437,60,53752,1,0,0:0:0:0:
496,180,53940,1,0,0:0:0:0:
293,257,54127,6,0,P|293:166|373:122,1,191.999994140625
496,180,54690,1,0,0:0:0:0:
344,352,54877,2,0,P|256:346|186:259,1,191.999994140625
224,111,55440,1,0,0:0:0:0:
224,111,55815,5,0,0:0:0:0:
46,217,56002,1,0,0:0:0:0:
247,268,56190,1,0,0:0:0:0:
135,76,56377,2,0,P|90:93|56:127,1,95.9999970703126
76,309,56752,1,0,0:0:0:0:
154,183,56940,1,0,0:0:0:0:
230,368,57127,6,0,P|325:359|417:333,1,191.999994140625
512,141,57690,2,0,P|507:188|495:235,1,95.9999970703126
417,333,58065,1,0,0:0:0:0:
306,273,58252,1,0,0:0:0:0:
366,163,58440,1,0,0:0:0:0:
417,333,58627,1,0,0:0:0:0:
196,214,58815,5,0,0:0:0:0:
322,63,59002,1,0,0:0:0:0:
391,248,59189,1,0,0:0:0:0:
215,101,59377,1,0,0:0:0:0:
215,101,59752,6,0,P|169:114|121:120,1,95.9999970703126
0,215,60127,2,0,P|91:204|148:276,1,191.999994140625
231,371,60690,1,0,0:0:0:0:
319,282,60877,2,0,P|413:266|509:236,1,191.999994140625
296,188,61440,2,0,P|304:235|319:283,1,95.9999970703126
426,167,61815,5,0,0:0:0:0:
232,82,62002,1,0,0:0:0:0:
430,5,62190,1,0,0:0:0:0:
296,188,62377,2,0,P|250:202|202:210,1,95.9999970703126
87,162,62752,1,0,0:0:0:0:
232,82,62940,1,0,0:0:0:0:
64,257,63127,6,0,P|-5:198|5:106,1,191.999994140625
183,164,63690,2,0,P|197:210|205:258,1,95.9999970703126
86,351,64065,2,0,P|72:305|64:257,1,95.9999970703126
270,116,64440,2,0,P|284:162|292:210,1,95.9999970703126
258,383,64815,5,0,0:0:0:0:
64,257,65002,1,0,0:0:0:0:
291,209,65190,1,0,0:0:0:0:
85,351,65377,2,0,P|38:348|-3:325,1,95.9999970703126
134,190,65752,2,0,P|155:232|156:280,1,95.9999970703126
12,173,66127,6,0,P|65:95|155:66,1,191.999994140625
249,148,66690,1,0,0:0:0:0:
361,93,66877,2,0,P|449:103|488:10,1,191.999994140625
258,24,67440,2,0,P|238:83|239:125,1,95.9999970703126
330,281,67815,5,0,0:0:0:0:
512,217,68002,1,0,0:0:0:0:
339,134,68190,1,0,0:0:0:0:
406,352,68377,2,0,P|452:340|492:313,1,95.9999970703126
480,68,68752,5,0,0:0:0:0:
273,201,68940,1,0,0:0:0:0:
492,313,69127,1,0,0:0:0:0:
376,134,69315,5,0,0:0:0:0:
382,257,69503,1,0,0:0:0:0:
485,190,69690,1,0,0:0:0:0:
266,78,69877,2,0,P|219:85|174:102,1,95.9999970703126
112,210,70252,1,0,0:0:0:0:
0,28,70440,2,0,P|15:73|23:121,1,95.9999970703126
14,299,70815,5,0,0:0:0:0:
234,220,71002,1,0,0:0:0:0:
23,121,71190,1,0,0:0:0:0:
129,352,71377,2,0,P|173:369|221:376,1,95.9999970703126
398,260,71752,2,0,P|353:277|306:285,1,95.9999970703126
208,94,72127,6,0,L|224:0,1,95.9999970703126
329,125,72502,1,0,0:0:0:0:
120,183,72690,1,0,0:0:0:0:
338,32,72877,2,0,P|412:86|405:178,1,191.999994140625
301,250,73440,2,0,L|206:233,1,95.9999970703126
43,102,73815,6,0,P|26:147|19:195,2,95.9999970703126
172,92,74377,2,0,P|164:44|147:0,2,95.9999970703126
129,210,74940,1,0,0:0:0:0:
272,60,75127,1,0,0:0:0:0:
287,48,75221,1,0,0:0:0:0:
303,38,75315,6,0,P|348:23|396:20,1,95.9999970703126
424,150,75690,2,0,P|378:164|330:167,1,95.9999970703126
495,21,76065,6,0,P|509:66|512:114,1,95.9999970703126
263,233,76440,2,0,P|248:187|245:139,1,95.9999970703126
433,249,76815,6,0,P|393:257|357:273,1,80
237,343,77190,2,0,P|276:352|313:368,1,80
357,273,77565,1,0,0:0:0:0:
357,273,77752,1,0,0:0:0:0:
512,384,77940,2,0,L|498:305,1,80
407,166,78315,6,0,P|367:157|331:141,1,80
195,80,78690,2,0,P|231:64|271:56,1,80
331,141,79065,1,0,0:0:0:0:
331,141,79252,1,0,0:0:0:0:
162,236,79440,2,0,L|148:157,1,80
115,14,79815,5,0,0:0:0:0:
39,139,80002,1,0,0:0:0:0:
14,38,80190,1,0,0:0:0:0:
139,114,80377,2,0,P|193:125|226:125,1,80
301,63,80752,1,0,0:0:0:0:
426,139,80940,5,0,0:0:0:0:
301,63,81127,1,0,0:0:0:0:
402,38,81315,1,0,0:0:0:0:
326,163,81502,2,0,P|315:217|315:250,1,80
377,324,81877,1,0,0:0:0:0:
496,221,82065,6,0,L|408:228,1,80
176,306,82440,2,0,L|263:313,1,80
132,210,82815,5,0,0:0:0:0:
82,361,83002,1,0,0:0:0:0:
248,205,83190,2,0,P|238:166|219:131,1,80
53,197,83565,2,0,P|91:207|131:209,1,80
157,32,83940,2,0,P|128:59|107:93,1,80
132,210,84315,5,0,0:0:0:0:
2,82,84502,1,0,0:0:0:0:
192,129,84690,2,0,P|230:119|265:100,1,80
401,212,85065,2,0,P|363:202|328:184,1,80
305,3,85440,1,0,0:0:0:0:
192,129,85627,1,0,0:0:0:0:
373,110,85815,5,0,0:0:0:0:
156,26,86002,1,0,0:0:0:0:
232,246,86190,1,0,0:0:0:0:
388,9,86377,2,0,P|448:41|471:134,1,160
416,212,86940,1,0,0:0:0:0:
256,80,87127,1,0,0:0:0:0:
256,192,87221,12,0,88815,0:0:0:0:
