osu file format v14

[General]
AudioFilename: shigatsu.mp3
AudioLeadIn: 0
PreviewTime: 52928
Countdown: 0
SampleSet: Normal
StackLeniency: 0.7
Mode: 1
LetterboxInBreaks: 0
WidescreenStoryboard: 0

[Editor]
DistanceSpacing: 1
BeatDivisor: 4
GridSize: 32
TimelineZoom: 1

[Metadata]
Title:Hikaru nara -TV size-
TitleUnicode:光るなら -TV size-
Artist:Goose house
ArtistUnicode:Goose house
Creator:Makar
Version:Futsuu
Source:四月は君の嘘
Tags:Shigatsu wa Kimi no Uso Your Lie in April Opening Makar8000
BeatmapID:519896
BeatmapSetID:222392

[Difficulty]
HPDrainRate:9
CircleSize:5
OverallDifficulty:4
ApproachRate:5
SliderMultiplier:1.2
SliderTickRate:1

[Events]
//Background and Video events
0,0,"bg.jpg",0,60
//Break Periods
//Storyboard Layer 0 (Background)
//Storyboard Layer 1 (Fail)
//Storyboard Layer 2 (Pass)
//Storyboard Layer 3 (Foreground)
//Storyboard Sound Samples

[TimingPoints]
428,375,4,1,0,80,1,0
52928,-100,4,1,0,80,0,1
76928,-100,4,1,0,80,0,0
87428,-100,4,1,0,40,0,0

[HitObjects]
256,192,3428,5,8,0:0:0:0:
256,192,3615,1,0,0:0:0:0:
256,192,3803,1,8,0:0:0:0:
256,192,4178,1,0,0:0:0:0:
256,192,4553,5,8,0:0:0:0:
256,96,4928,1,4,0:0:0:0:
256,192,5678,1,0,0:0:0:0:
256,192,5865,1,0,0:0:0:0:
256,192,6053,1,8,0:0:0:0:
256,192,6428,1,0,0:0:0:0:
256,192,6803,1,8,0:0:0:0:
256,192,7178,1,0,0:0:0:0:
256,192,7553,1,8,0:0:0:0:
256,192,7928,1,0,0:0:0:0:
256,192,8678,1,0,0:0:0:0:
256,192,8865,1,0,0:0:0:0:
256,192,9053,1,8,0:0:0:0:
256,192,9428,1,0,0:0:0:0:
256,192,9803,1,8,0:0:0:0:
256,192,10178,1,8,0:0:0:0:
256,192,10553,1,8,0:0:0:0:
256,192,10928,1,0,0:0:0:0:
256,192,11115,1,0,0:0:0:0:
256,192,11490,1,0,0:0:0:0:
256,192,11678,1,0,0:0:0:0:
256,192,12053,1,0,0:0:0:0:
256,192,12240,1,0,0:0:0:0:
256,96,13928,1,4,0:0:0:0:
256,192,14303,1,8,0:0:0:0:
256,192,14678,1,0,0:0:0:0:
256,192,14865,1,0,0:0:0:0:
256,192,15053,1,8,0:0:0:0:
256,192,15428,1,0,0:0:0:0:
256,192,15803,1,8,0:0:0:0:
256,192,16178,1,0,0:0:0:0:
256,192,16928,1,0,0:0:0:0:
256,192,17303,1,8,0:0:0:0:
256,192,17678,1,0,0:0:0:0:
256,192,17865,1,0,0:0:0:0:
256,192,18053,1,8,0:0:0:0:
256,192,18428,1,0,0:0:0:0:
256,192,18803,1,8,0:0:0:0:
256,192,18990,1,0,0:0:0:0:
256,192,19365,1,0,0:0:0:0:
256,192,19553,1,8,0:0:0:0:
256,192,19928,1,0,0:0:0:0:
256,192,20678,1,0,0:0:0:0:
256,192,20865,1,0,0:0:0:0:
256,192,21053,1,8,0:0:0:0:
256,192,21428,1,0,0:0:0:0:
256,192,21803,1,0,0:0:0:0:
256,192,22178,1,8,0:0:0:0:
256,192,22553,1,8,0:0:0:0:
256,192,22928,1,0,0:0:0:0:
256,192,23303,1,8,0:0:0:0:
256,192,23865,1,0,0:0:0:0:
256,192,24053,1,8,0:0:0:0:
256,192,24428,1,0,0:0:0:0:
256,192,24803,1,8,0:0:0:0:
256,192,24990,1,0,0:0:0:0:
256,192,25365,1,0,0:0:0:0:
256,192,25553,1,8,0:0:0:0:
256,192,25928,1,0,0:0:0:0:
256,192,26303,1,8,0:0:0:0:
256,192,26678,1,0,0:0:0:0:
256,192,26865,1,0,0:0:0:0:
256,192,27053,1,8,0:0:0:0:
256,192,27428,1,0,0:0:0:0:
256,192,27803,1,8,0:0:0:0:
256,192,28178,1,0,0:0:0:0:
256,192,28928,1,0,0:0:0:0:
256,192,29303,1,8,0:0:0:0:
256,192,29678,1,0,0:0:0:0:
256,192,29865,1,0,0:0:0:0:
256,192,30053,1,8,0:0:0:0:
256,192,30428,1,0,0:0:0:0:
256,192,30803,1,8,0:0:0:0:
256,192,30990,1,0,0:0:0:0:
256,192,31365,1,0,0:0:0:0:
256,192,31553,1,8,0:0:0:0:
256,192,31928,1,0,0:0:0:0:
256,192,32678,1,0,0:0:0:0:
256,192,32865,1,0,0:0:0:0:
256,192,33053,1,8,0:0:0:0:
256,192,33428,1,0,0:0:0:0:
256,192,33803,1,0,0:0:0:0:
256,192,34178,1,8,0:0:0:0:
256,192,34553,1,8,0:0:0:0:
256,192,34928,1,0,0:0:0:0:
256,192,35115,1,8,0:0:0:0:
256,192,35303,1,0,0:0:0:0:
256,192,35678,1,0,0:0:0:0:
256,192,36053,1,8,0:0:0:0:
256,192,36428,1,0,0:0:0:0:
256,192,36615,1,8,0:0:0:0:
256,192,36803,1,8,0:0:0:0:
256,192,37178,1,8,0:0:0:0:
256,192,37553,1,8,0:0:0:0:
256,96,37928,1,4,0:0:0:0:
256,192,38490,1,0,0:0:0:0:
256,192,38678,1,0,0:0:0:0:
256,192,39053,1,8,0:0:0:0:
256,192,39428,1,0,0:0:0:0:
256,192,39990,1,0,0:0:0:0:
256,192,40365,1,0,0:0:0:0:
256,192,40553,1,8,0:0:0:0:
256,192,40928,1,0,0:0:0:0:
256,192,41490,1,0,0:0:0:0:
256,192,41678,1,0,0:0:0:0:
256,192,42053,1,8,0:0:0:0:
256,192,42428,1,0,0:0:0:0:
256,192,42990,1,0,0:0:0:0:
256,192,43365,1,0,0:0:0:0:
256,192,43553,1,8,0:0:0:0:
256,192,43740,1,0,0:0:0:0:
256,192,43928,1,0,0:0:0:0:
256,192,44303,1,8,0:0:0:0:
256,192,44678,1,0,0:0:0:0:
256,192,45053,1,8,0:0:0:0:
256,192,45428,1,0,0:0:0:0:
256,192,45615,1,0,0:0:0:0:
256,192,45803,1,8,0:0:0:0:
256,192,46178,1,0,0:0:0:0:
256,192,46553,1,8,0:0:0:0:
256,192,46740,1,8,0:0:0:0:
256,192,46928,1,0,0:0:0:0:
256,192,47303,1,8,0:0:0:0:
256,192,47678,1,8,0:0:0:0:
256,192,48053,1,8,0:0:0:0:
256,192,48428,1,0,0:0:0:0:
256,192,48803,1,8,0:0:0:0:
256,192,49178,1,8,0:0:0:0:
256,192,49553,1,8,0:0:0:0:
256,192,49928,1,0,0:0:0:0:
256,192,50115,1,0,0:0:0:0:
256,192,50490,1,0,0:0:0:0:
256,192,50678,1,0,0:0:0:0:
256,192,51053,1,0,0:0:0:0:
256,192,51240,1,0,0:0:0:0:
256,192,51803,1,8,0:0:0:0:
256,192,52178,1,8,0:0:0:0:
256,192,52553,1,8,0:0:0:0:
256,96,52928,1,4,0:0:0:0:
256,192,53303,1,8,0:0:0:0:
256,192,53490,1,0,0:0:0:0:
256,192,53865,1,0,0:0:0:0:
256,192,54053,1,8,0:0:0:0:
256,192,54428,1,0,0:0:0:0:
256,192,54615,1,0,0:0:0:0:
256,192,54803,1,8,0:0:0:0:
256,192,55178,1,0,0:0:0:0:
256,192,55553,1,8,0:0:0:0:
256,192,55928,1,0,0:0:0:0:
256,192,56303,1,8,0:0:0:0:
256,192,56490,1,0,0:0:0:0:
256,192,56865,1,0,0:0:0:0:
256,192,57053,1,8,0:0:0:0:
256,192,57428,1,0,0:0:0:0:
256,192,57803,1,8,0:0:0:0:
256,192,58178,1,8,0:0:0:0:
256,192,58365,1,0,0:0:0:0:
256,192,58553,1,8,0:0:0:0:
256,192,58928,1,0,0:0:0:0:
256,192,59303,1,8,0:0:0:0:
256,192,59490,1,0,0:0:0:0:
256,192,59865,1,0,0:0:0:0:
256,192,60053,1,8,0:0:0:0:
256,192,60428,1,0,0:0:0:0:
256,192,60803,1,8,0:0:0:0:
256,192,61178,1,0,0:0:0:0:
256,192,61365,1,0,0:0:0:0:
256,192,61553,1,8,0:0:0:0:
256,192,61928,1,0,0:0:0:0:
256,192,62303,1,8,0:0:0:0:
256,192,62490,1,0,0:0:0:0:
256,192,62865,1,0,0:0:0:0:
256,192,63053,1,8,0:0:0:0:
256,192,63428,1,0,0:0:0:0:
256,192,63803,1,8,0:0:0:0:
256,192,64178,1,8,0:0:0:0:
256,192,64553,1,8,0:0:0:0:
256,96,64928,1,4,0:0:0:0:
256,192,65303,1,8,0:0:0:0:
256,192,65490,1,0,0:0:0:0:
256,192,65865,1,0,0:0:0:0:
256,192,66053,1,8,0:0:0:0:
256,192,66428,1,0,0:0:0:0:
256,192,66615,1,0,0:0:0:0:
256,192,66803,1,8,0:0:0:0:
256,192,67178,1,0,0:0:0:0:
256,192,67553,1,8,0:0:0:0:
256,192,67928,1,0,0:0:0:0:
256,192,68303,1,8,0:0:0:0:
256,192,68490,1,0,0:0:0:0:
256,192,68865,1,0,0:0:0:0:
256,192,69053,1,8,0:0:0:0:
256,192,69428,1,0,0:0:0:0:
256,192,69803,1,8,0:0:0:0:
256,192,70178,1,8,0:0:0:0:
256,192,70365,1,0,0:0:0:0:
256,192,70553,1,8,0:0:0:0:
256,192,70928,1,0,0:0:0:0:
256,192,71303,1,8,0:0:0:0:
256,192,71490,1,0,0:0:0:0:
256,192,71865,1,0,0:0:0:0:
256,192,72053,1,8,0:0:0:0:
256,192,72428,1,0,0:0:0:0:
256,192,72803,1,8,0:0:0:0:
256,192,73178,1,0,0:0:0:0:
256,192,73365,1,0,0:0:0:0:
256,192,73553,1,8,0:0:0:0:
256,192,73928,1,0,0:0:0:0:
256,192,74678,1,0,0:0:0:0:
256,192,75053,1,8,0:0:0:0:
256,192,75428,1,8,0:0:0:0:
256,192,75615,1,0,0:0:0:0:
256,192,75803,1,8,0:0:0:0:
256,192,76178,1,0,0:0:0:0:
256,192,76365,1,0,0:0:0:0:
256,192,76553,1,8,0:0:0:0:
256,96,76928,1,4,0:0:0:0:
256,192,77303,1,8,0:0:0:0:
256,192,77678,1,0,0:0:0:0:
256,192,77865,1,0,0:0:0:0:
256,192,78053,1,8,0:0:0:0:
256,192,78428,5,0,0:0:0:0:
256,192,78803,1,0,0:0:0:0:
256,192,79178,1,8,0:0:0:0:
256,192,79553,1,8,0:0:0:0:
256,192,79928,1,0,0:0:0:0:
256,192,80303,1,8,0:0:0:0:
256,192,80490,1,0,0:0:0:0:
256,192,80865,1,0,0:0:0:0:
256,192,81053,1,8,0:0:0:0:
256,192,81428,1,0,0:0:0:0:
256,192,81803,1,8,0:0:0:0:
256,192,82178,1,0,0:0:0:0:
256,192,82365,1,0,0:0:0:0:
256,192,82553,1,8,0:0:0:0:
256,192,82928,1,0,0:0:0:0:
256,192,83303,1,8,0:0:0:0:
256,192,83678,1,0,0:0:0:0:
256,192,83865,1,0,0:0:0:0:
256,192,84053,1,8,0:0:0:0:
256,192,84428,5,0,0:0:0:0:
256,192,84803,1,8,0:0:0:0:
256,192,84990,1,0,0:0:0:0:
256,192,85365,1,0,0:0:0:0:
256,192,85553,1,8,0:0:0:0:
256,192,85928,1,0,0:0:0:0:
256,192,86303,5,8,0:0:0:0:
256,192,86490,1,0,0:0:0:0:
256,192,86865,1,0,0:0:0:0:
256,192,87053,1,8,0:0:0:0:
256,192,87240,1,0,0:0:0:0:
256,192,87428,12,0,88928,0:0:0:0:
