osu file format v14

[General]
AudioFilename: Hikaru Nara.mp3
AudioLeadIn: 0
PreviewTime: 120269
Countdown: 0
SampleSet: Normal
StackLeniency: 0.5
Mode: 0
LetterboxInBreaks: 0
WidescreenStoryboard: 1

[Editor]
Bookmarks: 181957
DistanceSpacing: 1
BeatDivisor: 4
GridSize: 32
TimelineZoom: 1.7

[Metadata]
Title:Hikaru nara
TitleUnicode:光るなら
Artist:Goose house
ArtistUnicode:Goose house
Creator:ProfessionalBox
Version:Easy
Source:Shigatsu wa Kimi no Uso
Tags:四月は君の嘘 your lie in april Milk Phrase #9 toybot frey mikii kanari
BeatmapID:974193
BeatmapSetID:440169

[Difficulty]
HPDrainRate:2
CircleSize:3.3
OverallDifficulty:2
ApproachRate:3
SliderMultiplier:0.8
SliderTickRate:1

[Events]
//Background and Video events
0,0,"BG.jpg",0,0
//Break Periods
2,81527,92007
2,170215,177575
//Storyboard Layer 0 (Background)
//Storyboard Layer 1 (Fail)
//Storyboard Layer 2 (Pass)
//Storyboard Layer 3 (Foreground)
//Storyboard Sound Samples

[TimingPoints]
515,375,4,2,1,30,1,0
515,-100,4,2,1,30,0,0
2577,-100,4,2,1,35,0,0
3327,-100,4,2,1,40,0,0
3515,-100,4,1,49,45,0,0
3890,-100,4,1,54,50,0,0
4171,-100,4,1,1,55,0,0
4265,-100,4,1,51,55,0,0
4640,-100,4,3,52,60,0,0
5015,-100,4,1,1,65,0,0
9515,-100,4,1,90,65,0,0
9890,-100,4,1,91,65,0,0
10265,-100,4,1,92,65,0,0
10640,-100,4,1,93,65,0,0
11015,-100,4,1,94,65,0,0
11202,-100,4,1,1,65,0,0
12515,-100,4,1,92,65,0,0
12702,-100,4,1,1,65,0,0
14015,-100,4,1,92,60,0,0
14202,-100,4,1,1,60,0,0
15327,-100,4,1,1,50,0,0
15702,-100,4,1,1,40,0,0
16077,-100,4,3,1,50,0,0
16265,-100,4,3,1,55,0,0
16640,-100,4,3,1,60,0,0
17015,-100,4,2,1,50,0,0
20015,-100,4,2,82,50,0,0
20390,-100,4,2,1,50,0,0
21515,-100,4,2,30,50,0,0
21890,-100,4,2,1,50,0,0
22077,-100,4,2,31,50,0,0
22452,-100,4,2,30,50,0,0
22827,-100,4,2,31,50,0,0
23015,-100,4,2,83,50,0,0
23390,-100,4,2,1,50,0,0
26390,-100,4,2,79,50,0,0
26577,-100,4,2,1,50,0,0
27327,-100,4,2,79,50,0,0
27515,-100,4,2,1,50,0,0
27702,-100,4,2,80,50,0,0
27890,-100,4,2,1,50,0,0
28077,-100,4,2,81,50,0,0
28452,-100,4,2,80,50,0,0
28640,-100,4,3,1,50,0,0
29015,-100,4,2,1,50,0,0
30515,-100,4,2,81,50,0,0
30890,-100,4,2,1,50,0,0
31077,-100,4,2,20,50,0,0
31265,-100,4,2,21,50,0,0
31452,-100,4,2,20,50,0,0
31640,-100,4,2,22,50,0,0
31827,-100,4,2,23,50,0,0
32015,-100,4,2,1,50,0,0
33327,-100,4,2,24,50,0,0
33702,-100,4,2,1,50,0,0
34640,-100,4,3,1,50,0,0
35015,-100,4,2,80,50,0,0
35390,-100,4,2,1,50,0,0
36515,-100,4,2,82,50,0,0
36890,-100,4,2,1,50,0,0
38015,-100,4,2,81,50,0,0
38202,-100,4,1,1,50,0,0
39515,-100,4,1,82,50,0,0
39702,-100,4,1,1,50,0,0
40640,-100,4,3,1,55,0,0
41015,-100,4,2,51,50,0,0
41202,-100,4,2,50,50,0,0
41577,-100,4,2,51,50,0,0
42515,-100,4,2,50,50,0,0
42702,-100,4,2,51,50,0,0
42890,-100,4,2,55,50,0,0
43077,-100,4,2,56,50,0,0
43640,-100,4,2,1,50,0,0
44202,-100,4,2,57,50,0,0
46077,-100,4,2,58,50,0,0
46640,-100,4,3,57,55,0,0
47015,-100,4,3,2,55,0,0
50015,-100,4,1,80,55,0,0
50390,-100,4,1,1,55,0,0
54327,-100,4,1,1,60,0,0
54702,-100,4,2,40,60,0,0
54890,-100,4,2,41,60,0,0
55077,-100,4,2,42,60,0,0
55265,-100,4,2,57,60,0,0
55452,-100,4,2,59,60,0,0
55640,-100,4,3,56,60,0,0
55827,-100,4,3,60,60,0,0
56015,-100,4,1,1,60,0,1
60702,-100,4,1,51,65,0,1
60890,-100,4,1,54,65,0,1
61265,-100,4,1,51,65,0,1
61452,-100,4,1,54,65,0,1
61640,-100,4,1,50,65,0,1
61827,-100,4,1,51,65,0,1
62015,-100,4,1,23,65,0,1
62202,-100,4,1,1,65,0,1
63327,-100,4,1,24,65,0,1
63702,-100,4,1,1,65,0,1
65015,-100,4,1,90,65,0,1
65577,-100,4,1,91,65,0,1
66327,-100,4,1,94,65,0,1
66702,-100,4,1,1,65,0,1
67640,-100,4,3,1,65,0,1
68015,-100,4,1,1,65,0,1
72702,-100,4,1,54,65,0,1
72890,-100,4,1,51,65,0,1
73077,-100,4,1,52,65,0,1
73452,-100,4,1,51,65,0,1
73640,-100,4,3,54,65,0,1
73827,-100,4,3,51,65,0,1
74015,-100,4,1,1,65,0,1
77015,-100,4,3,1,55,0,1
77952,-100,4,3,2,55,0,1
78515,-100,4,2,53,60,0,0
78702,-100,4,2,55,60,0,0
79077,-100,4,2,52,60,0,0
79265,-100,4,2,53,60,0,0
79640,-100,4,2,55,60,0,0
79827,-100,4,2,56,60,0,0
80577,-100,4,3,1,50,0,0
81327,-100,4,2,1,50,0,0
86015,-100,4,2,33,50,0,0
86390,-100,4,2,32,50,0,0
86577,-100,4,2,34,50,0,0
86952,-100,4,2,30,50,0,0
87327,-100,4,2,31,50,0,0
87515,-100,4,2,1,50,0,0
90890,-100,4,2,79,50,0,0
91640,-100,4,2,94,50,0,0
91827,-100,4,2,79,50,0,0
92202,-100,4,2,80,50,0,0
92577,-100,4,2,81,50,0,0
92952,-100,4,2,80,50,0,0
93140,-100,4,3,1,50,0,0
93515,-100,4,2,94,50,0,0
93890,-100,4,2,1,50,0,0
98577,-100,4,2,92,50,0,0
98952,-100,4,2,93,50,0,0
99140,-100,4,2,94,50,0,0
99327,-100,4,2,1,50,0,0
99515,-100,4,2,80,50,0,0
101015,-100,4,2,82,50,0,0
101390,-100,4,2,1,50,0,0
102515,-100,4,2,81,50,0,0
102702,-100,4,1,1,50,0,0
104015,-100,4,1,82,50,0,0
104202,-100,4,1,1,50,0,0
105140,-100,4,3,1,50,0,0
105515,-100,4,2,51,50,0,0
105890,-100,4,2,55,50,0,0
106077,-100,4,2,56,50,0,0
107202,-100,4,2,51,50,0,0
107390,-100,4,2,56,50,0,0
107577,-100,4,2,61,50,0,0
107952,-100,4,2,59,50,0,0
108140,-100,4,2,1,50,0,0
108515,-100,4,2,56,50,0,0
109265,-100,4,2,60,50,0,0
109452,-100,4,2,55,50,0,0
109640,-100,4,2,52,50,0,0
109827,-100,4,2,55,50,0,0
110015,-100,4,2,54,50,0,0
110390,-100,4,2,55,50,0,0
110577,-100,4,2,58,50,0,0
111140,-100,4,3,50,55,0,0
111515,-100,4,3,2,55,0,0
114515,-100,4,1,1,55,0,0
118827,-100,4,1,1,60,0,0
119202,-100,4,2,40,60,0,0
119390,-100,4,2,41,60,0,0
119577,-100,4,2,42,60,0,0
119765,-100,4,3,57,60,0,0
119952,-100,4,3,59,60,0,0
120140,-100,4,3,56,60,0,0
120327,-100,4,3,60,60,0,0
120515,-100,4,1,1,65,0,1
125202,-100,4,1,51,65,0,1
125390,-100,4,1,54,65,0,1
125765,-100,4,1,51,65,0,1
125952,-100,4,1,54,65,0,1
126140,-100,4,1,50,65,0,1
126327,-100,4,1,51,65,0,1
126515,-100,4,1,23,65,0,1
126702,-100,4,1,1,65,0,1
127827,-100,4,1,24,65,0,1
128202,-100,4,1,1,65,0,1
129515,-100,4,1,90,65,0,1
129702,-100,4,1,1,65,0,1
130077,-100,4,1,91,65,0,1
130265,-100,4,1,1,65,0,1
130827,-100,4,1,94,65,0,1
131202,-100,4,1,1,65,0,1
137015,-100,4,1,51,65,0,1
137202,-100,4,1,54,65,0,1
137390,-100,4,1,51,65,0,1
137577,-100,4,1,52,65,0,1
137952,-100,4,1,51,65,0,1
138140,-100,4,1,54,65,0,1
138327,-100,4,1,51,65,0,1
138515,-100,4,1,23,65,0,1
138702,-100,4,1,1,65,0,1
139827,-100,4,1,24,65,0,1
140202,-100,4,1,1,65,0,1
141515,-100,4,1,90,65,0,1
141890,-100,4,1,1,65,0,1
142077,-100,4,1,91,65,0,1
142452,-100,4,1,1,65,0,1
143015,-100,4,1,1,65,0,0
146015,-100,4,3,1,50,0,0
149015,-100,4,2,1,50,0,0
152015,-100,4,3,1,50,0,0
155015,-100,4,1,1,60,0,0
155765,-100,4,1,1,50,0,0
156890,-100,4,1,1,60,0,0
158015,-100,4,1,1,50,0,0
159515,-100,4,1,92,50,0,0
159890,-100,4,1,93,50,0,0
160640,-100,4,1,95,50,0,0
161015,-100,4,1,96,50,0,0
161202,-100,4,1,1,50,0,0
162515,-100,4,1,92,50,0,0
162702,-100,4,1,1,50,0,0
164015,-100,4,1,1,60,0,0
165515,-100,4,1,1,65,0,0
168421,-100,4,1,1,50,0,0
170015,-100,4,2,56,30,0,0
179015,-100,4,3,1,60,0,0
182015,-100,4,1,1,65,0,1
186702,-100,4,1,51,65,0,1
186890,-100,4,1,54,65,0,1
187265,-100,4,1,51,65,0,1
187452,-100,4,1,54,65,0,1
187640,-100,4,3,50,65,0,1
187827,-100,4,3,51,65,0,1
188015,-100,4,1,1,65,0,1
191015,-100,4,1,90,65,0,1
191390,-100,4,1,1,65,0,1
191577,-100,4,1,91,65,0,1
192140,-100,4,1,1,65,0,1
192327,-100,4,1,94,65,0,1
192702,-100,4,1,1,65,0,1
193640,-100,4,3,1,65,0,1
194015,-100,4,1,1,65,0,1
198702,-100,4,1,54,65,0,1
198890,-100,4,1,51,65,0,1
199077,-100,4,1,52,65,0,1
199452,-100,4,1,51,65,0,1
199640,-100,4,3,54,65,0,1
199827,-100,4,3,51,65,0,1
200015,-100,4,1,90,65,0,1
200202,-100,4,1,1,65,0,1
201515,-100,4,1,91,65,0,1
201702,-100,4,1,1,65,0,1
202077,-100,4,1,92,65,0,1
202452,-100,4,1,1,65,0,1
203015,-100,4,3,1,50,0,0
205827,-100,4,1,1,50,0,0
206390,-100,4,1,1,55,0,0
206765,-100,4,1,1,60,0,0
207140,-100,4,3,1,65,0,0
207515,-100,4,1,56,65,0,0
207890,-100,4,1,48,65,0,0
208265,-100,4,1,56,65,0,0
208640,-100,4,1,48,65,0,0
209015,-100,4,1,56,65,0,0
209390,-100,4,1,48,65,0,0
209765,-100,4,1,49,65,0,0
210140,-100,4,1,55,65,0,0
210702,-100,4,1,49,55,0,0
210890,-100,4,1,55,55,0,0
211077,-100,4,1,49,55,0,0
211640,-100,4,1,55,55,0,0
211827,-100,4,1,49,55,0,0
212015,-100,4,1,55,55,0,0
212202,-100,4,1,49,55,0,0
212390,-100,4,1,1,55,0,0
212765,-100,4,1,51,55,0,0
213140,-100,4,1,42,55,0,0
213515,-100,4,1,32,55,0,0
213702,-100,4,1,1,55,0,0
214077,-100,4,1,34,55,0,0
214265,-100,4,1,1,55,0,0
214827,-100,4,1,31,55,0,0
215015,-100,4,1,1,55,0,0
217827,-100,4,1,1,65,0,0
219515,-100,4,1,92,65,0,0
219890,-100,4,1,93,65,0,0
220265,-100,4,1,92,65,0,0
220640,-100,4,1,93,65,0,0
221015,-100,4,1,92,65,0,0
221390,-100,4,1,93,65,0,0
221765,-100,4,1,94,65,0,0
222140,-100,4,1,79,65,0,0
222702,-100,4,1,94,65,0,0
222890,-100,4,1,79,65,0,0
223077,-100,4,1,94,65,0,0
223640,-100,4,1,79,65,0,0
223827,-100,4,1,94,65,0,0
224015,-100,4,1,79,65,0,0
224202,-100,4,1,94,65,0,0
224390,-100,4,1,1,65,0,0
224577,-100,4,1,55,65,0,0
224765,-100,4,1,1,65,0,0
225140,-100,4,1,48,65,0,0
225327,-100,4,1,1,65,0,0
225515,-100,4,1,92,65,0,0
225702,-100,4,1,1,65,0,0
228515,-100,4,1,90,65,0,0
228702,-100,4,1,1,65,0,0
229077,-100,4,1,91,65,0,0
229452,-100,4,1,1,65,0,0
229827,-100,4,1,94,65,0,0
230202,-100,4,1,1,65,0,0
231140,-100,4,3,1,65,0,0
231515,-100,4,1,1,55,0,0
233015,-100,4,1,1,50,0,0
236390,-100,4,1,91,50,0,0
236765,-100,4,1,92,50,0,0
237140,-100,4,1,93,50,0,0
237515,-100,4,1,94,50,0,0
237702,-100,4,1,1,50,0,0
239015,-100,4,1,92,50,0,0
239202,-100,4,1,1,50,0,0
244265,-100,4,1,1,45,0,0
245015,-100,4,1,1,40,0,0
245765,-100,4,1,1,35,0,0
246515,-100,4,1,1,30,0,0
247265,-100,4,1,1,25,0,0
247640,-100,4,1,1,15,0,0
248015,-100,4,2,1,5,0,0

[Colours]
Combo1 : 255,253,179
Combo2 : 166,255,255
Combo3 : 151,255,151
Combo4 : 255,164,255
Combo5 : 255,194,166
Combo6 : 253,100,104

[HitObjects]
43,240,515,6,0,P|30:292|34:362,2,120,0|0|0,0:0|0:0|0:0,0:0:0:0:
78,222,1827,2,0,B|137:207|137:207|203:232,1,120,0|0,0:0|0:0,0:0:0:0:
228,245,2577,2,0,P|284:266|361:237,1,120,0|0,0:0|0:0,0:0:0:0:
408,209,3515,6,0,P|420:253|411:291,2,80,4|6|2,0:2|0:2|0:2,0:0:0:0:
355,148,4640,1,10,0:2:0:0:
388,72,5015,6,0,P|298:113|234:74,1,160,4|0,0:2|0:0,0:0:0:0:
197,28,6140,1,8,0:0:0:0:
121,55,6515,2,0,P|108:102|106:164,1,80,0|8,0:0|0:0,0:0:0:0:
160,190,7265,2,0,P|171:239|175:299,1,80,0|8,0:0|0:0,0:0:0:0:
136,339,8015,6,0,L|-5:323,2,120,2|2|8,0:2|0:2|0:0,0:0:0:0:
206,375,9515,1,2,0:2:0:0:
327,270,10265,2,0,P|381:251|413:260,1,80,2|10,0:2|0:2,0:0:0:0:
474,289,11015,6,0,L|470:378,2,80,2|8|0,0:2|0:0|0:0,0:0:0:0:
479,209,12140,1,8,0:0:0:0:
422,152,12515,2,0,P|404:96|408:33,1,120,2|2,0:2|0:2,0:0:0:0:
310,107,13640,1,8,0:0:0:0:
241,65,14015,6,0,B|192:53|192:53|141:69|141:69|79:52,1,160,10|2,0:2|0:2,0:0:0:0:
78,173,15327,2,0,B|195:138|195:138|292:171,1,200,4|8,0:2|0:1,0:0:0:0:
339,200,16640,1,0,0:2:0:0:
404,246,17015,6,0,P|367:276|260:222,1,160,4|0,0:0|0:0,0:0:0:0:
268,163,18140,1,8,0:0:0:0:
333,116,18515,2,0,L|422:110,2,80,0|8|0,0:0|0:0|0:0,0:0:0:0:
268,163,19640,1,8,0:0:0:0:
201,118,20015,6,0,P|116:135|68:226,1,160,2|0,0:0|0:0,0:0:0:0:
69,270,21140,1,8,0:0:0:0:
127,324,21515,2,0,L|265:314,2,120,2|2|8,0:0|0:0|0:0,0:0:0:0:
62,370,23015,6,0,P|48:330|56:281,1,80,2|8,0:0|0:0,0:0:0:0:
115,244,23765,2,0,L|196:239,1,80,0|8,0:0|0:0,0:0:0:0:
269,266,24515,2,0,B|375:283|375:283|448:257,1,160
485,213,25640,1,8,0:0:0:0:
507,136,26015,6,0,P|507:99|492:52,2,80,0|10|0,0:0|0:2|0:0,0:0:0:0:
485,213,27140,1,8,0:0:0:0:
418,168,27515,2,0,B|301:124|302:216|178:173,1,240,0|8,0:0|0:2,0:0:0:0:
131,115,29015,6,0,P|107:154|108:199,1,80,0|8,0:0|0:0,0:0:0:0:
124,265,29765,1,0,0:0:0:0:
202,279,30140,1,8,0:0:0:0:
280,264,30515,2,0,P|297:313|297:346,2,80,2|8|0,0:0|0:0|0:0,0:0:0:0:
228,198,31640,1,0,0:0:0:0:
202,279,32015,6,0,P|115:290|73:216,1,160
151,215,33140,1,10,0:0:0:0:
228,198,33515,2,0,L|317:202,1,80,0|8,0:0|0:0,0:0:0:0:
355,265,34265,2,0,L|434:261,1,80,0|8,0:0|0:2,0:0:0:0:
492,205,35015,6,0,P|500:136|486:34,2,160,2|0|2,0:0|0:0|0:0,0:0:0:0:
350,280,37265,2,0,L|254:274,1,80,0|8,0:0|0:0,0:0:0:0:
210,221,38015,6,0,P|128:238|211:316,1,240,2|8,0:2|0:0,0:0:0:0:
270,275,39515,2,0,P|351:292|269:370,1,240,2|0,0:2|0:0,0:0:0:0:
211,330,41015,6,0,B|168:321|168:321|136:333|136:333|78:323,1,120,4|2,0:0|0:0,0:0:0:0:
47,215,42140,1,8,0:0:0:0:
27,137,42515,2,0,P|88:145|125:197,1,120,2|2,0:0|0:0,0:0:0:0:
218,115,43640,1,8,0:0:0:0:
285,162,44015,6,0,B|333:174|333:174|428:151,1,120,0|2,0:0|0:0,0:0:0:0:
506,124,45140,1,8,0:0:0:0:
471,51,45515,2,0,P|417:19|344:51,2,120,0|2|10,0:0|0:0|0:2,0:0:0:0:
407,100,47015,6,0,P|370:112|320:101,1,80,0|2,0:0|0:0,0:0:0:0:
261,65,47765,2,0,P|221:58|184:70,1,80,0|2,0:0|0:0,0:0:0:0:
145,141,48515,2,0,L|154:231,1,80,0|2,0:0|0:0,0:0:0:0:
218,266,49265,2,0,L|209:356,1,80,0|2,0:0|0:0,0:0:0:0:
133,364,50015,6,0,P|61:351|157:223,1,320,2|0,0:2|0:0,0:0:0:0:
267,331,52265,1,0,0:0:0:0:
340,300,52640,1,8,0:0:0:0:
389,363,53015,6,0,P|417:322|375:227,1,160,8|2,0:0|0:2,0:0:0:0:
259,228,54327,2,0,B|186:247|135:189|135:189|97:268|158:335,1,280,4|2,0:2|0:0,0:0:0:0:
226,334,56015,6,0,P|278:329|366:311,2,120,6|0|8,0:2|0:0|0:0,0:0:0:0:
149,357,57515,2,0,L|51:345,1,80,0|8,0:0|0:0,0:0:0:0:
22,283,58265,2,0,P|9:229|13:182,1,80,0|8,0:0|0:0,0:0:0:0:
64,146,59015,6,0,P|120:135|180:189,2,120,0|0|8,0:0|0:0|0:0,0:0:0:0:
105,216,60515,1,0,0:0:0:0:
177,250,60890,1,10,0:2:0:0:
247,212,61265,2,0,P|259:177|242:108,1,80,2|10,0:2|0:2,0:0:0:0:
204,72,62015,6,0,P|146:47|68:48,2,120,2|0|8,0:2|0:0|0:0,0:0:0:0:
255,134,63515,2,0,P|293:134|352:125,1,80,0|8,0:0|0:0,0:0:0:0:
412,112,64265,1,0,0:0:0:0:
482,149,64640,1,8,0:0:0:0:
489,228,65015,6,0,L|476:364,1,120,2|2,0:2|0:2,0:0:0:0:
347,253,66327,2,0,B|286:238|286:238|227:258|227:258|164:193|70:235,1,280,6|8,0:2|0:1,0:0:0:0:
33,290,68015,6,0,P|7:246|44:155,2,120,6|0|8,0:2|0:0|0:0,0:0:0:0:
98,336,69515,2,0,P|134:326|189:328,1,80,0|8,0:0|0:0,0:0:0:0:
251,355,70265,2,0,P|301:364|340:356,1,80,0|8,0:0|0:0,0:0:0:0:
391,309,71015,6,0,B|434:290|434:290|514:308,2,120,0|0|8,0:0|0:0|0:0,0:0:0:0:
353,379,72515,2,0,B|322:365|300:327|302:288|324:256|344:241|344:241|364:197|334:158,1,240,0|10,0:0|0:2,0:0:0:0:
287,109,74015,6,0,P|224:99|164:117,2,120,0|0|8,0:0|0:0|0:0,0:0:0:0:
365,125,75515,2,0,L|459:111,1,80,0|8,0:0|0:0,0:0:0:0:
466,190,76265,2,0,L|363:205,1,80,0|8,0:0|0:0,0:0:0:0:
307,212,77015,5,10,0:2:0:0:
200,156,77577,2,0,P|174:215|171:280,1,120,10|0,0:2|0:0,0:0:0:0:
256,192,78515,12,4,81327,0:0:0:0:
15,128,93515,6,0,B|91:94|91:94|118:189|232:177,1,240,6|8,0:0|0:0,0:0:0:0:
283,151,95015,2,0,P|369:129|491:239,1,240,0|8,0:0|0:0,0:0:0:0:
500,291,96515,5,0,0:0:0:0:
424,316,96890,2,0,B|366:330|366:330|246:295,1,160,14|8,0:0|0:0,0:0:0:0:
209,248,98015,2,0,P|189:297|197:337,2,80,0|8|0,0:0|0:0|0:0,0:0:0:0:
282,216,99140,1,10,0:2:0:0:
356,245,99515,6,0,P|442:239|497:183,2,160,2|0|2,0:0|0:0|0:0,0:0:0:0:
281,214,101390,1,8,0:0:0:0:
228,154,101765,2,0,P|230:114|231:64,1,80,0|8,0:0|0:0,0:0:0:0:
162,32,102515,6,0,B|104:13|104:13|38:97|102:197,1,240,2|8,0:0|0:0,0:0:0:0:
168,204,104015,2,0,B|299:165|268:262|411:207,1,240,2|8,0:2|0:2,0:0:0:0:
466,165,105515,6,0,L|474:29,1,120,6|0,0:0|0:0,0:0:0:0:
354,24,106640,1,8,0:0:0:0:
297,80,107015,2,0,B|234:91|234:91|169:44,1,120,2|2,0:0|0:0,0:0:0:0:
72,89,108140,1,8,0:0:0:0:
129,144,108515,6,0,P|147:202|148:282,1,120,2|2,0:0|0:0,0:0:0:0:
68,349,109640,1,10,0:0:0:0:
145,369,110015,2,0,B|222:354|222:354|283:375,2,120,2|10|0,0:0|0:0|0:0,0:0:0:0:
68,347,111515,6,0,P|57:293|65:240,1,80,4|0,0:0|0:0,0:0:0:0:
84,192,112265,2,0,P|84:152|74:113,1,80,0|0,0:0|0:0,0:0:0:0:
48,37,113015,2,0,L|130:28,1,80
191,75,113765,2,0,L|270:83,1,80,0|0,0:0|0:0,0:0:0:0:
330,30,114515,6,0,B|354:70|354:70|341:128|341:128|422:116|486:169|497:244,1,320,4|0,0:2|0:0,0:0:0:0:
396,365,116765,1,0,0:0:0:0:
331,313,117140,1,8,0:0:0:0:
259,349,117515,6,0,P|193:360|115:279,1,160,8|2,0:0|0:2,0:0:0:0:
4,288,118827,2,0,P|37:222|226:240,1,280,4|2,0:2|0:2,0:0:0:0:
266,294,120515,6,0,P|270:233|274:172,2,120,4|0|8,0:2|0:0|0:0,0:0:0:0:
322,351,122015,2,0,P|368:363|407:354,1,80,0|8,0:0|0:0,0:0:0:0:
468,316,122765,2,0,P|483:268|476:228,1,80,0|8,0:0|0:0,0:0:0:0:
409,201,123515,6,0,P|350:194|310:130,2,120,0|0|8,0:0|0:0|0:0,0:0:0:0:
466,145,125015,2,0,L|473:54,1,80,0|10,0:0|0:2,0:0:0:0:
395,43,125765,2,0,L|388:134,1,80,2|10,0:2|0:2,0:0:0:0:
313,149,126515,6,0,B|253:131|253:131|186:168,2,120,2|0|8,0:2|0:0|0:0,0:0:0:0:
369,205,128015,2,0,P|378:260|378:302,1,80,0|8,0:0|0:0,0:0:0:0:
328,346,128765,1,0,0:0:0:0:
248,352,129140,1,8,0:0:0:0:
173,321,129515,6,0,P|165:277|161:193,1,120,2|2,0:2|0:2,0:0:0:0:
235,60,130827,2,0,B|351:39|351:39|420:87,1,200,6|8,0:2|0:0,0:0:0:0:
457,156,132140,1,8,0:0:0:0:
498,224,132515,6,0,P|443:236|385:191,2,120,4|0|8,0:2|0:0|0:0,0:0:0:0:
457,156,134015,2,0,P|417:126|374:124,1,80,0|8,0:0|0:0,0:0:0:0:
318,161,134765,2,0,P|309:209|325:256,1,80,0|0,0:0|0:0,0:0:0:0:
369,297,135515,6,0,L|499:289,2,120,0|0|8,0:0|0:0|0:0,0:0:0:0:
295,328,137015,2,0,B|242:337|202:288|202:288|169:362|90:362,1,240,2|10,0:2|0:2,0:0:0:0:
26,329,138515,6,0,P|5:269|21:196,2,120,2|0|8,0:2|0:0|0:0,0:0:0:0:
99,361,140015,2,0,L|189:352,1,80,0|8,0:0|0:0,0:0:0:0:
252,320,140765,2,0,P|261:268|257:228,1,80,0|0,0:0|0:0,0:0:0:0:
239,164,141515,6,0,L|105:176,2,120,2|2|0,0:2|0:2|0:0,0:0:0:0:
312,132,143015,2,0,B|334:78|334:78|310:10,1,120,4|0,0:2|0:0,0:0:0:0:
193,21,144140,2,0,B|171:75|171:75|195:143,1,120,4|0,0:2|0:0,0:0:0:0:
264,228,145265,2,0,P|301:239|366:220,1,80,4|0,0:2|0:0,0:0:0:0:
408,187,146015,6,0,L|412:84,2,80,4|8|0,0:2|0:1|0:0,0:0:0:0:
422,265,147140,1,8,0:1:0:0:
449,343,147515,2,0,P|417:349|369:329,1,80,0|8,0:0|0:1,0:0:0:0:
313,279,148265,2,0,L|317:177,1,80,0|8,0:0|0:1,0:0:0:0:
284,125,149015,6,0,B|223:99|223:99|115:145,1,160,0|0,0:0|0:0,0:0:0:0:
57,143,150140,2,0,P|89:204|184:199,1,160,8|8,0:0|0:0,0:0:0:0:
276,145,151452,2,0,P|327:136|402:177,1,120,2|0,0:2|0:0,0:0:0:0:
433,230,152390,5,8,0:1:0:0:
393,299,152765,2,0,L|305:289,1,80,0|8,0:0|0:1,0:0:0:0:
234,305,153515,2,0,P|222:350|224:396,2,80,0|8|0,0:0|0:1|0:0,0:0:0:0:
313,289,154640,1,8,0:1:0:0:
376,240,155015,6,0,P|393:181|358:59,2,160,0|4|0,0:0|0:2|0:0,0:0:0:0:
313,289,156890,2,0,B|249:278|249:278|212:289|212:289|145:276,1,160,4|0,0:2|0:0,0:0:0:0:
123,205,158015,6,0,P|76:266|101:339,1,160,4|0,0:0|0:0,0:0:0:0:
156,278,159140,1,8,0:0:0:0:
204,214,159515,2,0,P|199:172|168:137,1,80,2|10,0:2|0:2,0:0:0:0:
97,129,160265,2,0,L|11:135,1,80,0|10,0:0|0:2,0:0:0:0:
6,215,161015,6,0,L|148:204,1,120,2|0,0:2|0:0,0:0:0:0:
240,170,162140,1,8,0:0:0:0:
315,196,162515,2,0,P|343:234|345:282,1,80,2|8,0:2|0:0,0:0:0:0:
302,332,163265,1,0,0:0:0:0:
265,260,163640,1,8,0:0:0:0:
315,196,164015,6,0,L|420:184,2,80,8|8|8,0:0|0:0|0:0,0:0:0:0:
256,140,165140,1,8,0:0:0:0:
202,199,165515,2,0,L|97:187,2,80,8|8|8,0:0|0:0|0:0,0:0:0:0:
256,140,166640,1,8,0:0:0:0:
324,95,167015,6,0,P|256:58|182:110,1,160,8|2,0:0|0:2,0:0:0:0:
153,209,168327,1,6,0:2:0:0:
256,192,168515,12,2,170015,0:2:0:0:
47,108,179015,6,0,B|137:89|114:156|216:123,1,160,12|0,0:2|0:0,0:0:0:0:
317,94,180327,2,0,P|367:92|421:155,1,120,8|8,0:1|0:1,0:0:0:0:
439,213,181265,2,0,P|443:261|442:301,1,80,8|8,0:1|0:1,0:0:0:0:
373,332,182015,6,0,B|330:311|330:311|236:336,2,120,4|0|8,0:2|0:0|0:0,0:0:0:0:
440,375,183515,2,0,P|452:342|440:287,1,80,0|8,0:0|0:0,0:0:0:0:
386,244,184265,2,0,B|341:226|341:226|294:237,1,80,0|8,0:0|0:0,0:0:0:0:
232,247,185015,6,0,B|172:257|172:257|102:216,2,120,0|0|8,0:0|0:0|0:0,0:0:0:0:
303,211,186515,2,0,P|338:162|236:182,1,240,0|8,0:0|0:2,0:0:0:0:
232,249,188015,6,0,P|255:278|349:278,2,120,2|0|8,0:2|0:0|0:0,0:0:0:0:
303,212,189515,2,0,P|343:206|390:228,1,80,0|8,0:0|0:0,0:0:0:0:
415,291,190265,2,0,P|397:340|363:365,1,80,0|8,0:0|0:0,0:0:0:0:
299,379,191015,6,0,P|233:385|152:358,1,120,2|2,0:2|0:2,0:0:0:0:
38,301,192327,2,0,B|92:266|146:299|146:299|181:279|181:279|240:320|312:287,1,280,6|8,0:2|0:1,0:0:0:0:
364,244,194015,6,0,B|376:171|376:171|348:114,2,120,4|0|8,0:2|0:0|0:0,0:0:0:0:
299,292,195515,2,0,L|199:284,1,80,0|8,0:0|0:0,0:0:0:0:
140,299,196265,2,0,L|40:291,1,80,0|8,0:0|0:0,0:0:0:0:
5,234,197015,6,0,P|-7:176|3:106,2,120,0|0|8,0:0|0:0|0:0,0:0:0:0:
81,203,198515,2,0,P|130:185|274:307,1,240,0|10,0:0|0:2,0:0:0:0:
315,347,200015,6,0,P|366:358|443:304,2,120,6|0|8,0:2|0:0|0:0,0:0:0:0:
256,292,201515,2,0,L|241:191,1,80,2|8,0:2|0:0,0:0:0:0:
294,150,202265,2,0,L|309:49,1,80,0|8,0:0|0:0,0:0:0:0:
254,9,203015,5,8,0:1:0:0:
473,234,206015,6,0,P|437:220|361:232,1,80,8|8,0:0|0:0,0:0:0:0:
328,262,206765,2,0,P|288:261|250:248,1,80,0|8,0:0|0:0,0:0:0:0:
211,178,207515,6,0,L|202:93,2,80,6|10|2,0:2|0:2|0:2,0:0:0:0:
158,237,208640,1,10,0:2:0:0:
98,290,209015,2,0,P|80:259|94:184,1,80,2|10,0:2|0:2,0:0:0:0:
135,159,209765,2,0,P|185:160|231:198,1,80,2|10,0:2|0:2,0:0:0:0:
250,243,210515,6,0,P|309:274|382:250,1,120,2|2,0:2|0:2,0:0:0:0:
383,147,211640,2,0,P|324:116|251:140,1,120,10|2,0:2|0:2,0:0:0:0:
250,243,212765,2,0,L|259:353,1,80,2|10,0:2|0:2,0:0:0:0:
322,367,213515,6,0,P|360:370|416:331,2,80,6|8|0,0:2|0:0|0:0,0:0:0:0:
256,322,214640,1,8,0:0:0:0:
187,364,215015,2,0,P|148:367|93:328,2,80,0|8|0,0:0|0:0|0:0,0:0:0:0:
256,322,216140,1,8,0:0:0:0:
311,263,216515,6,0,B|332:209|332:209|300:126,2,120,0|0|8,0:0|0:0|0:0,0:0:0:0:
246,210,218015,2,0,L|157:205,1,80,0|8,0:0|0:0,0:0:0:0:
154,126,218765,2,0,L|233:130,1,80,8|8,0:0|0:0,0:0:0:0:
313,138,219515,5,6,0:2:0:0:
373,86,219890,1,10,0:2:0:0:
439,130,220265,2,0,P|454:182|450:222,1,80,2|10,0:2|0:2,0:0:0:0:
384,249,221015,2,0,L|288:241,2,80,2|10|2,0:2|0:2|0:2,0:0:0:0:
438,307,222140,1,10,0:2:0:0:
362,331,222515,6,0,L|242:319,1,120,2|2,0:2|0:2,0:0:0:0:
135,372,223640,2,0,P|122:328|142:251,1,120,10|2,0:2|0:2,0:0:0:0:
221,182,224765,2,0,P|229:127|220:93,1,80,0|10,0:0|0:2,0:0:0:0:
149,73,225515,6,0,L|61:62,2,80,6|8|0,0:2|0:0|0:0,0:0:0:0:
211,23,226640,1,8,0:0:0:0:
269,77,227015,2,0,L|357:66,1,80,2|8,0:2|0:0,0:0:0:0:
424,90,227765,2,0,P|445:134|446:175,1,80,0|8,0:0|0:0,0:0:0:0:
406,233,228515,6,0,B|363:257|363:257|271:234,1,120,2|6,0:2|0:2,0:0:0:0:
225,91,229827,2,0,B|268:67|268:67|360:90,1,120,6|8,0:2|0:0,0:0:0:0:
356,172,230765,2,0,L|272:151,1,80,8|8,0:0|0:1,0:0:0:0:
225,91,231515,6,0,P|197:144|230:218,2,120,4|0|8,0:2|0:0|0:0,0:0:0:0:
303,74,233015,2,0,L|385:91,1,80,0|8,0:0|0:0,0:0:0:0:
452,127,233765,2,0,P|467:186|458:225,1,80,0|8,0:0|0:0,0:0:0:0:
406,260,234515,6,0,B|361:250|361:250|331:254|331:254|252:236,2,120,0|0|8,0:0|0:0|0:0,0:0:0:0:
475,299,236015,2,0,P|434:336|392:338,1,80,0|10,0:0|0:2,0:0:0:0:
331,334,236765,1,2,0:2:0:0:
252,317,237140,1,10,0:2:0:0:
195,259,237515,6,0,P|173:295|175:342,2,80,2|8|0,0:2|0:0|0:0,0:0:0:0:
271,236,238640,1,8,0:0:0:0:
348,216,239015,2,0,P|363:165|330:81,2,120,2|0|8,0:2|0:0|0:0,0:0:0:0:
271,236,240515,5,8,0:0:0:0:
199,139,241077,1,4,0:2:0:0:
239,25,241640,2,0,L|410:30,1,160,4|8,0:2|0:0,0:0:0:0:
471,62,242765,2,0,P|489:116|491:190,1,120,0|8,0:0|0:0,0:0:0:0:
256,192,243515,12,0,248015,0:0:0:0:
