osu file format v14

[General]
AudioFilename: audio.mp3
AudioLeadIn: 0
PreviewTime: 55921
Countdown: 0
SampleSet: Soft
StackLeniency: 0.7
Mode: 2
LetterboxInBreaks: 0
EpilepsyWarning: 1
WidescreenStoryboard: 1

[Editor]
DistanceSpacing: 0.4
BeatDivisor: 4
GridSize: 8
TimelineZoom: 1

[Metadata]
Title:Hikaru nara
TitleUnicode:光るなら
Artist:Goose house
ArtistUnicode:Goose house
Creator:Ascendance
Version:Chromatic
Source:四月は君の嘘
Tags:your lie in april Phrase #9 shigatsu wa kimi no uso tenshichan [superstar] [sc4v4ng3r] sinnoh kanari opening scavanger
BeatmapID:1102708
BeatmapSetID:519023

[Difficulty]
HPDrainRate:7
CircleSize:4.2
OverallDifficulty:9.2
ApproachRate:9.2
SliderMultiplier:1.92
SliderTickRate:2

[Events]
//Background and Video events
0,0,"cropped-1366-768-640950.jpg",0,0
//Break Periods
2,170215,175445
//Storyboard Layer 0 (Background)
//Storyboard Layer 1 (Fail)
//Storyboard Layer 2 (Pass)
//Storyboard Layer 3 (Foreground)
//Storyboard Sound Samples

[TimingPoints]
515,375,4,2,1,30,1,0
2577,-100,4,2,1,35,0,0
3327,-100,4,2,1,40,0,0
3515,-100,4,1,49,45,0,0
3890,-100,4,1,54,50,0,0
4171,-100,4,1,1,55,0,0
4265,-100,4,1,51,55,0,0
4640,-100,4,3,52,60,0,0
5015,-100,4,1,1,65,0,0
9515,-100,4,1,90,65,0,0
9890,-100,4,1,91,65,0,0
10265,-100,4,1,92,65,0,0
10640,-100,4,1,93,65,0,0
11015,-100,4,1,94,65,0,0
11202,-100,4,1,1,65,0,0
12515,-100,4,1,92,65,0,0
12702,-100,4,1,1,65,0,0
14015,-100,4,1,92,60,0,0
14202,-100,4,1,1,60,0,0
15327,-100,4,1,1,50,0,0
15702,-100,4,1,1,40,0,0
16077,-100,4,3,1,50,0,0
16265,-100,4,3,1,55,0,0
16640,-100,4,3,1,60,0,0
17015,-100,4,2,1,50,0,0
20015,-100,4,2,82,50,0,0
20390,-100,4,2,1,50,0,0
21515,-100,4,2,30,50,0,0
21890,-100,4,2,1,50,0,0
22077,-100,4,2,31,50,0,0
22452,-100,4,2,30,50,0,0
22827,-100,4,2,31,50,0,0
23015,-100,4,2,83,50,0,0
23390,-100,4,2,1,50,0,0
26390,-100,4,2,79,50,0,0
26577,-100,4,2,1,50,0,0
27327,-100,4,2,79,50,0,0
27702,-100,4,2,80,50,0,0
27890,-100,4,2,1,50,0,0
28077,-100,4,2,81,50,0,0
28452,-100,4,2,80,50,0,0
28640,-100,4,3,1,50,0,0
29015,-100,4,2,1,50,0,0
30515,-100,4,2,81,50,0,0
30890,-100,4,2,1,50,0,0
31077,-100,4,2,20,50,0,0
31265,-100,4,2,21,50,0,0
31452,-100,4,2,20,50,0,0
31640,-100,4,2,22,50,0,0
31827,-100,4,2,23,50,0,0
32015,-100,4,2,1,50,0,0
33327,-100,4,2,24,50,0,0
33702,-100,4,2,1,50,0,0
34640,-100,4,3,1,50,0,0
35015,-100,4,2,80,50,0,0
35390,-100,4,2,1,50,0,0
36515,-100,4,2,82,50,0,0
36890,-100,4,2,1,50,0,0
38015,-100,4,2,81,50,0,0
38202,-100,4,1,1,50,0,0
39515,-100,4,1,82,50,0,0
39702,-100,4,1,1,50,0,0
40640,-100,4,3,1,55,0,0
41015,-100,4,2,51,50,0,0
41202,-100,4,2,50,50,0,0
41577,-100,4,2,51,50,0,0
42515,-100,4,2,50,50,0,0
42702,-100,4,2,51,50,0,0
42890,-100,4,2,55,50,0,0
43077,-100,4,2,56,50,0,0
43640,-100,4,2,1,50,0,0
44202,-100,4,2,57,50,0,0
46077,-100,4,2,58,50,0,0
46640,-100,4,3,57,55,0,0
47015,-100,4,3,2,55,0,0
50015,-100,4,1,80,55,0,0
50390,-100,4,1,1,55,0,0
54327,-100,4,1,1,60,0,0
54702,-100,4,2,40,60,0,0
54890,-100,4,2,41,60,0,0
55077,-100,4,2,42,60,0,0
55265,-100,4,2,57,60,0,0
55452,-100,4,2,59,60,0,0
55640,-100,4,3,56,60,0,0
55827,-100,4,3,60,60,0,0
56015,-100,4,1,1,60,0,1
60702,-100,4,1,51,65,0,1
60890,-100,4,1,54,65,0,1
61265,-100,4,1,51,65,0,1
61452,-100,4,1,54,65,0,1
61640,-100,4,1,50,65,0,1
61827,-100,4,1,51,65,0,1
62015,-100,4,1,23,65,0,1
62202,-100,4,1,1,65,0,1
63327,-100,4,1,24,65,0,1
63702,-100,4,1,1,65,0,1
65015,-100,4,1,90,65,0,1
65390,-100,4,1,1,65,0,1
65577,-100,4,1,91,65,0,1
66140,-100,4,1,1,65,0,1
66327,-100,4,1,94,65,0,1
66702,-100,4,1,1,65,0,1
67640,-100,4,3,1,65,0,1
68015,-100,4,1,1,65,0,1
72702,-100,4,1,54,65,0,1
72890,-100,4,1,51,65,0,1
73077,-100,4,1,52,65,0,1
73452,-100,4,1,51,65,0,1
73640,-100,4,3,54,65,0,1
73827,-100,4,3,51,65,0,1
74015,-100,4,1,1,65,0,1
77015,-100,4,3,1,55,0,0
77952,-100,4,3,2,55,0,0
78515,-100,4,2,53,60,0,0
78702,-100,4,2,55,60,0,0
79077,-100,4,2,52,60,0,0
79265,-100,4,2,53,60,0,0
79640,-100,4,2,55,60,0,0
79827,-100,4,2,56,60,0,0
80577,-100,4,3,1,50,0,0
81327,-100,4,2,1,50,0,0
86015,-100,4,2,33,50,0,0
86390,-100,4,2,32,50,0,0
86577,-100,4,2,34,50,0,0
86952,-100,4,2,30,50,0,0
87327,-100,4,2,31,50,0,0
87515,-100,4,2,1,50,0,0
90890,-100,4,2,79,50,0,0
91077,-100,4,2,1,50,0,0
91640,-100,4,2,94,50,0,0
91827,-100,4,2,79,50,0,0
92202,-100,4,2,80,50,0,0
92577,-100,4,2,81,50,0,0
92952,-100,4,2,80,50,0,0
93140,-100,4,3,1,50,0,0
93515,-100,4,2,94,50,0,0
93890,-100,4,2,1,50,0,0
98577,-100,4,2,92,50,0,0
98952,-100,4,2,93,50,0,0
99140,-100,4,2,94,50,0,0
99327,-100,4,2,1,50,0,0
99515,-100,4,2,80,50,0,0
101015,-100,4,2,82,50,0,0
101390,-100,4,2,1,50,0,0
102515,-100,4,2,81,50,0,0
102702,-100,4,1,1,50,0,0
104015,-100,4,1,82,50,0,0
104202,-100,4,1,1,50,0,0
105140,-100,4,3,1,50,0,0
105515,-100,4,2,51,50,0,0
105890,-100,4,2,55,50,0,0
106077,-100,4,2,56,50,0,0
107202,-100,4,2,51,50,0,0
107390,-100,4,2,56,50,0,0
107577,-100,4,2,61,50,0,0
107952,-100,4,2,59,50,0,0
108140,-100,4,2,1,50,0,0
108515,-100,4,2,56,50,0,0
109265,-100,4,2,60,50,0,0
109452,-100,4,2,55,50,0,0
109640,-100,4,2,52,50,0,0
109827,-100,4,2,55,50,0,0
110015,-100,4,2,54,50,0,0
110390,-100,4,2,55,50,0,0
110577,-100,4,2,58,50,0,0
111140,-100,4,3,50,55,0,0
111515,-100,4,3,2,55,0,0
114515,-100,4,1,1,55,0,0
118827,-100,4,1,1,60,0,0
119202,-100,4,2,40,60,0,0
119390,-100,4,2,41,60,0,0
119577,-100,4,2,42,60,0,0
119765,-100,4,3,57,60,0,0
119952,-100,4,3,59,60,0,0
120140,-100,4,3,56,60,0,0
120327,-100,4,3,60,60,0,0
120515,-100,4,1,1,65,0,1
125202,-100,4,1,51,65,0,1
125390,-100,4,1,54,65,0,1
125765,-100,4,1,51,65,0,1
125952,-100,4,1,54,65,0,1
126140,-100,4,1,50,65,0,1
126327,-100,4,1,51,65,0,1
126515,-100,4,1,23,65,0,1
126702,-100,4,1,1,65,0,1
127827,-100,4,1,24,65,0,1
128202,-100,4,1,1,65,0,1
129515,-100,4,1,90,65,0,1
129702,-100,4,1,1,65,0,1
130077,-100,4,1,91,65,0,1
130265,-100,4,1,1,65,0,1
130827,-100,4,1,94,65,0,1
131202,-100,4,1,1,65,0,1
137015,-100,4,1,51,65,0,1
137202,-100,4,1,54,65,0,1
137390,-100,4,1,51,65,0,1
137577,-100,4,1,52,65,0,1
137952,-100,4,1,51,65,0,1
138140,-100,4,1,54,65,0,1
138327,-100,4,1,51,65,0,1
138515,-100,4,1,23,65,0,1
138702,-100,4,1,1,65,0,1
139827,-100,4,1,24,65,0,1
140202,-100,4,1,1,65,0,1
141515,-100,4,1,90,65,0,1
141890,-100,4,1,1,65,0,1
142077,-100,4,1,91,65,0,1
142452,-100,4,1,1,65,0,1
146015,-100,4,3,1,50,0,0
149015,-100,4,2,1,50,0,0
152015,-100,4,3,1,50,0,0
155015,-100,4,1,1,60,0,0
155765,-100,4,1,1,50,0,0
156890,-100,4,1,1,60,0,0
158015,-100,4,1,1,50,0,0
159515,-100,4,1,92,50,0,0
159890,-100,4,1,93,50,0,0
160640,-100,4,1,95,50,0,0
161015,-100,4,1,96,50,0,0
161202,-100,4,1,1,50,0,0
162515,-100,4,1,92,50,0,0
162702,-100,4,1,1,50,0,0
164015,-100,4,1,1,60,0,0
165515,-100,4,1,1,65,0,0
168421,-100,4,1,1,50,0,0
170015,-100,4,2,56,30,0,0
176015,-100,4,1,1,30,0,0
176765,-100,4,1,1,40,0,0
177515,-100,4,1,1,50,0,0
178265,-100,4,1,1,60,0,0
178640,-100,4,3,1,60,0,0
182015,-100,4,1,1,65,0,1
186702,-100,4,1,51,65,0,1
186890,-100,4,1,54,65,0,1
187265,-100,4,1,51,65,0,1
187452,-100,4,1,54,65,0,1
187640,-100,4,3,50,65,0,1
187827,-100,4,3,51,65,0,1
188015,-100,4,1,1,65,0,1
191015,-100,4,1,90,65,0,1
191390,-100,4,1,1,65,0,1
191577,-100,4,1,91,65,0,1
192140,-100,4,1,1,65,0,1
192327,-100,4,1,94,65,0,1
192702,-100,4,1,1,65,0,1
193640,-100,4,3,1,65,0,1
194015,-100,4,1,1,65,0,1
198702,-100,4,1,54,65,0,1
198890,-100,4,1,51,65,0,1
199077,-100,4,1,52,65,0,1
199452,-100,4,1,51,65,0,1
199640,-100,4,3,54,65,0,1
199827,-100,4,3,51,65,0,1
200015,-100,4,1,90,65,0,1
200202,-100,4,1,1,65,0,1
201515,-100,4,1,91,65,0,1
201702,-100,4,1,1,65,0,1
202077,-100,4,1,92,65,0,1
202452,-100,4,1,1,65,0,1
203015,-100,4,3,1,50,0,1
205827,-100,4,1,1,50,0,1
206390,-100,4,1,1,55,0,1
206765,-100,4,1,1,60,0,1
207140,-100,4,3,1,65,0,1
207515,-100,4,1,56,65,0,0
207890,-100,4,1,48,65,0,0
208265,-100,4,1,56,65,0,0
208640,-100,4,1,48,65,0,0
209015,-100,4,1,56,65,0,0
209390,-100,4,1,48,65,0,0
209765,-100,4,1,49,65,0,0
210140,-100,4,1,55,65,0,0
210702,-100,4,1,49,55,0,0
210890,-100,4,1,55,55,0,0
211077,-100,4,1,49,55,0,0
211640,-100,4,1,55,55,0,0
211827,-100,4,1,49,55,0,0
212015,-100,4,1,55,55,0,0
212202,-100,4,1,49,55,0,0
212390,-100,4,1,1,55,0,0
212765,-100,4,1,51,55,0,0
213140,-100,4,1,42,55,0,0
213515,-100,4,1,32,55,0,0
213702,-100,4,1,1,55,0,0
214077,-100,4,1,34,55,0,0
214265,-100,4,1,1,55,0,0
214827,-100,4,1,31,55,0,0
215015,-100,4,1,1,55,0,0
217827,-100,4,1,1,65,0,0
219515,-100,4,1,92,65,0,0
219890,-100,4,1,93,65,0,0
220265,-100,4,1,92,65,0,0
220640,-100,4,1,93,65,0,0
221015,-100,4,1,92,65,0,0
221390,-100,4,1,93,65,0,0
221765,-100,4,1,94,65,0,0
222140,-100,4,1,79,65,0,0
222702,-100,4,1,94,65,0,0
222890,-100,4,1,79,65,0,0
223077,-100,4,1,94,65,0,0
223640,-100,4,1,79,65,0,0
223827,-100,4,1,94,65,0,0
224015,-100,4,1,79,65,0,0
224202,-100,4,1,94,65,0,0
224390,-100,4,1,1,65,0,0
224577,-100,4,1,55,65,0,0
224765,-100,4,1,1,65,0,0
225140,-100,4,1,48,65,0,0
225327,-100,4,1,1,65,0,0
225515,-100,4,1,92,65,0,0
225702,-100,4,1,1,65,0,0
228515,-100,4,1,90,65,0,0
228702,-100,4,1,1,65,0,0
229077,-100,4,1,91,65,0,0
229452,-100,4,1,1,65,0,0
229827,-100,4,1,94,65,0,0
230202,-100,4,1,1,65,0,0
231140,-100,4,3,1,65,0,0
231515,-100,4,1,1,55,0,0
233015,-100,4,1,1,50,0,0
236390,-100,4,1,91,50,0,0
236765,-100,4,1,92,50,0,0
237140,-100,4,1,93,50,0,0
237515,-100,4,1,94,50,0,0
237702,-100,4,1,1,50,0,0
239015,-100,4,1,92,50,0,0
239202,-100,4,1,1,50,0,0
244265,-100,4,1,1,45,0,0
245015,-100,4,1,1,40,0,0
245765,-100,4,1,1,35,0,0
246515,-100,4,1,1,30,0,0
247265,-100,4,1,1,25,0,0
247640,-100,4,1,1,15,0,0
248015,-100,4,2,1,5,0,0

[Colours]
Combo1 : 255,253,179
Combo2 : 166,255,255
Combo3 : 151,255,151
Combo4 : 255,164,255
Combo5 : 255,194,166
Combo6 : 253,100,104

[HitObjects]
184,280,515,6,0,L|160:176,1,96,0|0,0:0|0:0,0:0:0:0:
272,112,890,1,0,0:0:0:0:
120,184,1077,2,0,L|320:184,1,192,0|0,0:0|0:0,0:0:0:0:
128,96,1640,1,0,0:0:0:0:
280,96,1827,6,0,P|336:136|272:232,1,192,0|0,0:0|0:0,0:0:0:0:
176,240,2390,1,0,0:0:0:0:
288,232,2577,2,0,L|488:240,1,192,0|0,0:0|0:0,0:0:0:0:
296,160,3327,2,0,L|240:168,1,48,2|0,0:2|0:0,0:0:0:0:
432,320,3515,6,0,L|448:200,1,96,4|0,0:2|0:0,0:0:0:0:
288,272,3890,2,0,L|264:168,1,96,6|0,0:2|0:0,0:0:0:0:
328,136,4171,1,2,0:2:0:0:
496,64,4265,2,0,L|400:64,1,96,2|0,0:2|0:0,0:0:0:0:
128,56,4640,1,10,0:2:0:0:
87,77,4733,1,0,0:0:0:0:
85,122,4827,1,0,0:0:0:0:
123,147,4921,1,0,0:0:0:0:
352,160,5015,6,0,L|456:160,2,96,4|0|8,0:2|0:0|0:0,0:0:0:0:
184,264,5577,2,0,L|384:264,1,192,2|0,0:2|0:0,0:0:0:0:
280,264,6140,1,8,0:0:0:0:
464,344,6327,6,0,P|512:288|448:208,1,192,0|0,0:0|0:0,0:0:0:0:
328,208,6890,1,8,0:0:0:0:
472,96,7077,2,0,L|272:96,1,192,0|0,0:0|0:0,0:0:0:0:
408,104,7640,1,8,0:0:0:0:
96,304,7827,6,0,P|128:248|280:192,1,192,0|0,0:0|0:0,0:0:0:0:
104,136,8390,1,8,0:0:0:0:
368,72,8577,2,0,L|408:160,1,96,2|0,0:2|0:0,0:0:0:0:
264,224,8952,2,0,L|160:224,1,96,0|8,0:0|0:0,0:0:0:0:
440,320,9327,6,0,P|488:280|416:192,1,192,0|0,0:0|0:0,0:0:0:0:
296,184,9890,2,0,L|192:184,1,96,10|0,0:2|0:0,0:0:0:0:
384,80,10265,1,2,0:2:0:0:
296,184,10452,1,0,0:0:0:0:
432,216,10640,2,0,L|432:312,1,96,10|0,0:2|0:0,0:0:0:0:
96,336,11015,6,0,P|56:304|128:200,1,192,2|8,0:2|0:0,0:0:0:0:
224,200,11577,1,0,0:0:0:0:
120,128,11765,2,0,L|120:24,1,96,0|0,0:0|0:0,0:0:0:0:
248,24,12140,1,8,0:0:0:0:
120,128,12327,2,0,L|72:128,1,48,0|0,0:0|0:0,0:0:0:0:
392,296,12515,6,0,P|432:256|352:168,1,192,2|8,0:2|0:0,0:0:0:0:
72,232,13077,2,0,L|176:232,1,96,2|0,0:2|0:0,0:0:0:0:
320,144,13452,2,0,L|208:144,1,96,2|8,0:2|0:0,0:0:0:0:
112,144,13827,1,2,0:2:0:0:
456,96,14015,5,10,0:2:0:0:
112,144,14202,1,2,0:2:0:0:
376,224,14577,1,8,0:0:0:0:
64,160,14765,1,2,0:2:0:0:
240,312,15140,6,0,L|176:312,1,48,8|0,0:0|0:0,0:0:0:0:
416,264,15327,2,0,P|464:216|408:128,1,144,4|0,0:2|0:0,0:0:0:0:
192,88,15702,2,0,L|80:88,2,96,0|0|0,0:0|0:0|0:0,0:0:0:0:
320,88,16265,6,0,L|336:144,1,48,8|0,0:1|0:0,0:0:0:0:
256,152,16452,2,0,L|248:208,1,48,8|0,0:1|0:0,0:0:0:0:
328,208,16640,2,0,L|336:264,1,48,0|0,0:2|0:0,0:0:0:0:
144,304,16827,1,0,0:2:0:0:
448,344,17015,6,0,L|456:224,1,96,4|0,0:0|0:0,0:0:0:0:
328,192,17390,1,8,0:0:0:0:
448,152,17577,2,0,L|496:144,2,48,0|0|0,0:0|0:0|0:0,0:0:0:0:
328,192,17952,2,0,L|440:192,1,96,0|8,0:0|0:0,0:0:0:0:
160,104,18327,6,0,P|96:144|168:208,1,192,0|0,0:0|0:0,0:0:0:0:
264,216,18890,1,8,0:0:0:0:
120,336,19077,2,0,L|112:232,1,96,0|0,0:0|0:0,0:0:0:0:
224,224,19452,2,0,L|344:192,2,96,0|8|0,0:0|0:0|0:0,0:0:0:0:
480,352,20015,6,0,L|496:160,1,192,2|8,0:0|0:0,0:0:0:0:
360,112,20577,1,0,0:0:0:0:
272,192,20765,2,0,L|392:192,1,96,0|0,0:0|0:0,0:0:0:0:
192,136,21140,1,8,0:0:0:0:
456,256,21327,6,0,P|376:296|272:256,1,192,0|0,0:0|0:0,0:0:0:0:
360,200,21890,1,10,0:0:0:0:
208,152,22077,2,0,L|112:152,1,96,2|0,0:0|0:0,0:0:0:0:
272,88,22452,2,0,L|384:88,1,96,2|8,0:0|0:0,0:0:0:0:
472,88,22827,1,2,0:0:0:0:
224,336,23015,6,0,B|216:232|216:232|336:240,1,192,2|8,0:0|0:0,0:0:0:0:
184,160,23577,1,0,0:0:0:0:
304,160,23765,2,0,L|432:160,1,96,0|0,0:0|0:0,0:0:0:0:
120,64,24140,2,0,L|8:64,1,96,8|0,0:0|0:0,0:0:0:0:
336,88,24515,6,0,P|384:152|312:240,1,192,0|8,0:0|0:0,0:0:0:0:
232,256,25077,1,0,0:0:0:0:
344,320,25265,2,0,L|448:320,1,96,0|0,0:0|0:0,0:0:0:0:
280,208,25640,2,0,L|168:208,1,96,8|0,0:0|0:0,0:0:0:0:
376,88,26015,6,0,L|384:216,1,96,0|0,0:0|0:0,0:0:0:0:
104,336,26390,2,0,P|56:280|120:200,1,192,10|0,0:2|0:0,0:0:0:0:
272,192,26952,1,0,0:0:0:0:
120,112,27140,1,8,0:0:0:0:
384,120,27327,6,0,L|480:120,1,96,2|0,0:0|0:0,0:0:0:0:
344,216,27702,2,0,L|464:216,1,96,2|8,0:0|0:0,0:0:0:0:
280,336,28077,2,0,L|256:232,1,96,2|0,0:0|0:0,0:0:0:0:
400,216,28452,2,0,L|424:104,1,96,2|8,0:0|0:2,0:0:0:0:
296,88,28827,1,0,0:0:0:0:
48,224,29015,6,0,L|272:224,1,192,0|8,0:0|0:0,0:0:0:0:
352,224,29577,1,0,0:0:0:0:
200,152,29765,2,0,L|184:56,1,96,0|0,0:0|0:0,0:0:0:0:
336,56,30140,1,8,0:0:0:0:
88,336,30327,6,0,P|96:264|224:224,1,192,0|0,0:0|0:0,0:0:0:0:
304,216,30890,1,8,0:0:0:0:
168,144,31077,1,2,0:0:0:0:
164,96,31170,1,0,0:0:0:0:
161,48,31264,1,2,0:0:0:0:
288,40,31452,1,2,0:0:0:0:
168,144,31640,1,10,0:0:0:0:
288,224,31827,1,2,0:0:0:0:
32,352,32015,6,0,P|48:272|176:224,1,192,0|8,0:0|0:0,0:0:0:0:
256,216,32577,1,2,0:0:0:0:
112,136,32765,1,0,0:0:0:0:
248,136,32952,2,0,L|376:136,1,96,0|10,0:0|0:0,0:0:0:0:
88,48,33327,6,0,L|280:48,2,192,2|0|0,0:0|0:0|0:0,0:0:0:0:
200,112,34265,1,0,0:0:0:0:
275,165,34452,1,0,0:0:0:0:
274,258,34640,1,8,0:2:0:0:
198,311,34827,1,0,0:0:0:0:
464,352,35015,6,0,L|480:144,1,192,2|8,0:0|0:0,0:0:0:0:
368,104,35577,1,0,0:0:0:0:
272,208,35765,2,0,L|392:208,1,96,0|0,0:0|0:0,0:0:0:0:
216,136,36140,2,0,L|104:136,1,96,8|0,0:0|0:0,0:0:0:0:
168,136,36421,1,0,0:0:0:0:
392,320,36515,6,0,P|440:272|352:192,1,192,2|8,0:0|0:0,0:0:0:0:
256,184,37077,1,0,0:0:0:0:
384,112,37265,2,0,L|488:112,1,96,0|0,0:0|0:0,0:0:0:0:
328,184,37640,1,8,0:0:0:0:
448,184,37827,1,0,0:0:0:0:
328,184,38015,5,2,0:2:0:0:
80,104,38202,2,0,L|176:104,1,96,0|8,0:0|0:0,0:0:0:0:
368,104,38577,1,0,0:0:0:0:
88,344,38765,2,0,L|80:232,1,96,0|0,0:0|0:0,0:0:0:0:
200,208,39140,1,8,0:0:0:0:
472,136,39327,6,0,L|368:144,1,96,0|2,0:2|0:2,0:0:0:0:
240,224,39702,2,0,L|352:232,1,96,2|8,0:2|0:0,0:0:0:0:
232,328,40077,1,2,0:2:0:0:
336,232,40265,1,0,0:0:0:0:
176,168,40452,2,0,L|176:64,1,96,2|0,0:2|0:0,0:0:0:0:
320,40,40827,1,0,0:0:0:0:
32,248,41015,6,0,L|136:248,2,96,4|2|0,0:0|0:0|0:0,0:0:0:0:
192,200,41577,2,0,P|256:160|192:96,1,192,2|0,0:0|0:0,0:0:0:0:
48,144,42140,2,0,L|160:144,1,96,8|0,0:0|0:0,0:0:0:0:
392,144,42515,6,0,L|488:144,2,96,2|2|2,0:0|0:0|0:0,0:0:0:0:
264,216,43077,2,0,L|464:216,1,192,2|0,0:0|0:0,0:0:0:0:
152,144,43640,1,8,0:0:0:0:
288,144,43827,1,0,0:0:0:0:
40,344,44015,6,0,L|32:240,1,96,0|2,0:0|0:0,0:0:0:0:
160,208,44390,1,2,0:0:0:0:
64,128,44577,2,0,L|160:128,1,96,2|2,0:0|0:0,0:0:0:0:
288,128,44952,1,0,0:0:0:0:
24,56,45140,2,0,L|144:56,1,96,8|0,0:0|0:0,0:0:0:0:
392,48,45515,6,0,P|456:80|392:144,1,192,0|0,0:0|0:0,0:0:0:0:
144,128,46077,2,0,P|88:144|168:200,1,192,2|0,0:0|0:0,0:0:0:0:
312,320,46640,2,0,L|320:216,1,96,10|0,0:2|0:0,0:0:0:0:
56,184,47015,5,0,0:0:0:0:
176,144,47202,2,0,L|280:144,1,96,0|2,0:0|0:0,0:0:0:0:
104,80,47577,1,0,0:0:0:0:
416,104,47765,6,0,L|424:208,1,96,0|0,0:0|0:0,0:0:0:0:
320,264,48140,1,2,0:0:0:0:
448,320,48327,1,0,0:0:0:0:
160,360,48515,6,0,L|144:248,1,96,0|0,0:0|0:0,0:0:0:0:
264,240,48890,2,0,L|288:128,1,96,2|0,0:0|0:0,0:0:0:0:
176,128,49265,2,0,L|72:128,1,96,0|0,0:0|0:0,0:0:0:0:
384,80,49640,2,0,L|480:80,1,96,2|0,0:0|0:0,0:0:0:0:
104,336,50015,6,0,P|72:280|160:192,1,192,2|8,0:2|0:0,0:0:0:0:
272,192,50577,1,0,0:0:0:0:
160,112,50765,2,0,L|48:112,1,96,0|0,0:0|0:0,0:0:0:0:
400,56,51140,2,0,L|496:56,1,96,8|0,0:0|0:0,0:0:0:0:
336,120,51515,5,0,0:0:0:0:
464,120,51702,1,0,0:0:0:0:
144,256,51890,2,0,L|32:256,1,96,8|0,0:0|0:0,0:0:0:0:
400,344,52265,6,0,L|416:232,1,96,0|0,0:0|0:0,0:0:0:0:
144,208,52640,2,0,L|128:104,1,96,8|0,0:0|0:0,0:0:0:0:
440,72,53015,5,8,0:0:0:0:
64,128,53202,1,2,0:2:0:0:
360,216,53577,1,8,0:0:0:0:
64,128,53765,1,2,0:2:0:0:
352,64,54140,1,8,0:1:0:0:
64,128,54327,6,0,P|32:184|88:232,1,144,4|0,0:2|0:0,0:0:0:0:
336,240,54702,2,0,L|440:240,2,96,2|2|2,0:0|0:0|0:0,0:0:0:0:
72,240,55265,1,2,0:0:0:0:
376,120,55452,1,2,0:0:0:0:
80,48,55640,1,2,0:0:0:0:
44,78,55733,1,0,0:0:0:0:
44,125,55827,1,2,0:0:0:0:
78,156,55921,1,0,0:0:0:0:
328,216,56015,6,0,L|440:216,1,96,6|0,0:2|0:0,0:0:0:0:
104,272,56390,1,8,0:0:0:0:
368,288,56577,2,0,P|416:224|336:136,1,192,0|0,0:0|0:0,0:0:0:0:
216,120,57140,1,8,0:0:0:0:
488,72,57327,6,0,L|368:72,2,96,0|0|0,0:0|0:0|0:0,0:0:0:0:
144,128,57890,1,8,0:0:0:0:
392,304,58077,2,0,P|448:232|360:168,1,192,0|0,0:0|0:0,0:0:0:0:
224,192,58640,1,8,0:0:0:0:
192,157,58733,1,0,0:0:0:0:
199,111,58827,1,0,0:0:0:0:
239,88,58921,1,0,0:0:0:0:
472,88,59015,6,0,L|368:88,1,96,0|0,0:0|0:0,0:0:0:0:
200,88,59390,1,8,0:0:0:0:
488,168,59577,2,0,L|280:168,1,192,0|0,0:0|0:0,0:0:0:0:
392,168,60140,1,8,0:0:0:0:
64,296,60327,6,0,P|72:224|208:176,1,192,0|2,0:0|0:2,0:0:0:0:
304,168,60890,1,10,0:2:0:0:
48,72,61077,1,0,0:0:0:0:
344,72,61265,2,0,L|448:72,2,96,2|2|10,0:2|0:2|0:2,0:0:0:0:
96,72,61827,1,2,0:2:0:0:
344,304,62015,6,0,L|352:184,1,96,2|0,0:2|0:0,0:0:0:0:
200,176,62390,1,8,0:0:0:0:
488,88,62577,2,0,L|280:96,1,192,0|0,0:0|0:0,0:0:0:0:
152,104,63140,1,8,0:0:0:0:
424,336,63327,6,0,P|488:296|416:248,1,192,2|0,0:2|0:0,0:0:0:0:
312,256,63890,1,8,0:0:0:0:
40,128,64077,2,0,L|248:136,1,192,0|0,0:0|0:0,0:0:0:0:
96,304,64640,1,8,0:0:0:0:
79,259,64733,1,0,0:0:0:0:
98,216,64827,1,0,0:0:0:0:
140,197,64921,1,0,0:0:0:0:
376,208,65015,6,0,L|480:208,2,96,2|0|8,0:2|0:0|0:0,0:0:0:0:
128,112,65577,2,0,L|344:112,1,192,2|0,0:2|0:0,0:0:0:0:
48,200,66140,1,8,0:0:0:0:
152,200,66327,1,6,0:2:0:0:
400,208,66515,6,0,L|496:208,2,96,0|0|8,0:0|0:0|0:0,0:0:0:0:
296,208,67077,1,0,0:0:0:0:
32,128,67265,2,0,L|152:128,1,96,8|0,0:0|0:0,0:0:0:0:
448,80,67640,2,0,L|344:80,1,96,8|0,0:1|0:0,0:0:0:0:
96,224,68015,6,0,L|224:224,1,96,6|0,0:2|0:0,0:0:0:0:
56,160,68390,1,8,0:0:0:0:
368,320,68577,2,0,P|424:280|344:208,1,192,0|0,0:0|0:0,0:0:0:0:
112,208,69140,1,8,0:0:0:0:
392,96,69327,6,0,L|192:96,1,192,0|0,0:0|0:0,0:0:0:0:
352,168,69890,2,0,L|464:168,2,96,8|0|0,0:0|0:0|0:0,0:0:0:0:
88,336,70452,2,0,P|32:272|128:216,1,192,0|0,0:0|0:0,0:0:0:0:
344,192,71015,6,0,L|448:192,1,96,0|0,0:0|0:0,0:0:0:0:
304,128,71390,1,8,0:0:0:0:
32,224,71577,2,0,L|256:224,1,192,0|0,0:0|0:0,0:0:0:0:
400,224,72140,2,0,L|304:224,1,96,8|0,0:0|0:0,0:0:0:0:
48,128,72515,6,0,L|168:128,2,96,0|2|10,0:0|0:2|0:2,0:0:0:0:
336,72,73077,2,0,L|144:72,1,192,2|2,0:2|0:2,0:0:0:0:
336,72,73640,2,0,L|432:72,1,96,10|2,0:2|0:2,0:0:0:0:
152,312,74015,6,0,L|144:192,1,96,0|0,0:0|0:0,0:0:0:0:
264,176,74390,1,8,0:0:0:0:
112,72,74577,2,0,P|48:112|136:176,1,192,0|0,0:0|0:0,0:0:0:0:
216,192,75140,1,8,0:0:0:0:
464,328,75327,6,0,P|496:280|408:184,1,192,0|0,0:0|0:0,0:0:0:0:
328,184,75890,1,8,0:0:0:0:
80,96,76077,2,0,L|288:88,1,192,0|0,0:0|0:0,0:0:0:0:
160,176,76640,1,8,0:0:0:0:
130,212,76733,1,0,0:0:0:0:
135,258,76827,1,0,0:0:0:0:
173,286,76921,1,0,0:0:0:0:
400,296,77015,6,0,L|496:280,2,96,10|0|0,0:2|0:0|0:0,0:0:0:0:
152,160,77577,2,0,L|384:184,1,192,10|0,0:2|0:0,0:0:0:0:
80,312,78140,2,0,L|72:184,1,96,0|2,0:0|0:0,0:0:0:0:
336,88,78515,5,2,0:0:0:0:
72,216,78702,1,6,0:0:0:0:
344,264,79077,1,2,0:0:0:0:
72,216,79265,1,6,0:0:0:0:
344,152,79640,1,2,0:0:0:0:
96,72,79827,6,0,P|48:120|120:192,1,192,6|0,2:0|0:0,0:0:0:0:
232,256,80390,2,0,L|112:256,1,96,8|0,0:0|0:0,0:0:0:0:
400,160,80765,2,0,L|496:160,2,96,0|8|8,0:0|0:2|0:0,0:0:0:0:
64,152,81327,1,4,0:0:0:0:
352,248,81515,6,0,L|464:248,1,96,0|0,0:0|0:0,0:0:0:0:
264,176,81890,1,8,0:0:0:0:
384,168,82077,1,0,0:0:0:0:
390,120,82170,1,0,0:0:0:0:
397,72,82264,1,0,0:0:0:0:
272,56,82452,2,0,L|160:56,1,96,0|8,0:0|0:0,0:0:0:0:
448,336,82827,6,0,P|496:288|424:208,1,192,0|0,0:0|0:0,0:0:0:0:
304,208,83390,1,8,0:0:0:0:
408,128,83577,2,0,L|304:128,1,96,0|0,0:0|0:0,0:0:0:0:
200,216,83952,2,0,L|312:216,2,96,0|8|0,0:0|0:0|0:0,0:0:0:0:
480,304,84515,6,0,L|288:304,1,192,0|8,0:0|0:0,0:0:0:0:
176,304,85077,1,0,0:0:0:0:
320,224,85265,2,0,L|336:120,1,96,0|0,0:0|0:0,0:0:0:0:
224,88,85640,1,8,0:0:0:0:
368,32,85827,1,0,0:0:0:0:
64,80,86015,6,0,L|32:288,1,192,2|10,0:0|0:0,0:0:0:0:
144,320,86577,1,2,0:0:0:0:
40,200,86765,2,0,L|168:200,1,96,0|2,0:0|0:0,0:0:0:0:
256,128,87140,2,0,L|144:128,1,96,8|2,0:0|0:0,0:0:0:0:
416,328,87515,6,0,L|432:232,1,96,0|0,0:0|0:0,0:0:0:0:
304,232,87890,2,0,L|280:128,1,96,8|0,0:0|0:0,0:0:0:0:
440,64,88265,1,0,0:0:0:0:
492,139,88452,1,0,0:0:0:0:
461,226,88640,1,8,0:0:0:0:
372,251,88827,1,0,0:0:0:0:
96,328,89015,6,0,P|104:272|240:224,1,192,0|8,0:0|0:0,0:0:0:0:
88,144,89577,1,0,0:0:0:0:
208,48,89765,2,0,L|104:56,1,96,0|0,0:0|0:0,0:0:0:0:
272,112,90140,2,0,L|384:120,1,96,8|0,0:0|0:0,0:0:0:0:
224,192,90515,6,0,L|208:296,1,96,0|0,0:0|0:0,0:0:0:0:
472,336,90890,2,0,B|504:232|504:232|376:232,1,192,10|0,0:0|0:0,0:0:0:0:
304,240,91452,1,0,0:0:0:0:
456,152,91640,1,10,0:0:0:0:
128,96,91827,6,0,L|136:216,1,96,2|0,0:0|0:0,0:0:0:0:
280,216,92202,2,0,L|256:328,1,96,2|8,0:0|0:0,0:0:0:0:
120,336,92577,2,0,L|8:336,1,96,2|0,0:0|0:0,0:0:0:0:
208,264,92952,1,2,0:0:0:0:
80,232,93140,1,8,0:2:0:0:
76,184,93233,1,0,0:0:0:0:
101,145,93327,1,0,0:0:0:0:
145,127,93421,1,0,0:0:0:0:
400,136,93515,6,0,L|496:136,1,96,6|0,0:0|0:0,0:0:0:0:
192,320,93890,2,0,P|152:264|248:200,1,192,8|0,0:0|0:0,0:0:0:0:
336,200,94452,1,0,0:0:0:0:
200,112,94640,1,8,0:0:0:0:
344,88,94827,1,0,0:0:0:0:
40,112,95015,6,0,P|112:144|216:104,1,192,0|8,0:0|0:0,0:0:0:0:
312,48,95577,1,0,0:0:0:0:
200,200,95765,2,0,L|208:304,1,96,0|0,0:0|0:0,0:0:0:0:
352,328,96140,2,0,L|480:336,1,96,8|0,0:0|0:0,0:0:0:0:
280,264,96515,6,0,L|160:280,1,96,0|0,0:0|0:0,0:0:0:0:
456,224,96890,2,0,P|512:176|448:88,1,192,14|0,0:0|0:0,0:0:0:0:
360,56,97452,2,0,L|464:56,1,96,0|8,0:0|0:0,0:0:0:0:
88,56,97827,1,0,0:0:0:0:
192,112,98015,5,0,0:0:0:0:
80,152,98202,2,0,L|88:256,1,96,0|8,0:0|0:0,0:0:0:0:
400,320,98577,2,0,P|440:256|352:192,1,192,2|2,0:2|0:0,0:0:0:0:
240,176,99140,2,0,L|136:184,1,96,10|0,0:2|0:2,0:0:0:0:
416,40,99515,6,0,P|496:96|408:144,1,192,2|8,0:0|0:0,0:0:0:0:
336,168,100077,1,0,0:0:0:0:
456,320,100265,2,0,L|464:184,1,96,0|0,0:0|0:0,0:0:0:0:
336,168,100640,1,8,0:0:0:0:
464,120,100827,1,0,0:0:0:0:
184,104,101015,6,0,L|56:104,1,96,2|0,0:0|0:0,0:0:0:0:
280,192,101390,2,0,P|328:232|240:320,1,192,8|0,0:0|0:0,0:0:0:0:
120,336,101952,1,0,0:0:0:0:
288,256,102140,2,0,L|304:152,1,96,8|0,0:0|0:0,0:0:0:0:
240,128,102421,1,0,0:0:0:0:
24,208,102515,6,0,L|160:208,1,96,2|0,0:0|0:0,0:0:0:0:
368,208,102890,1,8,0:0:0:0:
264,208,103077,1,0,0:0:0:0:
456,120,103265,2,0,L|352:120,2,96,0|0|8,0:0|0:0|0:0,0:0:0:0:
96,72,103827,6,0,L|216:72,1,96,0|2,0:0|0:2,0:0:0:0:
304,72,104202,1,8,0:0:0:0:
112,168,104390,1,8,0:0:0:0:
232,288,104577,2,0,L|240:176,1,96,0|0,0:0|0:0,0:0:0:0:
112,168,104952,1,0,0:0:0:0:
288,120,105140,2,0,L|400:120,1,96,8|0,0:2|0:0,0:0:0:0:
80,48,105515,5,6,0:0:0:0:
160,96,105702,1,0,0:0:0:0:
88,152,105890,1,2,0:0:0:0:
16,184,106077,2,0,L|24:280,1,96,0|0,0:0|0:0,0:0:0:0:
128,304,106452,2,0,L|240:312,2,96,0|8|0,0:0|0:0|0:0,0:0:0:0:
384,192,107015,6,0,L|504:200,2,96,2|2|2,0:0|0:0|0:0,0:0:0:0:
232,104,107577,2,0,L|424:96,1,192,2|2,0:0|0:0,0:0:0:0:
280,184,108140,2,0,L|160:192,1,96,8|0,0:0|0:0,0:0:0:0:
376,272,108515,5,2,0:0:0:0:
288,224,108702,1,0,0:0:0:0:
384,168,108890,1,0,0:0:0:0:
264,168,109077,2,0,L|248:64,1,96,2|2,0:0|0:0,0:0:0:0:
392,72,109452,2,0,L|512:72,2,96,2|10|0,0:0|0:0|0:0,0:0:0:0:
104,128,110015,6,0,L|0:128,2,96,2|0|2,0:0|0:0|0:0,0:0:0:0:
392,240,110577,2,0,L|192:240,1,192,10|0,0:0|0:0,0:0:0:0:
408,328,111140,1,0,0:0:0:0:
449,305,111233,1,0,0:0:0:0:
473,264,111327,1,0,0:0:0:0:
472,217,111421,1,0,0:0:0:0:
280,120,111515,6,0,L|160:104,1,96,4|0,0:0|0:0,0:0:0:0:
472,56,111890,1,0,0:0:0:0:
352,112,112077,1,0,0:0:0:0:
357,159,112170,1,0,0:0:0:0:
363,207,112264,1,0,0:0:0:0:
480,248,112452,2,0,L|464:360,1,96,0|0,0:0|0:0,0:0:0:0:
336,352,112827,1,0,0:0:0:0:
64,272,113015,6,0,L|176:256,1,96,0|0,0:0|0:0,0:0:0:0:
304,208,113390,2,0,L|192:192,1,96,0|0,0:0|0:0,0:0:0:0:
480,88,113765,2,0,L|376:96,1,96,0|0,0:0|0:0,0:0:0:0:
40,112,114140,2,0,L|168:104,1,96,0|0,0:0|0:0,0:0:0:0:
384,336,114515,6,0,P|448:296|368:256,1,192,4|8,0:2|0:0,0:0:0:0:
256,256,115077,1,0,0:0:0:0:
392,176,115265,2,0,L|400:80,1,96,0|0,0:0|0:0,0:0:0:0:
136,88,115640,2,0,L|40:88,1,96,8|0,0:0|0:0,0:0:0:0:
216,160,116015,5,0,0:0:0:0:
104,248,116202,1,0,0:0:0:0:
448,320,116390,2,0,L|456:208,1,96,8|0,0:0|0:0,0:0:0:0:
176,184,116765,6,0,L|56:160,1,96,0|0,0:0|0:0,0:0:0:0:
328,128,117140,2,0,L|440:112,1,96,8|0,0:0|0:0,0:0:0:0:
376,120,117421,1,0,0:0:0:0:
144,112,117515,5,8,0:0:0:0:
456,216,117702,1,2,0:2:0:0:
144,304,118077,1,8,0:0:0:0:
456,216,118265,1,2,0:2:0:0:
152,208,118640,1,8,0:0:0:0:
456,216,118827,6,0,P|488:144|432:104,1,144,4|0,0:2|0:0,0:0:0:0:
160,80,119202,2,0,L|40:80,2,96,2|2|2,0:0|2:2|0:0,0:0:0:0:
432,80,119765,2,0,L|488:72,1,48,2|0,0:2|0:0,0:0:0:0:
168,288,119952,2,0,L|168:224,1,48,2|0,0:2|0:0,0:0:0:0:
368,224,120140,1,2,0:2:0:0:
408,201,120233,1,0,0:0:0:0:
414,155,120327,1,2,0:2:0:0:
381,122,120421,1,0,0:0:0:0:
136,104,120515,6,0,L|16:104,1,96,4|0,0:2|0:0,0:0:0:0:
360,184,120890,1,8,0:0:0:0:
32,304,121077,2,0,P|48:248|192:216,1,192,0|0,0:0|0:0,0:0:0:0:
304,224,121640,1,8,0:0:0:0:
40,104,121827,6,0,L|160:96,2,96,0|0|0,0:0|0:0|0:0,0:0:0:0:
432,144,122390,1,8,0:0:0:0:
152,248,122577,2,0,L|368:248,1,192,0|0,0:0|0:0,0:0:0:0:
176,160,123140,1,8,0:0:0:0:
146,123,123233,1,0,0:0:0:0:
149,76,123327,1,0,0:0:0:0:
183,44,123421,1,0,0:0:0:0:
392,56,123515,6,0,L|488:56,1,96,0|0,0:0|0:0,0:0:0:0:
336,128,123890,1,8,0:0:0:0:
48,264,124077,2,0,L|280:264,1,192,0|0,0:0|0:0,0:0:0:0:
144,264,124640,1,8,0:0:0:0:
424,280,124827,6,0,P|488:240|416:168,1,192,0|2,0:0|0:2,0:0:0:0:
304,160,125390,1,10,0:2:0:0:
432,72,125577,1,0,0:0:0:0:
136,64,125765,2,0,L|32:64,1,96,2|2,0:2|0:2,0:0:0:0:
360,152,126140,2,0,L|464:152,1,96,10|2,0:2|0:2,0:0:0:0:
200,328,126515,6,0,L|184:200,1,96,2|0,0:2|0:0,0:0:0:0:
328,168,126890,1,8,0:0:0:0:
80,56,127077,2,0,P|8:104|96:152,1,192,0|0,0:0|0:0,0:0:0:0:
160,168,127640,1,8,0:0:0:0:
432,304,127827,6,0,L|224:296,1,192,2|0,0:2|0:0,0:0:0:0:
376,232,128390,2,0,L|392:128,1,96,8|0,0:0|0:0,0:0:0:0:
272,112,128765,1,0,0:0:0:0:
384,64,128952,1,0,0:0:0:0:
112,80,129140,2,0,L|-16:80,1,96,8|0,0:0|0:0,0:0:0:0:
384,168,129515,6,0,L|488:168,2,96,2|0|8,0:2|0:0|0:0,0:0:0:0:
96,264,130077,2,0,P|48:232|120:152,1,192,2|0,0:2|0:0,0:0:0:0:
224,160,130640,1,8,0:0:0:0:
64,40,130827,6,0,P|40:104|96:160,1,144,6|0,0:2|0:0,0:0:0:0:
328,224,131202,2,0,L|440:224,1,96,0|8,0:0|0:0,0:0:0:0:
224,160,131577,1,0,0:0:0:0:
480,56,131765,2,0,L|464:152,1,96,8|0,0:0|0:0,0:0:0:0:
136,336,132140,2,0,L|120:232,1,96,8|0,0:0|0:0,0:0:0:0:
392,224,132515,6,0,L|496:232,2,96,4|0|8,0:2|0:0|0:0,0:0:0:0:
128,184,133077,2,0,L|352:168,1,192,0|0,0:0|0:0,0:0:0:0:
168,96,133640,1,8,0:0:0:0:
440,352,133827,6,0,P|488:280|400:192,1,192,0|0,0:0|0:0,0:0:0:0:
336,168,134390,1,8,0:0:0:0:
56,248,134577,2,0,P|112:264|248:232,1,192,0|0,0:0|0:0,0:0:0:0:
96,144,135140,2,0,L|64:40,1,96,0|0,0:0|0:0,0:0:0:0:
376,104,135515,6,0,L|496:112,2,96,0|0|8,0:0|0:0|0:0,0:0:0:0:
104,240,136077,2,0,L|336:216,1,192,0|0,0:0|0:0,0:0:0:0:
24,128,136640,1,8,0:0:0:0:
176,120,136827,1,0,0:0:0:0:
480,232,137015,6,0,L|368:224,1,96,2|2,0:2|0:2,0:0:0:0:
224,144,137390,2,0,L|336:128,1,96,10|2,0:2|0:2,0:0:0:0:
192,240,137765,1,0,0:0:0:0:
344,336,137952,2,0,L|352:232,1,96,2|10,0:2|0:2,0:0:0:0:
208,184,138327,1,2,0:2:0:0:
480,96,138515,6,0,L|376:104,2,96,2|0|8,0:2|0:0|0:0,0:0:0:0:
184,320,139077,2,0,P|144:264|224:184,1,192,0|0,0:0|0:0,0:0:0:0:
344,192,139640,1,8,0:0:0:0:
48,144,139827,6,0,L|272:120,1,192,2|0,0:2|0:0,0:0:0:0:
144,184,140390,1,8,0:0:0:0:
432,328,140577,2,0,L|440:120,1,192,0|0,0:0|0:0,0:0:0:0:
280,64,141140,1,0,0:0:0:0:
240,89,141233,1,0,0:0:0:0:
234,135,141327,1,0,0:0:0:0:
264,171,141421,1,0,0:0:0:0:
456,224,141515,6,0,L|344:232,1,96,2|0,0:2|0:0,0:0:0:0:
216,240,141890,1,8,0:0:0:0:
480,112,142077,2,0,P|424:80|304:112,1,192,2|0,0:2|0:0,0:0:0:0:
168,232,142640,1,8,0:0:0:0:
336,240,142827,1,0,0:0:0:0:
40,112,143015,6,0,L|144:112,2,96,4|0|0,0:2|0:0|0:0,0:0:0:0:
416,112,143577,1,0,0:0:0:0:
416,112,144140,6,0,L|304:112,2,96,4|0|0,0:2|0:0|0:0,0:0:0:0:
40,112,144702,1,0,0:0:0:0:
256,112,145077,5,0,0:0:0:0:
128,112,145265,2,0,L|224:112,1,96,4|0,0:2|0:0,0:0:0:0:
352,112,145640,2,0,P|416:160|392:216,1,144,0|0,0:0|0:0,0:0:0:0:
200,312,146015,6,0,L|0:280,1,192,4|8,0:2|0:1,0:0:0:0:
192,216,146577,1,0,0:0:0:0:
88,200,146765,2,0,L|80:88,1,96,0|0,0:0|0:0,0:0:0:0:
184,72,147140,2,0,L|280:64,1,96,8|0,0:1|0:0,0:0:0:0:
448,200,147515,6,0,L|256:184,2,192,0|8|0,0:0|0:1|0:0,0:0:0:0:
328,296,148452,1,0,0:0:0:0:
448,200,148640,2,0,L|456:88,1,96,8|0,0:1|0:0,0:0:0:0:
184,144,149015,6,0,L|80:152,2,96,0|0|8,0:0|0:0|0:0,0:0:0:0:
304,128,149577,1,2,0:2:0:0:
48,336,149765,2,0,L|48:216,1,96,0|0,0:0|0:0,0:0:0:0:
400,248,150140,6,0,L|504:264,2,96,8|0|0,0:0|0:0|0:0,0:0:0:0:
280,224,150702,1,2,0:2:0:0:
32,336,150890,2,0,L|24:224,1,96,8|0,0:0|0:0,0:0:0:0:
128,184,151265,1,0,0:0:0:0:
440,88,151452,2,0,L|320:88,1,96,2|0,0:2|0:0,0:0:0:0:
192,80,151827,1,0,0:0:0:0:
456,336,152015,6,0,P|480:272|368:200,1,192,0|8,0:0|0:1,0:0:0:0:
280,184,152577,1,0,0:0:0:0:
416,96,152765,2,0,L|296:96,1,96,0|0,0:0|0:0,0:0:0:0:
200,192,153140,2,0,L|312:192,1,96,8|0,0:1|0:0,0:0:0:0:
48,328,153515,6,0,L|32:224,1,96,0|0,0:0|0:0,0:0:0:0:
144,176,153890,2,0,L|248:160,1,96,8|0,0:1|0:0,0:0:0:0:
344,272,154265,2,0,L|232:256,1,96,0|0,0:0|0:0,0:0:0:0:
416,192,154640,2,0,L|512:160,1,96,8|0,0:1|0:0,0:0:0:0:
168,88,155015,5,0,0:0:0:0:
304,136,155202,1,0,0:0:0:0:
136,184,155390,2,0,L|128:288,1,96,0|0,0:0|0:0,0:0:0:0:
408,256,155765,2,0,P|480:224|376:96,1,288,4|0,0:2|0:0,0:0:0:0:
48,176,156515,2,0,L|176:176,1,96,0|0,0:0|0:0,0:0:0:0:
400,320,156890,6,0,P|464:280|352:160,1,288,4|0,0:2|0:0,0:0:0:0:
248,208,157640,1,0,0:0:0:0:
400,232,157827,1,0,0:0:0:0:
136,112,158015,6,0,L|32:120,2,96,4|0|8,0:0|0:0|0:0,0:0:0:0:
248,112,158577,2,0,P|312:136|240:216,1,192,0|0,0:0|0:0,0:0:0:0:
112,240,159140,2,0,L|136:344,1,96,8|0,0:0|0:0,0:0:0:0:
432,344,159515,6,0,L|456:208,1,96,2|0,0:2|0:0,0:0:0:0:
296,240,159890,2,0,L|272:128,1,96,10|0,0:2|0:0,0:0:0:0:
416,72,160265,1,0,0:0:0:0:
488,128,160452,1,0,0:0:0:0:
477,219,160640,1,10,0:2:0:0:
393,257,160827,1,0,0:0:0:0:
112,336,161015,6,0,L|96:224,1,96,2|0,0:2|0:0,0:0:0:0:
288,200,161390,1,8,0:0:0:0:
32,80,161577,2,0,L|248:88,1,192,0|0,0:0|0:0,0:0:0:0:
128,272,162140,2,0,L|112:168,1,96,8|0,0:0|0:0,0:0:0:0:
384,64,162515,6,0,P|456:112|400:200,1,192,2|8,0:2|0:0,0:0:0:0:
272,216,163077,1,0,0:0:0:0:
424,352,163265,2,0,L|432:248,1,96,0|0,0:0|0:0,0:0:0:0:
272,216,163640,1,8,0:0:0:0:
243,178,163733,1,0,0:0:0:0:
245,131,163827,1,0,0:0:0:0:
277,97,163921,1,0,0:0:0:0:
464,48,164015,6,0,L|456:152,1,96,8|0,0:0|0:0,0:0:0:0:
200,328,164390,2,0,P|152:264|232:200,1,192,8|8,0:0|0:0,0:0:0:0:
352,200,164952,1,0,0:0:0:0:
64,96,165140,1,8,0:0:0:0:
400,56,165327,6,0,P|456:80|384:160,1,192,0|0,0:0|0:0,0:0:0:0:
280,160,165890,2,0,L|176:160,1,96,8|0,0:0|0:0,0:0:0:0:
480,360,166265,2,0,L|488:240,1,96,8|0,0:0|0:0,0:0:0:0:
128,288,166640,2,0,L|112:176,1,96,8|0,0:0|0:0,0:0:0:0:
432,88,167015,5,8,0:0:0:0:
120,192,167202,1,2,0:2:0:0:
376,216,167577,1,8,0:0:0:0:
64,120,167765,1,2,0:2:0:0:
320,112,168140,1,8,0:0:0:0:
16,240,168327,6,0,P|48:192|192:160,1,192,6|0,0:2|0:0,0:0:0:0:
344,256,168890,2,0,L|224:256,1,96,0|0,0:0|0:0,0:0:0:0:
400,336,169265,1,0,0:0:0:0:
473,280,169452,1,0,0:0:0:0:
471,187,169640,1,0,0:0:0:0:
394,136,169827,1,0,0:0:0:0:
96,96,170015,5,2,0:2:0:0:
256,192,176015,12,0,178265,0:0:0:0:
256,192,178452,5,0,3:0:0:0:
112,200,178640,2,0,P|88:152|160:88,1,144,2|0,0:2|2:0,0:0:0:0:
376,88,179015,6,0,L|480:96,2,96,12|8|0,0:2|0:1|0:0,0:0:0:0:
64,88,179577,1,8,0:1:0:0:
192,152,179765,2,0,L|184:256,1,96,0|0,0:0|0:0,0:0:0:0:
48,296,180140,1,8,0:1:0:0:
392,312,180327,6,0,P|448:280|400:192,1,144,8|0,0:1|0:0,0:0:0:0:
208,112,180702,2,0,L|104:96,1,96,0|8,0:0|0:1,0:0:0:0:
424,56,181077,1,0,0:0:0:0:
88,328,181265,2,0,L|56:208,1,96,8|0,0:1|0:0,0:0:0:0:
416,208,181640,2,0,L|440:104,1,96,8|0,0:1|0:0,0:0:0:0:
152,144,182015,6,0,L|24:144,1,96,4|0,0:2|0:0,0:0:0:0:
432,96,182390,1,8,0:0:0:0:
155,278,182577,2,0,P|99:230|171:142,1,192,0|0,0:0|0:0,0:0:0:0:
432,96,183140,1,8,0:0:0:0:
152,88,183327,6,0,L|280:88,2,96,0|0|0,0:0|0:0|0:0,0:0:0:0:
64,88,183890,1,8,0:0:0:0:
376,304,184077,2,0,P|448:256|368:208,1,192,0|0,0:0|0:0,0:0:0:0:
240,208,184640,1,8,0:0:0:0:
210,171,184733,1,0,0:0:0:0:
214,124,184827,1,0,0:0:0:0:
248,92,184921,1,0,0:0:0:0:
416,96,185015,6,0,L|512:96,1,96,0|0,0:0|0:0,0:0:0:0:
368,96,185390,1,8,0:0:0:0:
88,320,185577,2,0,P|120:280|272:248,1,192,0|0,0:0|0:0,0:0:0:0:
104,184,186140,1,8,0:0:0:0:
384,304,186327,6,0,P|456:240|376:208,1,192,0|2,0:0|0:2,0:0:0:0:
88,192,186890,1,10,0:2:0:0:
424,80,187077,1,0,0:0:0:0:
176,64,187265,2,0,L|72:64,2,96,2|2|10,0:2|0:2|0:2,0:0:0:0:
304,64,187827,1,2,0:2:0:0:
56,168,188015,6,0,L|184:168,2,96,2|0|8,0:2|0:0|0:0,0:0:0:0:
384,336,188577,2,0,P|448:288|368:216,1,192,0|0,0:0|0:0,0:0:0:0:
216,208,189140,1,8,0:0:0:0:
464,112,189327,6,0,L|344:112,2,96,0|0|0,0:0|0:0|0:0,0:0:0:0:
320,112,189890,1,8,0:0:0:0:
48,224,190077,2,0,L|264:224,1,192,0|0,0:0|0:0,0:0:0:0:
112,144,190640,1,8,0:0:0:0:
81,108,190733,1,0,0:0:0:0:
86,61,190827,1,0,0:0:0:0:
123,32,190921,1,0,0:0:0:0:
336,32,191015,6,0,L|440:32,1,96,2|0,0:2|0:0,0:0:0:0:
136,88,191390,1,8,0:0:0:0:
408,304,191577,2,0,P|480:264|392:224,1,192,2|0,0:2|0:0,0:0:0:0:
312,200,192140,1,8,0:0:0:0:
464,128,192327,1,6,0:2:0:0:
208,112,192515,6,0,L|96:112,1,96,0|0,0:0|0:0,0:0:0:0:
304,112,192890,1,8,0:0:0:0:
192,296,193077,2,0,L|184:184,1,96,0|8,0:0|0:0,0:0:0:0:
312,112,193452,1,0,0:0:0:0:
128,80,193640,2,0,L|24:80,1,96,8|0,0:1|0:0,0:0:0:0:
376,192,194015,6,0,L|480:192,2,96,4|0|8,0:2|0:0|0:0,0:0:0:0:
40,280,194577,2,0,P|64:216|208:200,1,192,0|0,0:0|0:0,0:0:0:0:
288,200,195140,1,8,0:0:0:0:
32,120,195327,6,0,L|248:112,1,192,0|0,0:0|0:0,0:0:0:0:
128,64,195890,1,8,0:0:0:0:
440,64,196077,2,0,P|504:96|424:160,1,192,0|0,0:0|0:0,0:0:0:0:
312,168,196640,2,0,L|248:168,1,48,8|0,0:0|0:0,0:0:0:0:
312,168,196827,2,0,L|368:168,1,48,0|0,0:0|2:0,0:0:0:0:
144,248,197015,6,0,L|32:248,2,96,0|0|8,0:0|0:0|0:0,0:0:0:0:
424,256,197577,2,0,P|488:224|416:160,1,192,0|0,0:0|0:0,0:0:0:0:
72,104,198140,2,0,L|184:104,1,96,8|0,0:0|0:0,0:0:0:0:
448,104,198515,5,0,0:0:0:0:
328,192,198702,2,0,L|328:296,1,96,2|10,0:2|0:2,0:0:0:0:
456,352,199077,1,2,0:2:0:0:
328,192,199265,2,0,L|224:192,2,96,0|2|10,0:0|0:2|0:2,0:0:0:0:
456,192,199827,1,2,0:2:0:0:
160,144,200015,6,0,L|56:144,1,96,6|0,0:2|0:0,0:0:0:0:
400,96,200390,1,8,0:0:0:0:
80,320,200577,2,0,P|112:264|232:224,1,192,0|0,0:0|0:0,0:0:0:0:
480,232,201140,1,8,0:0:0:0:
128,232,201327,6,0,P|80:192|176:104,1,192,0|0,0:0|0:0,0:0:0:0:
464,96,201890,1,8,0:0:0:0:
184,176,202077,2,0,P|80:176|48:80,1,192,2|0,0:2|0:0,0:0:0:0:
216,104,202640,1,8,0:0:0:0:
253,132,202733,1,0,0:0:0:0:
264,178,202827,1,0,0:0:0:0:
244,220,202921,1,0,0:0:0:0:
32,288,203015,5,8,0:1:0:0:
152,288,203202,2,0,L|272:288,1,96,0|0,0:0|0:0,0:0:0:0:
96,216,203577,2,0,L|304:216,1,192,0|0,0:0|0:0,0:0:0:0:
168,152,204140,1,0,0:0:0:0:
472,160,204327,5,0,0:0:0:0:
256,192,204515,12,0,205640,0:0:0:0:
224,240,205827,6,0,L|208:176,1,48,0|0,0:0|0:0,0:0:0:0:
416,192,206015,2,0,L|440:80,1,96,8|0,0:0|0:0,0:0:0:0:
80,208,206390,2,0,L|64:96,1,96,8|0,0:0|0:0,0:0:0:0:
352,136,206765,6,0,L|432:136,1,48,0|0,0:0|0:0,0:0:0:0:
192,208,206952,2,0,L|128:208,1,48,0|0,0:0|0:0,0:0:0:0:
400,320,207140,1,8,0:0:0:0:
438,293,207233,1,0,0:0:0:0:
448,247,207327,1,0,0:0:0:0:
425,206,207421,1,0,0:0:0:0:
192,168,207515,6,0,L|88:152,1,96,6|0,0:2|0:0,0:0:0:0:
288,112,207890,2,0,L|296:216,1,96,10|0,0:2|0:0,0:0:0:0:
128,328,208265,2,0,P|80:280|160:208,1,192,2|10,0:2|0:2,0:0:0:0:
272,216,208827,1,0,0:0:0:0:
120,128,209015,6,0,L|312:120,2,192,2|10|2,0:2|0:2|0:2,0:0:0:0:
432,184,209952,1,0,0:0:0:0:
296,328,210140,2,0,L|288:216,1,96,10|0,0:2|0:0,0:0:0:0:
456,112,210515,6,0,L|336:120,2,96,2|2|10,0:2|0:2|0:2,0:0:0:0:
192,96,211077,2,0,P|136:144|208:248,1,192,2|0,0:2|0:0,0:0:0:0:
304,264,211640,2,0,L|408:272,2,96,10|2|2,0:2|0:2|0:2,0:0:0:0:
40,312,212202,6,0,P|72:256|200:232,1,192,2|0,0:2|0:0,0:0:0:0:
56,176,212765,2,0,L|48:72,1,96,2|0,0:2|0:0,0:0:0:0:
488,136,213140,2,0,L|472:248,1,96,10|0,0:2|0:0,0:0:0:0:
200,336,213515,6,0,P|144:288|232:216,1,192,6|8,0:2|0:0,0:0:0:0:
320,208,214077,1,2,0:2:0:0:
224,128,214265,2,0,L|128:128,1,96,0|0,0:0|0:0,0:0:0:0:
320,72,214640,2,0,L|416:72,1,96,8|2,0:0|0:2,0:0:0:0:
80,304,215015,6,0,P|104:256|248:224,1,192,0|8,0:0|0:0,0:0:0:0:
400,136,215577,2,0,L|304:136,1,96,0|0,0:0|0:0,0:0:0:0:
432,192,215952,1,0,0:0:0:0:
128,304,216140,2,0,L|104:176,1,96,8|0,0:0|0:0,0:0:0:0:
416,336,216515,6,0,P|472:288|432:192,1,192,0|8,0:0|0:0,0:0:0:0:
128,240,217077,2,0,P|80:176|160:112,1,192,0|0,0:0|0:0,0:0:0:0:
264,112,217640,2,0,L|368:112,1,96,8|4,0:0|0:2,0:0:0:0:
48,208,218015,6,0,L|160:208,2,96,0|0|8,0:0|0:0|0:0,0:0:0:0:
336,304,218577,2,0,P|392:256|312:192,1,192,0|0,0:0|0:0,0:0:0:0:
448,144,219140,2,0,L|480:272,1,96,8|0,0:0|0:0,0:0:0:0:
216,120,219515,6,0,L|120:120,1,96,6|0,0:2|0:0,0:0:0:0:
248,192,219890,2,0,L|352:192,1,96,10|0,0:2|0:0,0:0:0:0:
144,352,220265,2,0,B|120:248|120:248|240:208,1,192,2|10,0:2|0:2,0:0:0:0:
296,184,220827,1,0,0:0:0:0:
184,96,221015,6,0,L|400:96,2,192,2|10|2,0:2|0:2|0:2,0:0:0:0:
80,96,221952,1,0,0:0:0:0:
272,96,222140,2,0,L|400:96,1,96,10|0,0:2|0:0,0:0:0:0:
48,224,222515,6,0,L|176:224,2,96,2|2|10,0:2|0:2|0:2,0:0:0:0:
400,304,223077,2,0,P|448:248|352:160,1,192,2|0,0:2|0:0,0:0:0:0:
288,160,223640,2,0,L|168:160,2,96,10|2|2,0:2|0:2|0:2,0:0:0:0:
16,176,224202,6,0,P|80:224|184:152,1,192,2|2,0:2|0:2,0:0:0:0:
56,128,224765,2,0,L|40:16,1,96,0|0,0:0|0:0,0:0:0:0:
424,328,225140,2,0,L|432:192,1,96,10|0,0:2|0:0,0:0:0:0:
152,280,225515,6,0,P|112:200|184:128,1,192,6|8,0:2|0:0,0:0:0:0:
296,120,226077,1,0,0:0:0:0:
160,72,226265,2,0,L|56:72,1,96,0|0,0:0|0:0,0:0:0:0:
392,192,226640,2,0,L|496:192,1,96,8|0,0:0|0:0,0:0:0:0:
152,280,227015,6,0,P|56:256|16:160,2,192,2|8|0,0:2|0:0|0:0,0:0:0:0:
320,264,227952,1,0,0:0:0:0:
32,112,228140,2,0,L|144:112,1,96,8|0,0:0|0:0,0:0:0:0:
472,184,228515,6,0,L|368:184,1,96,2|0,0:2|0:0,0:0:0:0:
72,176,228890,1,8,0:0:0:0:
392,328,229077,2,0,P|464:280|400:216,1,192,6|0,0:2|0:2,0:0:0:0:
80,232,229640,1,8,0:0:0:0:
392,56,229827,6,0,P|456:112|456:256,1,192,6|0,0:2|0:0,0:0:0:0:
320,336,230390,2,0,L|320:224,1,96,8|0,0:0|0:0,0:0:0:0:
456,144,230765,1,8,0:0:0:0:
312,80,230952,2,0,L|240:72,1,48,0|0,0:0|0:0,0:0:0:0:
448,216,231140,2,0,L|504:224,1,48,8|0,0:1|0:0,0:0:0:0:
248,232,231327,2,0,L|176:240,1,48,0|0,0:0|0:0,0:0:0:0:
440,352,231515,6,0,L|464:240,1,96,4|0,0:2|0:0,0:0:0:0:
352,184,231890,1,8,0:0:0:0:
104,80,232077,2,0,P|32:112|120:176,1,192,0|0,0:0|0:0,0:0:0:0:
192,192,232640,1,8,0:0:0:0:
472,280,232827,6,0,P|424:312|288:264,1,192,0|0,0:0|0:0,0:0:0:0:
392,224,233390,1,8,0:0:0:0:
80,168,233577,2,0,L|288:144,1,192,0|0,0:0|0:0,0:0:0:0:
104,64,234140,1,8,0:0:0:0:
416,56,234327,6,0,P|464:96|416:208,1,192,0|0,0:0|0:0,0:0:0:0:
120,232,234890,1,8,0:0:0:0:
416,344,235077,2,0,L|432:240,1,96,0|0,0:0|0:0,0:0:0:0:
160,200,235452,2,0,L|136:96,1,96,0|8,0:0|0:0,0:0:0:0:
408,64,235827,6,0,P|480:120|392:160,1,192,0|0,0:0|0:0,0:0:0:0:
304,184,236390,2,0,L|192:176,1,96,10|0,0:2|0:0,0:0:0:0:
408,336,236765,2,0,L|432:232,1,96,2|0,0:2|0:0,0:0:0:0:
152,240,237140,1,10,0:2:0:0:
105,231,237233,1,0,0:0:0:0:
74,196,237327,1,0,0:0:0:0:
70,149,237421,1,0,0:0:0:0:
336,120,237515,6,0,L|528:112,2,192,2|8|0,0:2|0:0|0:0,0:0:0:0:
176,128,238452,1,0,0:0:0:0:
448,352,238640,2,0,L|464:232,1,96,8|0,0:0|0:0,0:0:0:0:
112,272,239015,6,0,P|64:208|144:152,1,192,2|8,0:2|0:0,0:0:0:0:
408,40,239577,2,0,P|472:96|400:160,1,192,0|0,0:0|0:0,0:0:0:0:
344,160,240046,1,0,0:0:0:0:
136,152,240140,2,0,L|24:144,1,96,8|0,0:0|0:0,0:0:0:0:
344,160,240515,5,8,0:0:0:0:
40,232,240702,1,4,0:2:0:0:
344,272,241077,1,8,0:0:0:0:
96,168,241265,1,4,0:2:0:0:
424,144,241640,1,8,0:0:0:0:
80,304,241827,6,0,P|120:208|184:192,1,144,4|0,0:2|0:0,0:0:0:0:
368,200,242202,2,0,L|480:200,1,96,0|8,0:0|0:0,0:0:0:0:
144,120,242577,1,0,0:0:0:0:
272,120,242765,6,0,L|336:120,1,48,0|0,0:0|0:0,0:0:0:0:
160,208,242952,2,0,L|80:208,1,48,8|0,0:0|0:0,0:0:0:0:
400,280,243140,2,0,L|456:280,1,48,8|0,0:0|0:0,0:0:0:0:
72,280,243327,5,4,0:2:0:0:
256,192,243515,12,0,248015,0:0:0:0:
