osu file format v14

[General]
AudioFilename: audio.mp3
AudioLeadIn: 0
PreviewTime: 52740
Countdown: 0
SampleSet: Soft
StackLeniency: 0.7
Mode: 3
LetterboxInBreaks: 0
SpecialStyle: 0
WidescreenStoryboard: 0

[Editor]
DistanceSpacing: 1
BeatDivisor: 6
GridSize: 4
TimelineZoom: 2.2

[Metadata]
Title:Hikaru Nara -TV size-
TitleUnicode:Hikaru Nara -TV size-
Artist:Goose house
ArtistUnicode:Goose house
Creator:misternopal
Version:HD
Source:Shigatsu wa Kimi no Uso 四月は君の嘘
Tags:Your Lie In April Shigatsu wa Kimi no Uso opening1 Ramul
BeatmapID:1166476
BeatmapSetID:550607

[Difficulty]
HPDrainRate:8
CircleSize:4
OverallDifficulty:8
ApproachRate:5
SliderMultiplier:1.4
SliderTickRate:1

[Events]
//Background and Video events
0,0,"hd.jpg",0,0
//Break Periods
//Storyboard Layer 0 (Background)
//Storyboard Layer 1 (Fail)
//Storyboard Layer 2 (Pass)
//Storyboard Layer 3 (Foreground)
//Storyboard Sound Samples

[TimingPoints]
307,375,4,2,1,44,1,0
4799,-100,4,2,1,44,0,0
52807,-100,4,2,1,44,0,1
76807,-100,4,2,1,44,0,0

[HitObjects]
448,192,307,5,2,0:0:0:0:
320,192,494,1,2,0:0:0:0:
192,192,682,1,2,0:0:0:0:
320,192,869,128,0,1244:0:0:0:0:
64,192,1244,1,2,0:0:0:0:
192,192,1432,1,0,0:0:0:0:
448,192,1619,128,2,1994:0:0:0:0:
192,192,1994,1,2,0:0:0:0:
64,192,2182,1,2,0:0:0:0:
320,192,2369,1,2,0:0:0:0:
192,192,3119,1,0,0:0:0:0:
320,192,3213,1,0,0:0:0:0:
64,192,3307,1,0,0:0:0:0:
448,192,3307,1,0,0:0:0:0:
192,192,3307,1,0,0:0:0:0:
320,192,3494,1,0,0:0:0:0:
192,192,3682,1,0,0:0:0:0:
448,192,3682,1,0,0:0:0:0:
64,192,3682,1,0,0:0:0:0:
192,192,3869,1,0,0:0:0:0:
448,192,4057,1,0,0:0:0:0:
64,192,4244,1,0,0:0:0:0:
192,192,4244,1,0,0:0:0:0:
320,192,4244,1,0,0:0:0:0:
320,192,4432,1,0,0:0:0:0:
448,192,4432,128,0,4807:0:0:0:0:
192,192,4432,1,0,0:0:0:0:
64,192,4619,1,0,0:0:0:0:
64,192,4807,1,4,0:0:0:0:
192,192,4807,1,4,0:0:0:0:
448,192,4994,1,4,0:0:0:0:
192,192,5182,1,0,0:0:0:0:
64,192,5182,1,0,0:0:0:0:
320,192,5369,1,0,0:0:0:0:
192,192,5557,1,0,0:0:0:0:
64,192,5744,1,0,0:0:0:0:
320,192,5932,1,0,0:0:0:0:
192,192,5932,1,0,0:0:0:0:
448,192,5932,1,0,0:0:0:0:
448,192,6119,1,0,0:0:0:0:
64,192,6307,1,0,0:0:0:0:
192,192,6494,1,0,0:0:0:0:
192,192,6682,1,0,0:0:0:0:
320,192,6682,1,0,0:0:0:0:
448,192,6682,1,0,0:0:0:0:
64,192,6869,1,0,0:0:0:0:
320,192,7057,1,0,0:0:0:0:
64,192,7244,1,0,0:0:0:0:
448,192,7244,1,0,0:0:0:0:
192,192,7432,1,0,0:0:0:0:
320,192,7432,1,0,0:0:0:0:
64,192,7619,128,0,8182:0:0:0:0:
320,192,7807,1,0,0:0:0:0:
192,192,7807,1,0,0:0:0:0:
320,192,8182,128,0,8369:0:0:0:0:
192,192,8182,1,0,0:0:0:0:
448,192,8369,128,0,8744:0:0:0:0:
64,192,8557,1,0,0:0:0:0:
320,192,8744,1,0,0:0:0:0:
192,192,8744,128,0,9119:0:0:0:0:
448,192,8932,1,0,0:0:0:0:
320,192,9119,128,0,10057:0:0:0:0:
64,192,9307,1,0,0:0:0:0:
192,192,9682,1,0,0:0:0:0:
64,192,10057,128,0,10432:0:0:0:0:
448,192,10057,1,0,0:0:0:0:
192,192,10244,1,0,0:0:0:0:
320,192,10244,1,2,0:0:0:0:
320,192,10432,1,2,0:0:0:0:
192,192,10432,128,0,10807:0:0:0:0:
448,192,10432,1,2,0:0:0:0:
320,192,10807,1,2,0:0:0:0:
448,192,10807,1,2,0:0:0:0:
64,192,10807,128,0,11182:0:0:0:0:
320,192,10994,1,2,0:0:0:0:
448,192,10994,1,2,0:0:0:0:
192,192,11182,128,0,11557:0:0:0:0:
320,192,11369,1,2,0:0:0:0:
448,192,11557,128,0,11932:0:0:0:0:
64,192,11557,1,2,0:0:0:0:
320,192,11932,1,2,0:0:0:0:
192,192,11932,128,0,12307:0:0:0:0:
320,192,12119,1,2,0:0:0:0:
448,192,12119,1,2,0:0:0:0:
64,192,12307,128,0,12682:0:0:0:0:
192,192,12682,128,0,12869:0:0:0:0:
320,192,12869,128,0,13057:0:0:0:0:
448,192,13307,1,0,0:0:0:0:
320,192,13619,1,2,0:0:0:0:
192,192,13619,1,2,0:0:0:0:
192,192,13807,1,2,0:0:0:0:
64,192,13807,1,2,0:0:0:0:
448,192,13807,1,0,0:0:0:0:
64,192,14369,1,2,0:0:0:0:
192,192,14557,1,2,0:0:0:0:
320,192,14557,1,2,0:0:0:0:
448,192,14744,1,0,0:0:0:0:
320,192,14744,1,0,0:0:0:0:
64,192,14932,1,2,0:0:0:0:
192,192,14932,1,2,0:0:0:0:
320,192,15119,1,2,0:0:0:0:
448,192,15307,1,2,0:0:0:0:
64,192,15307,1,2,0:0:0:0:
64,192,15682,1,2,0:0:0:0:
192,192,15682,1,0,0:0:0:0:
320,192,16057,1,2,0:0:0:0:
192,192,16057,1,2,0:0:0:0:
64,192,16244,1,2,0:0:0:0:
192,192,16244,1,2,0:0:0:0:
320,192,16432,1,2,0:0:0:0:
192,192,16432,1,2,0:0:0:0:
320,192,16619,1,2,0:0:0:0:
320,192,16807,1,2,0:0:0:0:
448,192,16807,1,2,0:0:0:0:
64,192,16807,1,2,0:0:0:0:
192,192,17182,1,2,0:0:0:0:
448,192,17182,1,2,0:0:0:0:
192,192,17369,1,2,0:0:0:0:
64,192,17557,1,2,0:0:0:0:
448,192,17744,1,2,0:0:0:0:
192,192,17932,1,2,0:0:0:0:
64,192,17932,1,2,0:0:0:0:
448,192,18119,1,2,0:0:0:0:
192,192,18307,1,2,0:0:0:0:
320,192,18307,1,0,0:0:0:0:
448,192,18494,1,2,0:0:0:0:
64,192,18494,1,2,0:0:0:0:
192,192,18682,1,2,0:0:0:0:
64,192,18869,1,2,0:0:0:0:
320,192,18869,1,0,0:0:0:0:
448,192,19057,1,2,0:0:0:0:
320,192,19244,1,2,0:0:0:0:
448,192,19244,1,0,0:0:0:0:
192,192,19432,1,2,0:0:0:0:
64,192,19432,1,2,0:0:0:0:
192,192,19619,1,2,0:0:0:0:
320,192,19807,1,2,0:0:0:0:
448,192,19807,1,2,0:0:0:0:
64,192,19807,1,2,0:0:0:0:
192,192,20182,1,2,0:0:0:0:
64,192,20182,1,2,0:0:0:0:
448,192,20182,1,2,0:0:0:0:
320,192,20557,128,2,20932:0:0:0:0:
64,192,20557,1,2,0:0:0:0:
192,192,20744,1,2,0:0:0:0:
448,192,20932,128,2,21307:0:0:0:0:
64,192,20932,1,2,0:0:0:0:
192,192,21119,1,2,0:0:0:0:
64,192,21307,128,2,21682:0:0:0:0:
320,192,21307,1,2,0:0:0:0:
192,192,21682,128,2,22057:0:0:0:0:
64,192,22057,1,2,0:0:0:0:
320,192,22057,1,2,0:0:0:0:
192,192,22244,1,2,0:0:0:0:
448,192,22244,1,2,0:0:0:0:
64,192,22432,1,2,0:0:0:0:
192,192,22432,1,2,0:0:0:0:
320,192,22619,1,2,0:0:0:0:
448,192,22807,128,2,23182:0:0:0:0:
320,192,22994,1,2,0:0:0:0:
64,192,23182,128,2,23557:0:0:0:0:
192,192,23182,128,2,23557:0:0:0:0:
320,192,23557,1,2,0:0:0:0:
448,192,23557,1,2,0:0:0:0:
320,192,23744,1,2,0:0:0:0:
64,192,23744,1,2,0:0:0:0:
192,192,23932,1,2,0:0:0:0:
320,192,23932,1,2,0:0:0:0:
448,192,24119,1,2,0:0:0:0:
192,192,24307,1,2,0:0:0:0:
64,192,24307,1,2,0:0:0:0:
448,192,24494,1,2,0:0:0:0:
320,192,24682,1,2,0:0:0:0:
192,192,24682,1,0,0:0:0:0:
64,192,24869,1,0,0:0:0:0:
320,192,25057,1,2,0:0:0:0:
192,192,25057,1,0,0:0:0:0:
320,192,25244,1,2,0:0:0:0:
64,192,25244,1,2,0:0:0:0:
192,192,25432,1,2,0:0:0:0:
448,192,25432,1,2,0:0:0:0:
64,192,25619,1,2,0:0:0:0:
320,192,25807,1,2,0:0:0:0:
448,192,25807,1,10,0:0:0:0:
192,192,25807,1,2,0:0:0:0:
192,192,26182,1,2,0:0:0:0:
320,192,26182,1,2,0:0:0:0:
320,192,26557,1,0,0:0:0:0:
448,192,26557,1,0,0:0:0:0:
64,192,26557,1,0,0:0:0:0:
192,192,26744,1,0,0:0:0:0:
320,192,26932,1,0,0:0:0:0:
448,192,26932,1,0,0:0:0:0:
192,192,27119,1,0,0:0:0:0:
320,192,27307,1,0,0:0:0:0:
64,192,27307,128,0,27682:0:0:0:0:
448,192,27307,1,0,0:0:0:0:
192,192,27682,1,0,0:0:0:0:
192,192,28057,1,0,0:0:0:0:
320,192,28057,1,0,0:0:0:0:
64,192,28244,1,0,0:0:0:0:
192,192,28244,1,0,0:0:0:0:
320,192,28432,1,0,0:0:0:0:
448,192,28432,1,0,0:0:0:0:
320,192,28619,1,0,0:0:0:0:
192,192,28807,1,0,0:0:0:0:
64,192,28807,1,0,0:0:0:0:
448,192,28807,1,0,0:0:0:0:
448,192,29182,1,0,0:0:0:0:
320,192,29182,1,0,0:0:0:0:
64,192,29182,1,0,0:0:0:0:
64,192,29557,128,0,29744:0:0:0:0:
448,192,29557,128,0,29744:0:0:0:0:
192,192,29557,128,0,29744:0:0:0:0:
320,192,29744,1,0,0:0:0:0:
320,192,29932,1,0,0:0:0:0:
192,192,29932,1,0,0:0:0:0:
448,192,30119,1,0,0:0:0:0:
320,192,30307,1,0,0:0:0:0:
192,192,30307,1,0,0:0:0:0:
64,192,30307,128,0,31807:0:0:0:0:
448,192,30494,1,0,0:0:0:0:
320,192,30682,1,0,0:0:0:0:
448,192,30869,1,0,0:0:0:0:
320,192,31057,1,0,0:0:0:0:
192,192,31244,1,0,0:0:0:0:
320,192,31432,1,0,0:0:0:0:
192,192,31619,1,0,0:0:0:0:
192,192,31807,1,8,0:0:0:0:
320,192,31807,1,8,0:0:0:0:
448,192,31807,1,0,0:0:0:0:
192,192,32182,1,0,0:0:0:0:
320,192,32182,1,8,0:0:0:0:
448,192,32557,128,0,32932:0:0:0:0:
64,192,32557,1,0,0:0:0:0:
320,192,32557,1,8,0:0:0:0:
192,192,32744,1,8,0:0:0:0:
64,192,32932,1,0,0:0:0:0:
320,192,32932,1,8,0:0:0:0:
448,192,33307,1,8,0:0:0:0:
320,192,33307,1,0,0:0:0:0:
64,192,33682,1,8,0:0:0:0:
192,192,33682,1,0,0:0:0:0:
320,192,33682,1,0,0:0:0:0:
320,192,34057,1,8,0:0:0:0:
448,192,34057,1,0,0:0:0:0:
64,192,34057,1,0,0:0:0:0:
192,192,34244,1,8,0:0:0:0:
320,192,34432,1,0,0:0:0:0:
192,192,34432,1,8,0:0:0:0:
64,192,34432,1,0,0:0:0:0:
192,192,34807,1,8,0:0:0:0:
64,192,34807,1,0,0:0:0:0:
448,192,34994,1,0,0:0:0:0:
320,192,35182,1,0,0:0:0:0:
64,192,35369,1,0,0:0:0:0:
192,192,35557,1,8,0:0:0:0:
320,192,35557,1,0,0:0:0:0:
320,192,35744,1,0,0:0:0:0:
64,192,35932,1,0,0:0:0:0:
448,192,35932,1,0,0:0:0:0:
192,192,35932,1,8,0:0:0:0:
192,192,36119,1,0,0:0:0:0:
64,192,36307,1,0,0:0:0:0:
320,192,36307,1,0,0:0:0:0:
448,192,36307,1,0,0:0:0:0:
320,192,36494,1,8,0:0:0:0:
64,192,36682,1,0,0:0:0:0:
192,192,36682,1,8,0:0:0:0:
448,192,36682,1,0,0:0:0:0:
320,192,36869,1,8,0:0:0:0:
192,192,37057,1,0,0:0:0:0:
448,192,37057,1,0,0:0:0:0:
320,192,37244,1,8,0:0:0:0:
64,192,37432,1,0,0:0:0:0:
192,192,37432,1,0,0:0:0:0:
64,192,37619,1,8,0:0:0:0:
320,192,37807,1,0,0:0:0:0:
448,192,37807,1,0,0:0:0:0:
192,192,37807,1,8,0:0:0:0:
192,192,37994,1,2,0:0:0:0:
320,192,37994,1,2,0:0:0:0:
64,192,37994,128,2,38182:0:0:0:0:
448,192,38182,1,0,0:0:0:0:
192,192,38369,1,2,0:0:0:0:
320,192,38557,1,2,0:0:0:0:
448,192,38744,1,2,0:0:0:0:
64,192,38932,1,2,0:0:0:0:
192,192,38932,1,0,0:0:0:0:
320,192,39119,1,2,0:0:0:0:
64,192,39307,1,2,0:0:0:0:
192,192,39307,1,2,0:0:0:0:
448,192,39307,1,0,0:0:0:0:
320,192,39494,1,2,0:0:0:0:
448,192,39494,1,2,0:0:0:0:
192,192,39682,1,2,0:0:0:0:
64,192,39682,1,2,0:0:0:0:
320,192,39869,1,2,0:0:0:0:
448,192,39869,1,2,0:0:0:0:
192,192,40057,1,2,0:0:0:0:
320,192,40057,1,2,0:0:0:0:
64,192,40244,1,2,0:0:0:0:
320,192,40432,1,2,0:0:0:0:
448,192,40432,1,2,0:0:0:0:
192,192,40619,1,2,0:0:0:0:
64,192,40807,1,2,0:0:0:0:
448,192,40807,1,2,0:0:0:0:
192,192,40994,1,2,0:0:0:0:
320,192,40994,1,2,0:0:0:0:
320,192,41182,1,2,0:0:0:0:
64,192,41369,1,2,0:0:0:0:
448,192,41369,1,2,0:0:0:0:
192,192,41557,1,2,0:0:0:0:
64,192,41744,1,2,0:0:0:0:
192,192,41932,1,2,0:0:0:0:
448,192,41932,1,0,0:0:0:0:
320,192,42119,1,2,0:0:0:0:
448,192,42307,1,2,0:0:0:0:
192,192,42307,1,0,0:0:0:0:
64,192,42307,1,0,0:0:0:0:
192,192,42494,1,2,0:0:0:0:
320,192,42494,1,0,0:0:0:0:
64,192,42682,1,2,0:0:0:0:
448,192,42682,1,0,0:0:0:0:
192,192,42869,1,2,0:0:0:0:
320,192,42869,1,0,0:0:0:0:
448,192,43057,1,2,0:0:0:0:
320,192,43244,1,2,0:0:0:0:
64,192,43244,1,0,0:0:0:0:
448,192,43432,1,2,0:0:0:0:
192,192,43432,1,2,0:0:0:0:
320,192,43619,1,2,0:0:0:0:
192,192,43807,1,2,0:0:0:0:
64,192,43807,1,2,0:0:0:0:
320,192,43994,1,2,0:0:0:0:
192,192,43994,1,0,0:0:0:0:
448,192,44182,1,2,0:0:0:0:
320,192,44182,1,0,0:0:0:0:
192,192,44369,1,0,0:0:0:0:
448,192,44557,1,2,0:0:0:0:
64,192,44557,128,2,45307:0:0:0:0:
320,192,44557,1,0,0:0:0:0:
192,192,44744,1,2,0:0:0:0:
320,192,44744,1,2,0:0:0:0:
448,192,44932,1,2,0:0:0:0:
320,192,44932,1,0,0:0:0:0:
192,192,45119,1,2,0:0:0:0:
320,192,45307,1,2,0:0:0:0:
448,192,45307,1,2,0:0:0:0:
192,192,45682,1,2,0:0:0:0:
320,192,45682,1,2,0:0:0:0:
64,192,46057,1,2,0:0:0:0:
448,192,46057,1,0,0:0:0:0:
320,192,46244,1,2,0:0:0:0:
192,192,46432,1,2,0:0:0:0:
64,192,46432,1,0,0:0:0:0:
192,192,46807,1,2,0:0:0:0:
320,192,46807,1,2,0:0:0:0:
64,192,46807,1,2,0:0:0:0:
64,192,47182,1,2,0:0:0:0:
448,192,47182,1,2,0:0:0:0:
192,192,47182,1,2,0:0:0:0:
192,192,47557,1,2,0:0:0:0:
320,192,47557,1,0,0:0:0:0:
64,192,47744,1,2,0:0:0:0:
192,192,47744,1,0,0:0:0:0:
64,192,47932,1,2,0:0:0:0:
320,192,47932,1,2,0:0:0:0:
448,192,47932,1,2,0:0:0:0:
192,192,48307,128,2,48682:0:0:0:0:
320,192,48307,1,0,0:0:0:0:
64,192,48682,1,2,0:0:0:0:
448,192,48682,1,2,0:0:0:0:
448,192,49057,1,2,0:0:0:0:
320,192,49057,1,0,0:0:0:0:
320,192,49244,1,2,0:0:0:0:
192,192,49244,1,2,0:0:0:0:
64,192,49432,1,2,0:0:0:0:
448,192,49432,1,0,0:0:0:0:
192,192,49807,1,2,0:0:0:0:
64,192,49807,1,2,0:0:0:0:
320,192,49807,1,0,0:0:0:0:
192,192,49994,1,2,0:0:0:0:
320,192,49994,1,0,0:0:0:0:
448,192,49994,1,0,0:0:0:0:
192,192,50369,1,2,0:0:0:0:
448,192,50369,1,2,0:0:0:0:
64,192,50369,1,0,0:0:0:0:
192,192,50557,1,2,0:0:0:0:
320,192,50557,1,0,0:0:0:0:
64,192,50557,1,0,0:0:0:0:
64,192,50932,1,2,0:0:0:0:
320,192,50932,1,0,0:0:0:0:
448,192,50932,1,0,0:0:0:0:
448,192,51119,128,2,52432:0:0:0:0:
64,192,51119,128,2,52432:0:0:0:0:
320,192,51494,1,2,0:0:0:0:
320,192,51682,1,2,0:0:0:0:
192,192,51869,1,2,0:0:0:0:
192,192,52057,1,2,0:0:0:0:
320,192,52244,1,2,0:0:0:0:
192,192,52432,1,2,0:0:0:0:
320,192,52619,1,2,0:0:0:0:
192,192,52807,1,0,0:0:0:0:
448,192,52807,1,0,0:0:0:0:
64,192,52807,1,0,0:0:0:0:
320,192,52994,1,0,0:0:0:0:
448,192,53182,1,0,0:0:0:0:
320,192,53369,1,0,0:0:0:0:
64,192,53369,1,0,0:0:0:0:
192,192,53557,1,0,0:0:0:0:
320,192,53744,1,0,0:0:0:0:
192,192,53932,1,0,0:0:0:0:
448,192,53932,1,0,0:0:0:0:
64,192,54119,1,0,0:0:0:0:
192,192,54307,1,0,0:0:0:0:
64,192,54307,1,0,0:0:0:0:
320,192,54494,1,0,0:0:0:0:
320,192,54682,1,0,0:0:0:0:
448,192,54682,1,0,0:0:0:0:
64,192,54869,1,0,0:0:0:0:
192,192,55057,1,0,0:0:0:0:
448,192,55057,1,0,0:0:0:0:
320,192,55244,1,0,0:0:0:0:
64,192,55244,1,0,0:0:0:0:
192,192,55432,1,0,0:0:0:0:
64,192,55432,1,0,0:0:0:0:
320,192,55619,1,0,0:0:0:0:
448,192,55807,1,0,0:0:0:0:
64,192,55807,1,0,0:0:0:0:
192,192,55807,1,0,0:0:0:0:
192,192,55994,1,0,0:0:0:0:
448,192,56182,1,0,0:0:0:0:
320,192,56182,1,0,0:0:0:0:
64,192,56369,128,0,58432:0:0:0:0:
192,192,56369,1,0,0:0:0:0:
320,192,56369,1,0,0:0:0:0:
448,192,56557,1,0,0:0:0:0:
192,192,56744,1,0,0:0:0:0:
320,192,56932,1,0,0:0:0:0:
448,192,57119,1,0,0:0:0:0:
192,192,57307,1,0,0:0:0:0:
320,192,57494,1,0,0:0:0:0:
448,192,57682,1,0,0:0:0:0:
320,192,57869,1,0,0:0:0:0:
192,192,58057,1,0,0:0:0:0:
192,192,58244,1,0,0:0:0:0:
320,192,58432,1,0,0:0:0:0:
448,192,58432,1,0,0:0:0:0:
64,192,58619,1,0,0:0:0:0:
192,192,58807,1,0,0:0:0:0:
320,192,58807,1,4,0:0:0:0:
448,192,58807,1,4,0:0:0:0:
192,192,58994,1,4,0:0:0:0:
64,192,59182,1,0,0:0:0:0:
320,192,59182,1,0,0:0:0:0:
448,192,59369,1,0,0:0:0:0:
192,192,59369,1,0,0:0:0:0:
64,192,59557,1,0,0:0:0:0:
192,192,59744,1,0,0:0:0:0:
448,192,59744,1,0,0:0:0:0:
320,192,59932,1,0,0:0:0:0:
320,192,60119,128,0,60494:0:0:0:0:
448,192,60119,128,0,60494:0:0:0:0:
64,192,60494,1,0,0:0:0:0:
192,192,60682,1,0,0:0:0:0:
448,192,60682,1,0,0:0:0:0:
64,192,60869,1,0,0:0:0:0:
192,192,61057,1,0,0:0:0:0:
320,192,61057,1,0,0:0:0:0:
64,192,61244,1,0,0:0:0:0:
320,192,61432,1,0,0:0:0:0:
448,192,61432,1,0,0:0:0:0:
64,192,61619,1,0,0:0:0:0:
192,192,61807,1,0,0:0:0:0:
320,192,61807,1,0,0:0:0:0:
448,192,61807,1,0,0:0:0:0:
192,192,61994,1,0,0:0:0:0:
320,192,61994,1,0,0:0:0:0:
64,192,61994,1,0,0:0:0:0:
192,192,62182,1,0,0:0:0:0:
448,192,62182,1,0,0:0:0:0:
448,192,62369,128,0,62744:0:0:0:0:
320,192,62369,1,0,0:0:0:0:
192,192,62744,128,0,62932:0:0:0:0:
64,192,62744,128,0,62932:0:0:0:0:
320,192,62932,128,0,63119:0:0:0:0:
448,192,62932,128,0,63119:0:0:0:0:
192,192,63119,128,0,64807:0:0:0:0:
320,192,63494,1,0,0:0:0:0:
64,192,63682,1,8,0:0:0:0:
320,192,63869,1,8,0:0:0:0:
448,192,64057,1,8,0:0:0:0:
64,192,64244,1,8,0:0:0:0:
320,192,64432,1,8,0:0:0:0:
320,192,64619,1,8,0:0:0:0:
448,192,64807,1,12,0:0:0:0:
64,192,64807,1,8,0:0:0:0:
64,192,64994,1,0,0:0:0:0:
320,192,65182,1,0,0:0:0:0:
448,192,65369,1,0,0:0:0:0:
320,192,65369,1,0,0:0:0:0:
64,192,65744,1,0,0:0:0:0:
192,192,65744,1,0,0:0:0:0:
64,192,66119,1,0,0:0:0:0:
448,192,66119,1,0,0:0:0:0:
192,192,66494,1,0,0:0:0:0:
64,192,66494,1,0,0:0:0:0:
320,192,66682,1,0,0:0:0:0:
448,192,66869,1,0,0:0:0:0:
64,192,67057,1,0,0:0:0:0:
192,192,67057,1,0,0:0:0:0:
192,192,67244,1,0,0:0:0:0:
320,192,67244,1,0,0:0:0:0:
448,192,67432,1,0,0:0:0:0:
320,192,67432,1,0,0:0:0:0:
64,192,67619,1,0,0:0:0:0:
192,192,67619,1,0,0:0:0:0:
192,192,67807,1,0,0:0:0:0:
448,192,67807,1,0,0:0:0:0:
320,192,67994,1,0,0:0:0:0:
64,192,68182,1,0,0:0:0:0:
320,192,68369,1,0,0:0:0:0:
448,192,68369,1,0,0:0:0:0:
192,192,68744,1,0,0:0:0:0:
64,192,68932,1,0,0:0:0:0:
192,192,68932,1,0,0:0:0:0:
320,192,69119,1,0,0:0:0:0:
448,192,69307,128,0,70432:0:0:0:0:
64,192,69307,1,0,0:0:0:0:
192,192,69494,1,0,0:0:0:0:
64,192,69682,1,0,0:0:0:0:
320,192,69869,1,0,0:0:0:0:
192,192,70057,1,0,0:0:0:0:
320,192,70244,1,0,0:0:0:0:
192,192,70432,1,0,0:0:0:0:
64,192,70432,1,0,0:0:0:0:
320,192,70619,1,0,0:0:0:0:
64,192,70807,1,0,0:0:0:0:
448,192,70807,1,0,0:0:0:0:
448,192,70994,1,0,0:0:0:0:
320,192,71182,1,0,0:0:0:0:
192,192,71182,1,0,0:0:0:0:
64,192,71369,1,0,0:0:0:0:
448,192,71369,1,0,0:0:0:0:
192,192,71557,1,0,0:0:0:0:
320,192,71744,1,0,0:0:0:0:
448,192,71744,128,0,71932:0:0:0:0:
64,192,71932,1,0,0:0:0:0:
192,192,72119,1,0,0:0:0:0:
320,192,72119,1,0,0:0:0:0:
448,192,72494,1,0,0:0:0:0:
64,192,72682,1,0,0:0:0:0:
192,192,72682,1,0,0:0:0:0:
320,192,72869,1,0,0:0:0:0:
192,192,73057,1,0,0:0:0:0:
64,192,73057,1,0,0:0:0:0:
320,192,73244,1,0,0:0:0:0:
448,192,73244,1,0,0:0:0:0:
448,192,73432,1,0,0:0:0:0:
192,192,73432,1,0,0:0:0:0:
192,192,73619,1,0,0:0:0:0:
320,192,73619,1,0,0:0:0:0:
64,192,73807,1,0,0:0:0:0:
448,192,73807,1,0,0:0:0:0:
192,192,73994,1,0,0:0:0:0:
320,192,73994,1,0,0:0:0:0:
448,192,74182,1,0,0:0:0:0:
192,192,74369,1,0,0:0:0:0:
64,192,74369,1,0,0:0:0:0:
320,192,74557,1,0,0:0:0:0:
192,192,74744,1,0,0:0:0:0:
64,192,74744,1,0,0:0:0:0:
320,192,74932,1,0,0:0:0:0:
448,192,75119,128,0,76432:0:0:0:0:
192,192,75119,1,0,0:0:0:0:
64,192,75213,1,0,0:0:0:0:
192,192,75307,1,0,0:0:0:0:
64,192,75494,1,0,0:0:0:0:
320,192,75682,1,0,0:0:0:0:
192,192,75869,1,0,0:0:0:0:
64,192,76057,1,0,0:0:0:0:
192,192,76244,1,0,0:0:0:0:
64,192,76432,1,0,0:0:0:0:
192,192,76619,1,0,0:0:0:0:
320,192,76619,1,0,0:0:0:0:
192,192,76807,1,0,0:0:0:0:
320,192,76807,1,8,0:0:0:0:
448,192,76807,1,8,0:0:0:0:
64,192,76994,1,10,0:0:0:0:
192,192,77182,1,0,0:0:0:0:
64,192,77369,1,10,0:0:0:0:
192,192,77557,1,10,0:0:0:0:
320,192,77557,1,0,0:0:0:0:
448,192,77744,1,10,0:0:0:0:
64,192,77744,1,0,0:0:0:0:
320,192,77932,1,10,0:0:0:0:
448,192,78119,1,10,0:0:0:0:
192,192,78307,1,10,0:0:0:0:
64,192,78307,1,0,0:0:0:0:
448,192,78494,1,0,0:0:0:0:
64,192,78682,1,0,0:0:0:0:
320,192,78869,1,0,0:0:0:0:
448,192,79057,1,10,0:0:0:0:
192,192,79057,1,0,0:0:0:0:
320,192,79244,1,10,0:0:0:0:
64,192,79432,1,10,0:0:0:0:
448,192,79432,1,0,0:0:0:0:
192,192,79619,1,10,0:0:0:0:
64,192,79807,1,10,0:0:0:0:
448,192,79807,1,2,0:0:0:0:
320,192,79807,1,2,0:0:0:0:
192,192,79994,1,10,0:0:0:0:
320,192,80182,1,10,0:0:0:0:
448,192,80182,1,0,0:0:0:0:
64,192,80369,1,10,0:0:0:0:
192,192,80369,1,0,0:0:0:0:
448,192,80557,1,0,0:0:0:0:
320,192,80744,128,0,80932:0:0:0:0:
64,192,80932,1,10,0:0:0:0:
192,192,81119,1,10,0:0:0:0:
320,192,81307,1,10,0:0:0:0:
192,192,81494,1,10,0:0:0:0:
448,192,81494,128,0,81682:0:0:0:0:
64,192,81682,1,0,0:0:0:0:
320,192,81682,1,0,0:0:0:0:
64,192,82057,1,8,0:0:0:0:
448,192,82057,1,10,0:0:0:0:
192,192,82244,128,0,82432:0:0:0:0:
320,192,82244,128,0,82432:0:0:0:0:
448,192,82432,1,8,0:0:0:0:
64,192,82432,128,0,82807:0:0:0:0:
192,192,82807,128,2,83182:0:0:0:0:
320,192,82807,128,2,83182:0:0:0:0:
448,192,83182,128,2,83557:0:0:0:0:
192,192,83557,128,2,83932:0:0:0:0:
64,192,83932,128,2,84307:0:0:0:0:
448,192,83932,128,2,84307:0:0:0:0:
192,192,84307,1,2,0:0:0:0:
320,192,84307,128,2,84682:0:0:0:0:
448,192,84682,128,2,85057:0:0:0:0:
64,192,85057,128,2,85432:0:0:0:0:
192,192,85432,1,2,0:0:0:0:
320,192,85432,1,2,0:0:0:0:
448,192,85619,1,2,0:0:0:0:
64,192,85807,1,2,0:0:0:0:
192,192,85807,1,2,0:0:0:0:
320,192,85807,1,2,0:0:0:0:
320,192,85994,1,2,0:0:0:0:
320,192,86182,1,2,0:0:0:0:
448,192,86182,1,2,0:0:0:0:
64,192,86369,1,2,0:0:0:0:
192,192,86369,1,2,0:0:0:0:
320,192,86744,1,2,0:0:0:0:
192,192,86744,1,2,0:0:0:0:
320,192,86932,1,2,0:0:0:0:
448,192,86932,1,2,0:0:0:0:
64,192,87119,128,2,88807:0:0:0:0:
192,192,87119,128,2,88807:0:0:0:0:
