osu file format v14

[General]
AudioFilename: audio.mp3
AudioLeadIn: 0
PreviewTime: 53329
Countdown: 1
SampleSet: Normal
StackLeniency: 0.7
Mode: 0
LetterboxInBreaks: 0
WidescreenStoryboard: 0

[Editor]
Bookmarks: 11516,18266,57829,58016,58204,58579,58954
DistanceSpacing: 2.3
BeatDivisor: 4
GridSize: 4
TimelineZoom: 1.4

[Metadata]
Title:Hikaru Nara -TV Size-
TitleUnicode:Hikaru Nara -TV Size-
Artist:Goose House
ArtistUnicode:Goose House
Creator:MeSandwitches
Version:Insane
Source:Shigatsu wa Kimi no Uso
Tags:your lie in april Shigatsu wa Kimi no Uso
BeatmapID:1925571
BeatmapSetID:922094

[Difficulty]
HPDrainRate:7
CircleSize:4.7
OverallDifficulty:7
ApproachRate:8
SliderMultiplier:1.2
SliderTickRate:1

[Events]
//Background and Video events
0,0,"HikaruNara.jpg",0,0
//Break Periods
//Storyboard Layer 0 (Background)
//Storyboard Layer 1 (Fail)
//Storyboard Layer 2 (Pass)
//Storyboard Layer 3 (Foreground)
//Storyboard Sound Samples

[TimingPoints]
829,375,4,2,0,50,1,0
829,-133.333333333333,4,2,0,30,0,0
3829,-100,4,1,0,70,0,0
5329,-83.3333333333333,4,1,0,75,0,0
14704,-111.111111111111,4,1,0,70,0,0
29141,-100,4,1,0,70,0,0
30079,-111.111111111111,4,1,0,70,0,0
44329,-90.9090909090909,4,1,0,70,0,0
45829,-83.3333333333333,4,1,0,75,0,0
46204,-76.9230769230769,4,1,0,80,0,0
46579,-71.4285714285714,4,1,0,80,0,0
46954,-100,4,1,0,85,0,0
53329,-66.6666666666667,4,1,0,90,0,1
77329,-83.3333333333333,4,1,0,70,0,0
89329,-100,4,2,0,10,0,0

[HitObjects]
95,114,829,6,0,P|80:137|79:175,2,45.0000017166138
152,77,1391,2,0,P|198:70|247:85,1,90.0000034332277
301,109,1954,1,0,0:0:0:0:
372,37,2141,1,2,2:0:0:0:
435,78,2516,5,0,0:0:0:0:
435,142,2704,1,0,0:0:0:0:
401,197,2891,1,0,3:0:0:0:
77,315,3641,5,0,3:0:0:0:
77,315,3735,1,0,3:0:0:0:
77,315,3829,2,0,L|66:238,1,60,4|0,0:0|3:0,0:0:0:0:
90,164,4204,2,0,L|98:223,1,60,4|0,0:0|3:0,0:0:0:0:
165,205,4579,2,0,L|159:264,1,60,0|4,3:0|0:0,0:0:0:0:
204,338,4954,1,0,0:0:0:0:
239,130,5141,1,0,3:0:0:0:
250,99,5235,1,0,3:0:0:0:
266,67,5329,6,0,B|298:49|298:49|337:42,1,71.9999978027344,4|0,0:0|0:0,0:0:0:0:
421,33,5704,1,0,0:0:0:0:
455,101,5891,2,0,B|464:137|464:137|461:175,1,71.9999978027344,2|0,0:0|0:0,0:0:0:0:
436,272,6266,1,0,0:0:0:0:
436,272,6454,1,0,0:0:0:0:
428,381,6641,1,2,0:0:0:0:
237,346,6829,6,0,B|203:330|203:330|158:330,1,71.9999978027344
63,382,7204,1,0,0:0:0:0:
58,291,7391,2,0,B|58:247|58:247|68:212,1,71.9999978027344
106,151,7766,1,0,0:0:0:0:
181,72,7954,1,0,0:0:0:0:
117,228,8141,5,0,0:0:0:0:
117,228,8329,2,0,B|183:199|183:199|256:200,1,143.999995605469
308,150,8891,1,0,0:0:0:0:
338,270,9079,1,0,0:0:0:0:
184,247,9266,2,0,B|160:211|160:211|163:158,1,71.9999978027344
189,113,9641,1,0,0:0:0:0:
189,113,9829,5,0,0:0:0:0:
324,196,10204,2,0,L|316:276,1,71.9999978027344
359,339,10579,2,0,B|400:342|400:342|434:313,1,71.9999978027344
249,271,10954,2,0,B|207:274|207:274|179:309,1,71.9999978027344
106,366,11329,5,0,0:0:0:0:
106,366,11516,2,0,L|97:286,1,71.9999978027344
150,174,11891,1,0,0:0:0:0:
150,174,12078,2,0,L|159:94,1,71.9999978027344
270,45,12454,1,0,0:0:0:0:
254,129,12641,6,0,B|303:192|210:193|273:278,1,143.999995605469
213,318,13204,1,0,0:0:0:0:
213,318,13391,2,0,P|242:341|284:352,1,71.9999978027344
317,269,13766,2,0,B|305:231|257:229,1,71.9999978027344
185,221,14141,1,0,0:0:0:0:
185,221,14329,1,0,0:0:0:0:
455,64,14891,5,0,0:0:0:0:
455,64,15079,2,0,P|465:101|458:125,2,53.9999983520508,0|0|0,1:0|3:0|3:0,0:0:0:0:
384,8,15641,1,0,0:0:0:0:
309,39,15829,2,0,P|287:62|291:98,1,53.9999983520508
283,158,16204,2,0,P|269:135|246:120,1,53.9999983520508
177,72,16579,1,0,0:0:0:0:
193,181,16766,2,0,P|210:202|216:229,1,53.9999983520508
194,301,17141,1,0,0:0:0:0:
194,301,17329,6,0,L|308:290,1,107.999996704102
371,233,17891,1,0,0:0:0:0:
456,245,18079,1,0,0:0:0:0:
321,168,18266,2,0,B|290:168|290:168|250:153,1,53.9999983520508
254,144,18641,1,0,0:0:0:0:
302,29,18829,6,0,L|296:92,1,53.9999983520508
341,161,19204,2,0,P|356:191|356:226,1,53.9999983520508
319,298,19579,1,0,0:0:0:0:
399,264,19766,2,0,P|438:251|458:229,1,53.9999983520508
416,185,20141,1,0,0:0:0:0:
416,185,20329,5,0,0:0:0:0:
434,306,20704,1,0,0:0:0:0:
289,257,21079,2,0,P|256:219|257:204,1,53.9999983520508
273,110,21454,1,0,0:0:0:0:
360,165,21829,2,0,P|421:161|456:127,1,107.999996704102
384,84,22391,1,0,0:0:0:0:
273,110,22579,2,0,P|255:141|252:177,1,53.9999983520508
336,170,22954,2,0,P|340:196|355:218,1,53.9999983520508
349,89,23329,6,0,P|319:52|251:40,1,107.999996704102
176,45,23891,1,0,0:0:0:0:
176,45,24079,2,0,P|139:27|115:35,1,53.9999983520508
55,83,24454,2,0,P|45:124|58:149,1,53.9999983520508
116,175,24829,5,0,0:0:0:0:
116,175,25016,2,0,L|110:235,1,53.9999983520508
187,283,25391,2,0,L|191:229,1,53.9999983520508
275,186,25766,2,0,L|270:239,1,53.9999983520508
324,345,26329,5,0,0:0:0:0:
475,376,26704,1,0,0:0:0:0:
475,376,26891,1,0,0:0:0:0:
419,266,27079,1,0,0:0:0:0:
424,160,27266,2,0,P|445:134|473:124,2,53.9999983520508
330,208,27829,5,0,0:0:0:0:
392,78,28204,2,0,P|366:57|333:49,1,53.9999983520508
246,41,28579,1,0,0:0:0:0:
212,132,28766,1,0,0:0:0:0:
212,132,28954,1,0,0:0:0:0:
136,70,29141,2,0,L|123:112,1,30
108,158,29329,6,0,P|98:196|142:170,1,120,2|0,0:0|0:0,0:0:0:0:
189,178,29891,1,0,0:0:0:0:
172,95,30079,1,0,0:0:0:0:
268,140,30266,1,0,0:0:0:0:
189,178,30454,1,0,0:0:0:0:
248,54,30641,6,0,L|325:47,1,53.9999983520508
409,16,31016,2,0,P|410:46|403:75,1,53.9999983520508
326,177,31391,2,0,P|325:147|331:117,1,53.9999983520508
454,147,31766,2,0,B|423:142|389:132,2,53.9999983520508
454,147,32329,6,0,P|465:197|457:256,1,107.999996704102
390,209,32891,1,0,0:0:0:0:
381,128,33079,2,0,P|382:95|388:71,1,53.9999983520508
458,42,33454,2,0,P|457:75|451:99,1,53.9999983520508
427,156,33829,5,0,0:0:0:0:
429,269,34204,1,0,0:0:0:0:
429,269,34391,1,0,0:0:0:0:
429,269,34579,2,0,P|431:294|419:328,1,53.9999983520508
358,369,34954,2,0,P|318:383|285:379,1,53.9999983520508
225,345,35329,6,0,P|230:316|246:276,1,53.9999983520508
284,229,35704,1,0,0:0:0:0:
152,241,36079,2,0,L|211:236,2,53.9999983520508
51,161,36641,1,0,0:0:0:0:
52,61,36829,5,0,0:0:0:0:
140,111,37016,2,0,P|143:77|151:46,1,53.9999983520508
200,171,37391,2,0,P|198:203|188:239,1,53.9999983520508
113,243,37766,1,0,0:0:0:0:
113,243,37954,2,0,P|82:270|62:278,1,53.9999983520508
61,160,38329,5,0,0:0:0:0:
61,160,38516,1,0,0:0:0:0:
48,31,38891,2,0,P|21:11|-8:4,2,53.9999983520508
116,61,39454,1,0,0:0:0:0:
116,61,39641,1,0,0:0:0:0:
116,61,39829,5,0,0:0:0:0:
195,41,40016,2,0,B|227:35|271:37,1,53.9999983520508
326,58,40391,1,0,0:0:0:0:
326,58,40579,2,0,L|395:51,1,53.9999983520508
422,114,40954,2,0,L|369:119,1,53.9999983520508
317,140,41329,5,0,0:0:0:0:
375,200,41516,2,0,P|411:221|438:218,2,53.9999983520508
317,140,42079,1,0,0:0:0:0:
353,68,42266,1,0,0:0:0:0:
429,44,42454,1,0,0:0:0:0:
486,103,42641,1,0,0:0:0:0:
470,182,42829,6,0,L|463:240,1,53.9999983520508
449,343,43204,1,0,0:0:0:0:
364,284,43391,2,0,L|370:230,1,53.9999983520508
386,142,43766,1,0,0:0:0:0:
457,97,43954,1,0,0:0:0:0:
491,21,44141,1,0,0:0:0:0:
370,35,44329,5,0,0:0:0:0:
289,86,44516,2,0,B|262:113|262:113|271:148,2,66.0000020141602
344,134,45079,2,0,L|411:142,1,66.0000020141602
463,209,45454,1,0,0:0:0:0:
432,284,45641,1,0,0:0:0:0:
359,331,45829,6,2,L|284:337,1,71.9999978027344
224,275,46204,2,0,L|306:268,1,77.9999964294435
187,216,46579,2,0,L|99:224,1,83.9999974365235
55,153,46954,2,0,L|131:148,1,60
162,139,47329,2,0,P|219:113|285:108,1,120
374,146,48079,2,0,P|368:177|346:202,2,60
346,77,48829,5,0,0:0:0:0:
346,77,49204,1,0,0:0:0:0:
426,125,49579,2,0,B|444:150|444:150|441:201,1,60
389,219,49954,2,0,B|371:194|371:194|371:165,1,60
344,88,50329,6,0,L|339:23,1,60
438,236,50891,1,0,0:0:0:0:
438,236,51079,2,0,L|442:170,1,60
365,384,51454,1,0,0:0:0:0:
365,384,51641,1,0,0:0:0:0:
360,93,52016,1,0,0:0:0:0:
434,103,52204,1,0,0:0:0:0:
479,163,52391,1,0,0:0:0:0:
469,234,52579,1,0,0:0:0:0:
428,292,52766,1,0,0:0:0:0:
361,314,52954,1,0,0:0:0:0:
294,285,53141,1,0,0:0:0:0:
236,222,53329,6,0,B|236:161|236:161|250:120,1,90.0000034332277
254,45,53704,2,0,B|254:106|254:106|240:147,1,90.0000034332277
92,265,54266,2,0,B|97:218|97:218|80:172,1,90.0000034332277
64,140,54641,2,0,B|59:93|59:93|76:47,1,90.0000034332277
118,22,55016,5,0,0:0:0:0:
231,40,55204,1,0,0:0:0:0:
170,125,55391,1,0,0:0:0:0:
193,213,55579,2,0,B|238:222|238:222|285:219,1,90.0000034332277
343,187,55954,2,0,B|390:185|390:185|442:193,1,90.0000034332277
446,264,56329,6,0,B|468:308|468:308|450:350,2,90.0000034332277
379,218,56891,1,0,0:0:0:0:
436,61,57266,1,0,0:0:0:0:
354,34,57454,1,0,0:0:0:0:
288,87,57641,6,0,B|250:118|250:118|196:124,1,90.0000034332277
137,142,58016,1,0,0:0:0:0:
93,238,58204,1,0,0:0:0:0:
43,130,58579,2,0,L|30:28,1,90.0000034332277
110,64,58954,2,0,L|125:168,1,90.0000034332277
49,341,59329,6,0,B|95:329|95:329|150:330,1,90.0000034332277
226,319,59704,2,0,B|180:331|180:331|125:330,1,90.0000034332277
52,283,60266,2,0,B|42:235|42:235|60:177,1,90.0000034332277
69,167,60641,2,0,B|79:119|79:119|61:61,2,90.0000034332277
77,265,61204,5,0,0:0:0:0:
172,213,61391,1,0,0:0:0:0:
271,199,61579,2,0,B|265:151|265:151|268:108,1,90.0000034332277
282,89,61954,2,0,B|288:41|288:41|285:-2,1,90.0000034332277
206,29,62329,6,0,B|160:46|160:46|128:86,2,90.0000034332277
208,105,62891,1,0,0:0:0:0:
60,251,63266,1,0,0:0:0:0:
32,369,63454,1,0,0:0:0:0:
154,316,63641,1,0,0:0:0:0:
239,354,63829,6,0,B|296:347|296:347|314:316,1,90.0000034332277
299,231,64204,2,0,B|242:238|242:238|224:269,1,90.0000034332277
154,316,64579,1,0,0:0:0:0:
85,268,64766,1,0,0:0:0:0:
61,189,64954,1,0,0:0:0:0:
63,110,65141,1,0,0:0:0:0:
112,41,65329,6,0,B|157:38|157:38|216:50,1,90.0000034332277
289,54,65704,2,0,B|242:56|242:56|199:46,1,90.0000034332277
165,217,66266,2,0,B|148:265|148:265|186:316,1,90.0000034332277
241,330,66641,2,0,B|294:326|294:326|337:287,1,90.0000034332277
380,260,67016,1,0,0:0:0:0:
380,142,67204,1,0,0:0:0:0:
481,217,67391,1,0,0:0:0:0:
460,296,67579,5,0,0:0:0:0:
390,353,67766,2,0,B|281:364,1,90.0000034332277
221,343,68141,1,0,0:0:0:0:
134,345,68329,2,0,B|81:345|81:345|39:320,1,90.0000034332277
38,288,68704,2,0,B|19:256|19:256|19:203,1,90.0000034332277
78,65,69266,2,0,B|112:32|112:32|156:26,2,90.0000034332277
142,151,69829,5,0,0:0:0:0:
211,108,70016,1,0,0:0:0:0:
294,100,70204,2,0,B|340:102|340:102|388:123,2,90.0000034332277
285,113,70766,1,0,0:0:0:0:
249,195,70954,5,0,0:0:0:0:
181,258,71141,1,0,0:0:0:0:
79,236,71329,5,0,0:0:0:0:
1,144,71516,1,0,0:0:0:0:
118,112,71704,1,0,0:0:0:0:
50,23,71891,2,0,B|127:1|127:1|230:13,1,180.000006866455
322,24,72454,1,0,0:0:0:0:
413,22,72641,1,0,0:0:0:0:
332,61,72829,5,0,0:0:0:0:
283,111,73016,2,0,B|240:141|240:141|180:145,2,90.0000034332277
209,55,73579,1,0,0:0:0:0:
305,33,73766,1,0,0:0:0:0:
209,55,73954,1,0,0:0:0:0:
162,110,74141,1,0,0:0:0:0:
177,197,74329,6,0,B|216:227|216:227|265:230,2,90.0000034332277
98,169,74891,2,0,B|100:209|100:209|130:248,1,90.0000034332277
184,181,75266,1,0,0:0:0:0:
132,334,75454,1,0,0:0:0:0:
239,310,75641,1,0,0:0:0:0:
239,310,75735,1,0,0:0:0:0:
239,310,75829,6,0,B|289:315|289:315|334:294,1,90.0000034332277
411,286,76204,2,0,B|361:281|361:281|316:302,1,90.0000034332277
327,216,76579,2,0,B|280:235|280:235|251:276,1,90.0000034332277
239,359,76954,1,0,0:0:0:0:
268,153,77141,1,0,0:0:0:0:
380,300,77329,5,0,0:0:0:0:
380,300,77704,2,0,P|425:304|465:293,1,71.9999978027344
478,230,78079,2,0,P|458:185|427:157,1,71.9999978027344
370,170,78454,2,0,P|346:210|343:254,1,71.9999978027344
300,313,78829,2,0,P|251:329|217:321,1,71.9999978027344
244,258,79204,2,0,P|208:253|178:234,1,71.9999978027344
121,273,79579,2,0,B|89:231|104:183,1,71.9999978027344
32,201,79954,2,0,B|42:151|79:127,1,71.9999978027344
131,79,80329,5,0,0:0:0:0:
229,56,80516,1,0,0:0:0:0:
203,167,80704,1,0,0:0:0:0:
131,79,80891,2,0,P|166:76|201:83,1,71.9999978027344
347,137,81266,1,0,0:0:0:0:
440,219,81454,1,0,0:0:0:0:
351,243,81641,2,0,P|391:227|435:223,1,71.9999978027344
507,225,82016,5,0,0:0:0:0:
507,225,82204,1,0,0:0:0:0:
392,308,82579,2,0,P|355:334|321:341,1,71.9999978027344
320,268,82954,2,0,P|275:260|246:241,1,71.9999978027344
187,204,83329,5,0,0:0:0:0:
346,162,83704,2,0,L|431:155,1,71.9999978027344
331,93,84079,2,0,L|260:99,1,71.9999978027344
164,41,84454,2,0,L|249:34,1,71.9999978027344
320,48,84829,6,0,P|302:84|267:110,1,71.9999978027344
221,156,85204,2,0,P|205:116|213:75,1,71.9999978027344
262,32,85579,2,0,P|278:72|270:113,1,71.9999978027344
256,192,85954,1,0,0:0:0:0:
256,192,86141,1,0,0:0:0:0:
334,154,86329,6,0,L|413:161,2,71.9999978027344
157,130,86891,1,0,0:0:0:0:
77,363,87266,2,0,L|163:350,1,71.9999978027344
344,319,87641,1,0,0:0:0:0:
256,192,87829,12,0,89329,0:0:0:0:
