osu file format v14

[General]
AudioFilename: audio.mp3
AudioLeadIn: 0
PreviewTime: 53329
Countdown: 1
SampleSet: None
StackLeniency: 0.9
Mode: 0
LetterboxInBreaks: 0
WidescreenStoryboard: 1

[Editor]
Bookmarks: 6266,11516,18266,41516,41891,42079,42454,42829,57829,58016,58204,58579,58954
DistanceSpacing: 1.5
BeatDivisor: 4
GridSize: 4
TimelineZoom: 1.4

[Metadata]
Title:Hikaru Nara -TV Size-
TitleUnicode:Hikaru Nara -TV Size-
Artist:Goose House
ArtistUnicode:Goose House
Creator:MeSandwitches
Version:Hard
Source:Shigatsu wa Kimi no Uso
Tags:your lie in april Shigatsu wa Kimi no Uso
BeatmapID:1925570
BeatmapSetID:922094

[Difficulty]
HPDrainRate:6
CircleSize:4.3
OverallDifficulty:6
ApproachRate:7
SliderMultiplier:1
SliderTickRate:1

[Events]
//Background and Video events
0,0,"HikaruNara.jpg",0,0
//Break Periods
//Storyboard Layer 0 (Background)
//Storyboard Layer 1 (Fail)
//Storyboard Layer 2 (Pass)
//Storyboard Layer 3 (Foreground)
//Storyboard Sound Samples

[TimingPoints]
829,375,4,2,0,50,1,0
829,-111.111111111111,4,2,0,50,0,0
3829,-90.9090909090909,4,1,0,70,0,0
5329,-83.3333333333333,4,1,0,75,0,0
14704,-100,4,1,0,70,0,0
44329,-90.9090909090909,4,1,0,70,0,0
46954,-100,4,1,0,75,0,0
53329,-66.6666666666667,4,1,0,80,0,1
77329,-83.3333333333333,4,1,0,70,0,0

[HitObjects]
90,237,829,6,0,P|104:253|108:275,2,44.999998626709
74,204,1391,2,0,P|58:162|71:119,1,89.9999972534181
102,85,1954,2,0,P|120:70|141:62,1,44.999998626709
251,36,2516,2,0,P|274:32|296:37,2,44.999998626709
339,347,3641,6,0,L|361:350,2,22.4999993133545
206,327,4204,1,0,0:0:0:0:
203,203,4579,1,0,0:0:0:0:
317,150,4954,1,0,0:0:0:0:
393,117,5329,6,0,B|403:83|403:83|402:58,2,59.9999981689454
411,187,5891,1,0,0:0:0:0:
386,300,6266,1,0,0:0:0:0:
275,340,6641,1,0,0:0:0:0:
275,340,6829,6,0,B|257:307|257:307|256:284,1,59.9999981689454
243,246,7204,2,0,B|225:213|225:213|224:190,1,59.9999981689454
348,252,7766,2,0,B|382:254|382:254|400:236,1,59.9999981689454
399,199,8141,1,0,0:0:0:0:
399,199,8329,6,0,B|407:151|407:151|382:84,1,119.999996337891
330,38,8891,1,0,0:0:0:0:
219,99,9266,1,0,0:0:0:0:
287,203,9641,1,0,0:0:0:0:
266,106,10579,2,0,B|285:138|285:138|281:160,1,59.9999981689454
229,206,10954,2,0,B|209:174|209:174|212:151,1,59.9999981689454
241,82,11329,6,0,B|286:47|286:47|348:55,2,119.999996337891
168,174,12454,5,0,0:0:0:0:
168,174,12641,2,0,L|163:233,1,59.9999981689454
187,306,13204,2,0,L|246:297,1,59.9999981689454
332,278,13766,1,0,0:0:0:0:
407,192,14141,1,0,0:0:0:0:
407,192,14328,1,0,0:0:0:0:
163,129,14891,5,0,0:0:0:0:
162,129,15079,2,0,P|144:145|137:169,2,50
228,87,15641,1,0,0:0:0:0:
428,66,16204,1,0,0:0:0:0:
428,66,16391,2,0,P|437:88|434:113,1,50
414,145,16766,2,0,P|405:167|408:192,1,50
422,231,17141,1,0,0:0:0:0:
422,231,17329,6,0,P|406:277|362:297,1,100
284,296,17891,1,0,0:0:0:0:
227,233,18079,2,0,P|217:211|218:186,2,50
293,198,18641,1,0,0:0:0:0:
421,102,19204,1,0,0:0:0:0:
421,102,19391,2,0,L|371:97,1,50
328,89,19766,2,0,L|278:84,1,50
230,77,20141,1,0,0:0:0:0:
230,77,20329,5,0,0:0:0:0:
102,194,20704,1,0,0:0:0:0:
198,326,21079,2,0,P|222:326|242:312,2,50
129,290,21829,2,0,P|102:248|111:200,1,100
109,170,22579,2,0,P|90:156|65:156,2,50
213,119,23329,6,0,P|284:130|313:196,1,150
380,184,24079,2,0,P|370:232|330:260,1,100
250,276,24641,1,0,0:0:0:0:
183,170,25016,1,0,0:0:0:0:
77,237,25391,1,0,0:0:0:0:
144,343,25766,1,0,0:0:0:0:
253,278,26329,6,0,P|297:254|317:210,1,100
316,172,27079,2,0,P|310:148|296:128,2,50
333,215,27642,1,0,0:0:0:0:
333,215,27829,1,0,0:0:0:0:
270,275,28204,2,0,P|251:290|226:295,1,50
167,272,28579,2,0,P|155:250|158:225,2,50
228,313,29142,6,0,B|319:371|319:253|413:316,1,200
439,220,30266,6,0,L|444:269,2,50
405,132,31016,2,0,L|376:91,1,50
349,193,31391,2,0,L|299:193,1,50
405,252,31766,2,0,L|376:292,1,50
285,346,32329,6,0,P|236:350|202:316,1,100
380,342,33079,2,0,P|374:293|408:259,1,100
455,326,33829,1,0,0:0:0:0:
434,154,34579,2,0,P|432:129|441:105,1,50
470,42,34954,1,0,0:0:0:0:
372,110,35329,6,0,P|350:98|325:98,2,50
482,182,36079,1,0,0:0:0:0:
377,242,36454,1,0,0:0:0:0:
377,242,36642,2,0,L|382:291,1,50
381,346,37017,2,0,L|331:342,1,50
274,342,37392,2,0,L|224:345,1,50
164,342,37767,2,0,L|114:338,2,50
238,313,38329,5,0,0:0:0:0:
238,313,38517,2,0,P|230:265|188:241,1,100
187,241,39079,1,0,0:0:0:0:
108,275,39267,1,0,0:0:0:0:
28,238,39454,2,0,P|24:213|28:188,1,50
67,117,39829,5,0,0:0:0:0:
67,117,40017,2,0,P|101:80|147:63,1,100
253,75,40767,2,0,P|236:93|230:117,2,50
285,12,41329,1,0,0:0:0:0:
380,17,41517,6,0,P|404:16|428:23,1,50
502,41,41892,1,0,0:0:0:0:
460,110,42079,2,0,P|435:109|411:116,1,50
338,134,42454,1,0,0:0:0:0:
338,134,42642,1,0,0:0:0:0:
337,135,42829,6,0,P|339:182|383:197,1,100
446,195,43392,2,0,P|465:209|476:232,1,50
473,304,43767,1,0,0:0:0:0:
503,384,43954,1,0,0:0:0:0:
503,384,44142,1,0,0:0:0:0:
384,369,44329,5,0,0:0:0:0:
383,369,44517,2,0,P|410:367|432:351,2,55.0000016784668
291,357,45079,1,0,0:0:0:0:
133,383,45454,5,0,0:0:0:0:
133,383,45642,1,0,0:0:0:0:
133,383,45829,2,0,L|125:328,1,55.0000016784668
52,290,46204,2,0,L|44:344,1,55.0000016784668
149,379,46579,2,0,L|141:324,1,55.0000016784668
30,286,46954,2,0,L|21:338,1,50
27,364,47329,5,0,0:0:0:0:
148,333,47704,1,0,0:0:0:0:
61,243,48079,2,0,P|57:218|63:194,2,50
143,331,48829,5,0,0:0:0:0:
254,383,49204,1,0,0:0:0:0:
365,331,49579,1,0,0:0:0:0:
254,271,49954,1,0,0:0:0:0:
142,332,50329,5,0,0:0:0:0:
142,332,50517,1,0,0:0:0:0:
106,244,50892,5,0,0:0:0:0:
106,244,51079,1,0,0:0:0:0:
70,159,51454,5,0,0:0:0:0:
70,159,51642,1,0,0:0:0:0:
35,80,52016,2,0,P|31:55|46:36,2,50
19,135,52578,2,0,P|22:159|6:185,2,50
44,63,53141,1,0,0:0:0:0:
44,63,53329,6,0,B|79:42|79:42|113:42,1,75.0000028610231
168,87,53703,2,0,B|133:108|133:108|98:108,1,75.0000028610231
51,271,54266,6,0,B|30:236|30:236|30:201,2,75.0000028610231
104,225,54828,2,0,B|125:260|125:260|125:294,2,75.0000028610231
85,156,55391,1,0,0:0:0:0:
255,119,56329,6,0,B|289:119|289:119|324:98,1,75.0000028610231
270,53,56704,2,0,B|235:53|235:53|200:74,1,75.0000028610231
196,182,57266,1,0,0:0:0:0:
234,244,57454,1,0,0:0:0:0:
289,291,57641,2,0,B|353:307|547:192|450:142|391:73|323:141|223:195|421:306|514:289,1,525.000020027161
451,225,59329,6,0,B|472:260|472:260|472:295,1,75.0000028610231
427,350,59704,2,0,B|406:315|406:315|406:281,1,75.0000028610231,0|0,0:0|0:0,0:0:0:0:
358,62,60266,6,0,B|393:41|393:41|428:41,2,75.0000028610231
404,115,60828,2,0,B|369:136|369:136|335:136,2,75.0000028610231
473,96,61391,1,0,0:0:0:0:
168,37,62329,6,0,B|149:66|149:66|149:112,1,75.0000028610231
158,143,62704,2,0,B|158:180|158:180|143:216,1,75.0000028610231
77,284,63266,1,0,0:0:0:0:
42,362,63454,1,0,0:0:0:0:
123,353,63641,1,0,0:0:0:0:
201,179,65329,6,0,B|224:148|224:148|267:132,1,75.0000028610231
306,192,65704,2,0,B|272:205|272:205|249:236,1,75.0000028610231
313,295,66266,1,0,0:0:0:0:
423,361,66641,1,0,0:0:0:0:
423,244,67016,2,0,B|426:203|426:203|453:173,2,75.0000028610231
351,320,67766,2,0,B|328:349|328:349|271:358,1,75.0000028610231
215,346,68141,1,0,0:0:0:0:
136,315,68329,6,0,B|159:284|159:284|193:271,1,75.0000028610231
146,215,68704,2,0,B|111:227|111:227|88:258,1,75.0000028610231
54,327,69266,1,0,0:0:0:0:
157,349,69454,1,0,0:0:0:0:
255,323,69641,2,0,B|319:339|513:224|416:174|357:105|289:173|189:227|387:338|480:321,1,525.000020027161
451,207,71329,6,0,B|428:238|428:238|394:251,1,75.0000028610231
346,194,71704,2,0,B|381:182|381:182|404:151,1,75.0000028610231
318,78,72266,1,0,0:0:0:0:
208,172,72641,1,0,0:0:0:0:
208,172,73016,1,0,0:0:0:0:
189,79,73204,1,0,0:0:0:0:
280,101,73391,1,0,0:0:0:0:
256,192,74141,5,0,0:0:0:0:
256,192,74329,12,0,77329,0:0:0:0:
256,192,77704,5,0,0:0:0:0:
448,76,78079,1,0,0:0:0:0:
398,165,78454,5,0,0:0:0:0:
206,281,78829,1,0,0:0:0:0:
256,192,79204,5,0,0:0:0:0:
64,308,79579,1,0,0:0:0:0:
256,192,79954,1,0,0:0:0:0:
407,76,80329,6,0,L|467:86,2,59.9999981689454
327,84,80891,1,0,0:0:0:0:
400,162,81454,2,0,B|387:195|387:195|403:235,1,59.9999981689454
417,280,81829,2,0,B|430:313|430:313|414:353,1,59.9999981689454
238,265,82579,1,0,0:0:0:0:
123,191,82954,1,0,0:0:0:0:
53,84,83329,5,0,0:0:0:0:
199,50,83704,1,0,0:0:0:0:
232,196,84079,1,0,0:0:0:0:
86,230,84454,1,0,0:0:0:0:
265,342,84829,5,0,0:0:0:0:
411,308,85204,1,0,0:0:0:0:
378,162,85579,1,0,0:0:0:0:
232,196,85954,1,0,0:0:0:0:
256,192,86329,12,0,87641,0:0:0:0:
