osu file format v14

[General]
AudioFilename: audio.mp3
AudioLeadIn: 0
PreviewTime: 52544
Countdown: 0
SampleSet: Soft
StackLeniency: 0.7
Mode: 0
LetterboxInBreaks: 0
WidescreenStoryboard: 1

[Editor]
DistanceSpacing: 1
BeatDivisor: 4
GridSize: 8
TimelineZoom: 1

[Metadata]
Title:Hikaru nara (TV Size)
TitleUnicode:光るなら (TV Size)
Artist:Goose house
ArtistUnicode:Goose house
Creator:Mochi-
Version:Kousei
Source:四月は君の嘘
Tags:shigatsu wa kimi no uso your lie in april first opening グース ハウス noitamina ノイタミナ フジテレビ tv terebi sony music labels phrase #9 工藤秀平 shuhei kudo 竹渕慶 kei takebuchi 竹澤汀 migiwa takezawa マナミ manami 沙夜香 sayaka ワタナベシュウヘイ shuhei watanabe 齊藤ジョニー syndicate_ midorijeon Amats dollyn- mochia japanese anime jpop j_pop j pop j-pop akiko -_nilou_- nilou
BeatmapID:4546191
BeatmapSetID:2156134

[Difficulty]
HPDrainRate:7
CircleSize:4
OverallDifficulty:8
ApproachRate:8.8
SliderMultiplier:1.64
SliderTickRate:1

[Events]
//Background and Video events
Video,291,"video.mp4"
0,0,"bg.png",0,0
//Break Periods
//Storyboard Layer 0 (Background)
//Storyboard Layer 1 (Fail)
//Storyboard Layer 2 (Pass)
//Storyboard Layer 3 (Foreground)
//Storyboard Layer 4 (Overlay)
//Storyboard Sound Samples

[TimingPoints]
44,375,4,2,1,55,1,0
44,-133.333333333333,4,2,1,55,0,0
3044,-133.333333333333,4,2,1,65,0,0
4544,-100,4,2,1,75,0,0
11856,-133.333333333333,4,2,1,75,0,0
12325,-133.333333333333,4,2,1,5,0,0
12419,-133.333333333333,4,2,1,45,0,0
12606,-133.333333333333,4,2,1,48,0,0
12794,-133.333333333333,4,2,1,52,0,0
12981,-133.333333333333,4,2,1,55,0,0
13169,-133.333333333333,4,2,1,58,0,0
13356,-133.333333333333,4,2,1,62,0,0
13544,-125,4,2,1,65,0,0
37544,-125,4,2,1,55,0,0
43544,-125,4,2,1,65,0,0
49544,-125,4,2,1,75,0,0
51231,-125,4,2,1,45,0,0
51419,-125,4,2,1,50,0,0
51606,-125,4,2,1,55,0,0
51794,-125,4,2,1,60,0,0
51981,-125,4,2,1,65,0,0
52169,-125,4,2,1,70,0,0
52356,-125,4,2,1,75,0,0
52544,-95.2380952380952,4,2,1,80,0,0
76544,-95.2380952380952,4,2,1,75,0,0

[Colours]
Combo1 : 238,204,87
Combo2 : 146,146,201
Combo3 : 255,128,192
Combo4 : 234,138,106

[HitObjects]
82,358,44,6,0,P|38:350|13:343,1,61.5000023460389,2|2,0:0|0:0,0:0:0:0:
70,272,419,1,2,0:0:0:0:
197,322,606,2,0,P|242:320|332:291,1,123.000004692078,2|2,0:0|0:0,0:0:0:0:
316,298,1169,1,2,0:0:0:0:
396,359,1356,2,0,P|416:319|436:226,1,123.000004692078,2|2,0:0|0:0,0:0:0:0:
366,139,1919,1,2,0:0:0:0:
254,213,2106,1,2,0:0:0:0:
254,213,2856,1,2,0:0:0:0:
254,212,2950,1,2,0:0:0:0:
254,212,3044,6,0,P|210:207|185:201,1,61.5000023460389,14|0,0:0|1:2,0:0:0:0:
86,115,3419,1,10,0:0:0:0:
220,31,3606,1,0,1:2:0:0:
179,175,3794,1,2,0:0:0:0:
3,137,3981,1,8,0:0:0:0:
174,284,4169,1,10,0:0:0:0:
174,284,4262,1,8,0:0:0:0:
174,284,4356,1,8,0:3:0:0:
336,196,4544,6,0,P|417:199|494:174,1,164,6|10,1:1|0:0,0:0:0:0:
388,25,5106,2,0,P|366:82|363:134,1,82,2|0,0:0|1:2,0:0:0:0:
411,286,5481,1,2,1:2:0:0:
511,200,5669,1,8,0:0:0:0:
379,124,5856,1,2,0:0:0:0:
261,230,6044,6,0,P|203:241|106:182,1,164,0|10,1:2|0:0,0:0:0:0:
143,37,6606,2,0,P|155:86|154:137,1,82,2|0,1:2|0:0,0:0:0:0:
97,285,6981,1,2,1:2:0:0:
1,184,7169,2,0,P|41:186|81:196,1,82,8|2,0:0|0:0,0:0:0:0:
263,318,7544,6,0,B|320:336|364:287|364:287|429:303,1,164,2|10,1:2|0:0,0:0:0:0:
290,237,8106,2,0,P|289:198|293:147,1,82,2|0,0:0|1:2,0:0:0:0:
394,79,8481,1,2,1:2:0:0:
442,230,8669,1,8,0:0:0:0:
486,133,8856,1,2,0:0:0:0:
322,149,9044,6,0,P|240:138|137:106,1,164,2|8,1:2|0:0,0:0:0:0:
138,37,9606,1,0,1:2:0:0:
7,83,9794,2,0,P|5:44|27:-4,1,82,2|0,0:0|1:2,0:0:0:0:
161,115,10169,2,0,P|201:109|235:87,1,82,10|0,0:0|0:0,0:0:0:0:
58,227,10544,5,10,1:2:0:0:
138,37,10731,1,10,1:2:0:0:
138,37,11106,5,10,1:2:0:0:
222,219,11293,1,10,1:2:0:0:
222,219,11669,1,10,1:2:0:0:
376,184,11856,6,0,B|411:208|416:257|416:257|445:231|486:233,1,153.750005865097,14|0,1:2|0:0,0:0:0:0:
462,156,12419,1,10,0:0:0:0:
401,285,12606,1,10,0:0:0:0:
283,218,12794,1,8,0:0:0:0:
368,156,12981,1,10,0:0:0:0:
322,346,13169,1,8,0:0:0:0:
129,253,13356,1,10,0:0:0:0:
277,108,13544,6,0,P|274:173|255:236,1,131.2,6|8,1:1|0:0,0:0:0:0:
200,297,14106,1,2,0:0:0:0:
129,253,14294,2,0,P|96:253|63:258,1,65.6,2|0,1:2|1:2,0:0:0:0:
36,333,14669,1,10,0:0:0:0:
129,253,14856,6,0,P|132:191|130:104,1,131.2,2|0,0:0|0:0,0:0:0:0:
27,76,15419,1,10,0:0:0:0:
86,29,15606,2,0,P|132:23|161:27,1,65.6,2|0,0:0|1:2,0:0:0:0:
227,109,15981,2,0,P|259:110|291:104,1,65.6,2|8,1:2|0:0,0:0:0:0:
375,83,16356,1,2,0:0:0:0:
291,104,16544,6,0,P|270:145|284:247,1,131.2,2|8,1:2|0:0,0:0:0:0:
326,291,17106,1,2,0:0:0:0:
436,267,17294,2,0,P|485:274|502:275,1,65.6,2|0,1:2|1:2,0:0:0:0:
347,318,17669,1,10,0:0:0:0:
396,196,17856,6,0,P|398:135|391:58,1,131.2,2|0,0:0|0:0,0:0:0:0:
292,38,18419,1,10,0:0:0:0:
253,109,18606,2,0,P|202:116|181:115,1,65.6,2|0,0:0|1:2,0:0:0:0:
60,187,18981,2,0,P|54:154|53:122,1,65.6,2|8,1:2|0:0,0:0:0:0:
119,54,19356,1,2,0:0:0:0:
53,122,19544,6,0,P|121:165|114:230,1,131.2,2|8,1:2|0:0,0:0:0:0:
106,288,20106,1,0,0:0:0:0:
207,339,20294,2,0,P|250:325|276:325,1,65.6,2|0,1:2|1:2,0:0:0:0:
384,273,20669,2,0,P|351:270|320:258,1,65.6,10|0,0:0|0:0,0:0:0:0:
232,179,21044,6,0,P|231:124|272:36,1,131.2,2|10,1:2|0:0,0:0:0:0:
326,19,21606,1,0,0:0:0:0:
386,116,21794,2,0,P|331:104|313:96,1,65.6,2|0,1:2|1:2,0:0:0:0:
428,41,22169,1,10,0:0:0:0:
428,41,22544,6,0,P|416:89|417:182,1,131.2,2|8,1:2|0:0,0:0:0:0:
476,260,23106,1,2,0:0:0:0:
336,317,23294,1,2,1:2:0:0:
357,239,23481,1,0,1:2:0:0:
465,343,23669,1,10,0:0:0:0:
357,239,23856,6,0,P|314:219|284:220,1,65.6,2|0,0:0|1:2,0:0:0:0:
273,142,24231,2,0,P|234:169|220:195,1,65.6,2|8,0:0|0:0,0:0:0:0:
148,166,24606,2,0,P|152:213|168:238,1,65.6,2|0,0:0|1:2,0:0:0:0:
107,287,24981,2,0,P|150:306|180:305,1,65.6,2|8,1:2|0:0,0:0:0:0:
167,307,25544,6,0,P|101:309|37:321,1,131.2,2|8,1:2|0:0,0:0:0:0:
54,230,26106,1,0,0:0:0:0:
148,166,26294,1,2,1:2:0:0:
148,166,26481,1,2,1:2:0:0:
225,215,26669,2,0,P|278:208|321:206,1,65.6,10|2,0:0|0:0,0:0:0:0:
407,149,27044,6,0,P|349:145|292:83,1,131.2,0|10,1:2|0:0,0:0:0:0:
332,22,27606,1,0,0:0:0:0:
413,14,27794,1,2,1:2:0:0:
407,149,27981,2,0,P|403:181|399:214,1,65.6,2|8,1:2|0:0,0:0:0:0:
467,259,28356,1,2,0:0:0:0:
351,304,28544,6,0,P|299:310|207:306,1,131.2,2|8,1:2|0:0,0:0:0:0:
196,181,29106,1,2,0:0:0:0:
275,216,29294,1,0,1:2:0:0:
293,91,29481,1,2,1:2:0:0:
293,91,29669,1,10,0:0:0:0:
127,95,29856,6,0,P|81:82|55:60,1,65.6,2|0,0:0|1:2,0:0:0:0:
164,177,30231,2,0,P|137:216|108:234,1,65.6,2|8,0:0|0:0,0:0:0:0:
253,172,30606,2,0,P|282:209|290:242,1,65.6,2|0,0:0|1:2,0:0:0:0:
293,301,30981,1,2,1:2:0:0:
127,255,31169,1,8,0:0:0:0:
127,255,31544,6,0,P|68:247|25:187,1,131.2,2|8,1:2|0:0,0:0:0:0:
184,34,32294,2,0,P|243:42|286:102,1,131.2,2|8,1:2|0:0,0:0:0:0:
300,175,32856,1,0,0:0:0:0:
224,207,33044,6,0,P|185:197|147:185,1,65.6,2|0,1:2|0:0,0:0:0:0:
273,279,33419,2,0,P|241:288|209:296,1,65.6,8|0,0:0|0:0,0:0:0:0:
351,278,33794,1,2,1:2:0:0:
412,325,33981,1,0,1:2:0:0:
498,253,34169,2,0,P|499:220|489:188,1,65.6,10|0,0:0|0:0,0:0:0:0:
394,92,34544,1,2,1:2:0:0:
280,127,34731,1,2,0:0:0:0:
417,233,34919,1,10,0:0:0:0:
417,233,35294,5,2,1:2:0:0:
284,300,35481,1,0,1:2:0:0:
248,133,35669,1,10,0:0:0:0:
348,158,35856,1,2,0:0:0:0:
248,133,36044,5,2,1:2:0:0:
148,264,36231,2,0,P|139:217|141:193,1,65.6,10|8,0:0|0:0,0:0:0:0:
47,90,36606,1,2,1:2:0:0:
121,177,36794,1,8,0:0:0:0:
250,103,36981,1,2,1:2:0:0:
281,277,37169,1,8,0:0:0:0:
222,188,37356,1,8,0:0:0:0:
374,334,37544,6,0,P|433:328|514:308,1,131.2,6|0,1:1|0:0,0:0:0:0:
487,225,38106,2,0,P|428:231|347:251,1,131.2,2|2,0:0|0:0,0:0:0:0:
290,341,38669,1,10,0:0:0:0:
290,341,39044,5,2,1:2:0:0:
275,263,39231,1,2,1:2:0:0:
202,232,39419,1,0,0:0:0:0:
141,281,39606,2,0,P|100:293|9:263,1,131.2,2|0,0:0|1:2,0:0:0:0:
25,164,40169,1,8,0:0:0:0:
25,164,40544,5,2,1:2:0:0:
103,183,40731,2,0,P|146:176|185:166,1,65.6,2|0,1:2|0:0,0:0:0:0:
23,130,41106,1,2,1:2:0:0:
134,70,41294,2,0,P|142:36|142:0,1,65.6,2|0,1:2|0:0,0:0:0:0:
103,183,41669,1,10,0:0:0:0:
249,154,42044,6,0,P|307:159|391:155,1,131.2,2|2,1:2|0:0,0:0:0:0:
380,56,42606,2,0,P|322:51|238:55,1,131.2,10|2,0:0|1:2,0:0:0:0:
130,159,43169,1,10,0:0:0:0:
130,159,43544,5,6,1:2:0:0:
203,253,43731,1,2,1:2:0:0:
287,202,43919,2,0,P|340:209|380:217,1,65.6,10|2,0:0|0:0,0:0:0:0:
423,296,44294,1,2,1:2:0:0:
322,341,44481,1,0,1:2:0:0:
423,296,44669,1,10,0:0:0:0:
264,269,44856,6,0,P|248:207|258:120,1,131.2,2|0,0:0|1:2,0:0:0:0:
405,75,45419,2,0,P|417:20|417:-11,1,65.6,10|8,0:0|0:0,0:0:0:0:
321,88,45794,1,2,1:2:0:0:
376,201,45981,1,0,1:2:0:0:
468,187,46169,2,0,P|426:183|384:175,1,65.6,10|0,0:0|0:0,0:0:0:0:
194,95,46544,6,0,P|124:103|41:127,2,131.2,2|8|0,1:2|0:0|1:2,0:0:0:0:
321,88,47481,1,0,1:2:0:0:
273,203,47669,2,0,P|263:247|261:283,1,65.6,10|0,0:0|0:0,0:0:0:0:
154,180,48044,6,0,P|164:136|166:100,1,65.6,0|0,1:2|0:0,0:0:0:0:
8,223,48419,2,0,P|51:219|83:211,1,65.6,8|0,0:0|0:0,0:0:0:0:
264,169,48794,1,2,1:2:0:0:
152,147,48981,1,0,1:2:0:0:
263,294,49169,1,10,0:0:0:0:
478,154,49544,5,10,1:2:0:0:
275,88,49731,1,10,1:2:0:0:
44,242,50106,5,10,1:2:0:0:
247,176,50293,1,10,1:2:0:0:
474,323,50669,5,10,1:2:0:0:
284,256,50856,2,0,P|222:256|132:227,1,131.2,14|10,1:2|0:0,0:0:0:0:
117,146,51419,1,8,1:2:0:0:
231,86,51606,1,10,0:0:0:0:
266,242,51794,1,10,1:2:0:0:
166,217,51981,1,10,0:0:0:0:
340,118,52169,1,10,1:2:0:0:
109,67,52356,1,10,0:0:0:0:
352,12,52544,5,6,1:1:0:0:
332,195,52731,1,2,0:0:0:0:
484,116,52919,1,10,0:0:0:0:
258,67,53106,2,0,P|249:114|251:168,1,86.0999973724366,2|0,1:2|0:0,0:0:0:0:
316,280,53481,1,2,1:2:0:0:
473,212,53669,1,10,0:0:0:0:
480,354,53856,6,0,P|421:347|304:303,1,172.199994744873,2|2,0:0|0:0,0:0:0:0:
226,170,54419,1,10,0:0:0:0:
389,228,54606,2,0,P|440:223|500:197,1,86.0999973724366,2|0,0:0|1:2,0:0:0:0:
368,142,54981,1,0,1:2:0:0:
154,125,55169,1,8,0:0:0:0:
154,125,55544,5,2,1:2:0:0:
368,142,55731,1,2,0:0:0:0:
270,33,55919,1,10,0:0:0:0:
262,206,56106,2,0,P|206:216|161:210,1,86.0999973724366,2|0,1:2|0:0,0:0:0:0:
353,114,56481,1,2,1:2:0:0:
323,296,56669,1,10,0:0:0:0:
86,210,56856,6,0,P|35:152|81:50,1,172.199994744873,2|2,0:0|0:0,0:0:0:0:
160,244,57419,2,0,P|156:302|151:346,1,86.0999973724366,10|0,0:0|0:0,0:0:0:0:
267,365,57794,1,2,1:2:0:0:
308,256,57981,1,2,1:2:0:0:
131,217,58169,2,0,P|88:221|45:223,1,86.0999973724366,10|0,0:0|0:0,0:0:0:0:
285,116,58544,5,6,1:1:0:0:
425,193,58731,1,2,0:0:0:0:
285,116,58919,1,10,0:0:0:0:
146,213,59106,2,0,P|141:170|139:127,1,86.0999973724366,2|0,1:2|0:0,0:0:0:0:
312,99,59481,1,2,1:2:0:0:
252,263,59669,1,8,0:0:0:0:
490,238,59856,6,0,P|430:227|310:182,1,172.199994744873,2|2,0:0|0:0,0:0:0:0:
247,42,60419,1,10,0:0:0:0:
109,123,60606,2,0,P|62:120|18:102,1,86.0999973724366,2|0,0:0|1:2,0:0:0:0:
216,55,60981,1,0,1:2:0:0:
330,226,61169,1,8,0:0:0:0:
330,226,61544,5,2,1:2:0:0:
199,179,61731,1,2,0:0:0:0:
247,353,61919,1,10,0:0:0:0:
108,297,62106,2,0,P|66:292|25:278,1,86.0999973724366,2|0,1:2|0:0,0:0:0:0:
167,194,62481,1,2,1:2:0:0:
247,353,62669,1,10,0:0:0:0:
350,253,62856,6,0,P|417:256|499:343,1,172.199994744873,2|8,0:0|0:0,0:0:0:0:
269,270,63419,2,0,P|261:213|263:173,1,86.0999973724366,10|2,0:0|1:2,0:0:0:0:
505,118,63794,1,8,0:0:0:0:
436,205,63981,1,2,1:2:0:0:
335,58,64169,1,10,0:0:0:0:
442,26,64356,1,2,0:0:0:0:
332,168,64544,6,0,P|266:160|219:142,1,86.0999973724366,6|2,1:1|0:0,0:0:0:0:
96,178,64919,1,10,0:0:0:0:
169,24,65106,2,0,P|230:33|281:50,1,86.0999973724366,2|0,1:2|0:0,0:0:0:0:
201,244,65481,1,2,1:2:0:0:
310,144,65669,1,8,0:0:0:0:
135,29,65856,6,0,P|85:54|77:178,1,172.199994744873,2|2,0:0|0:0,0:0:0:0:
153,305,66419,2,0,P|162:253|176:206,1,86.0999973724366,10|2,0:0|0:0,0:0:0:0:
270,345,66794,1,0,1:2:0:0:
69,300,66981,1,0,1:2:0:0:
205,214,67169,2,0,P|258:206|300:191,1,86.0999973724366,8|2,0:0|0:0,0:0:0:0:
433,238,67544,5,2,1:2:0:0:
477,128,67731,1,2,0:0:0:0:
361,89,67919,1,10,0:0:0:0:
232,195,68106,2,0,P|221:128|221:88,1,86.0999973724366,2|0,1:2|0:0,0:0:0:0:
349,3,68481,2,0,P|360:70|360:110,1,86.0999973724366,2|10,1:2|0:0,0:0:0:0:
433,238,68856,1,2,0:0:0:0:
306,217,69044,6,0,P|253:226|124:220,1,172.199994744873,0|10,1:2|0:0,0:0:0:0:
53,161,69606,1,2,0:0:0:0:
225,122,69794,1,0,1:2:0:0:
226,263,69981,1,2,1:2:0:0:
225,122,70169,1,10,0:0:0:0:
108,226,70356,1,0,0:0:0:0:
73,49,70544,5,6,1:1:0:0:
246,12,70731,1,2,0:0:0:0:
73,49,70919,1,10,0:0:0:0:
105,195,71106,2,0,P|127:152|136:86,1,86.0999973724366,2|0,1:2|0:0,0:0:0:0:
321,162,71481,2,0,P|311:111|285:68,1,86.0999973724366,2|8,1:2|0:0,0:0:0:0:
249,277,71856,6,0,P|317:304|421:233,1,172.199994744873,2|2,0:0|0:0,0:0:0:0:
402,141,72419,1,10,0:0:0:0:
209,200,72606,2,0,P|218:286|223:383,1,172.199994744873,2|0,0:0|1:2,0:0:0:0:
307,189,73169,2,0,P|302:134|298:70,1,86.0999973724366,8|2,0:0|0:0,0:0:0:0:
423,241,73544,5,10,0:3:0:0:
305,333,73731,1,2,1:2:0:0:
182,183,73919,1,2,1:2:0:0:
318,210,74106,1,6,0:3:0:0:
105,293,74294,1,0,1:2:0:0:
100,140,74481,1,2,1:2:0:0:
282,313,74669,1,14,0:0:0:0:
388,135,74856,1,2,0:0:0:0:
388,135,74950,1,2,0:0:0:0:
388,135,75044,6,0,P|334:127|284:103,1,86.0999973724366,10|2,0:0|1:2,0:0:0:0:
139,8,75419,2,0,P|193:16|243:40,1,86.0999973724366,10|0,0:0|1:2,0:0:0:0:
241,184,75794,1,2,0:0:0:0:
57,154,75981,1,10,0:0:0:0:
106,6,76169,1,10,0:0:0:0:
152,207,76356,1,10,0:3:0:0:
302,112,76544,6,0,P|319:156|318:228,1,86.0999973724366,6|0,1:1|0:0,0:0:0:0:
172,289,76919,2,0,P|155:245|156:173,1,86.0999973724366,10|0,0:0|0:0,0:0:0:0:
333,290,77294,1,2,1:2:0:0:
199,368,77481,1,0,1:2:0:0:
375,208,77669,2,0,P|435:207|477:192,1,86.0999973724366,10|0,0:0|0:0,0:0:0:0:
365,35,78044,6,0,P|317:57|292:106,1,86.0999973724366,2|0,1:2|0:0,0:0:0:0:
242,223,78419,2,0,P|284:192|301:140,1,86.0999973724366,10|0,0:0|0:0,0:0:0:0:
299,84,78794,1,2,1:2:0:0:
160,44,78981,1,0,1:2:0:0:
112,202,79169,2,0,P|62:210|5:205,1,86.0999973724366,10|0,0:0|0:0,0:0:0:0:
218,144,79544,5,2,1:2:0:0:
69,103,79731,1,2,0:0:0:0:
218,144,79919,1,10,0:0:0:0:
101,287,80106,2,0,P|148:300|200:298,1,86.0999973724366,2|0,1:2|0:0,0:0:0:0:
267,237,80481,1,0,1:2:0:0:
261,74,80669,1,10,0:0:0:0:
138,148,80856,1,2,0:0:0:0:
261,74,81044,5,2,0:0:0:0:
357,226,81231,1,2,1:2:0:0:
329,20,81419,2,0,P|340:89|342:130,1,86.0999973724366,8|0,0:0|0:0,0:0:0:0:
505,288,81794,1,2,1:2:0:0:
372,251,81981,1,0,1:2:0:0:
512,158,82169,2,0,P|443:169|402:171,1,86.0999973724366,10|0,0:0|0:0,0:0:0:0:
264,320,82544,6,0,P|275:260|294:207,1,86.0999973724366,6|0,1:1|0:0,0:0:0:0:
154,206,82919,2,0,P|143:146|124:93,1,86.0999973724366,10|0,0:0|0:0,0:0:0:0:
319,23,83294,6,0,P|307:64|300:106,1,86.0999973724366,2|0,1:2|1:2,0:0:0:0:
154,206,83669,2,0,P|165:247|172:289,1,86.0999973724366,10|0,0:0|0:0,0:0:0:0:
373,231,84044,6,0,P|330:224|289:212,1,86.0999973724366,2|0,1:2|0:0,0:0:0:0:
77,83,84419,2,0,P|119:89|160:101,1,86.0999973724366,10|0,0:0|1:2,0:0:0:0:
362,134,84794,2,0,P|392:83|388:25,1,86.0999973724366,2|0,0:0|1:2,0:0:0:0:
194,205,85169,1,10,0:0:0:0:
336,304,85356,1,2,0:0:0:0:
336,304,85450,1,0,0:0:0:0:
336,304,85544,5,2,1:2:0:0:
245,124,85731,1,2,0:0:0:0:
161,359,85919,1,10,0:0:0:0:
416,322,86106,2,0,P|421:262|427:208,1,86.0999973724366,6|0,1:1|0:0,0:0:0:0:
239,95,86481,1,2,1:2:0:0:
429,116,86669,1,10,0:0:0:0:
189,228,86856,1,6,1:1:0:0:
256,192,86950,12,0,88731,0:0:0:0:
