osu file format v14

[General]
AudioFilename: audio.mp3
AudioLeadIn: 0
PreviewTime: 52544
Countdown: 0
SampleSet: Soft
StackLeniency: 0.7
Mode: 0
LetterboxInBreaks: 0
WidescreenStoryboard: 0

[Editor]
DistanceSpacing: 1
BeatDivisor: 4
GridSize: 8
TimelineZoom: 1

[Metadata]
Title:Hikaru nara (TV Size)
TitleUnicode:光るなら (TV Size)
Artist:Goose house
ArtistUnicode:Goose house
Creator:Mochi-
Version:Kaori
Source:四月は君の嘘
Tags:shigatsu wa kimi no uso your lie in april first opening グース ハウス noitamina ノイタミナ フジテレビ tv terebi sony music labels phrase #9 工藤秀平 shuhei kudo 竹渕慶 kei takebuchi 竹澤汀 migiwa takezawa マナミ manami 沙夜香 sayaka ワタナベシュウヘイ shuhei watanabe 齊藤ジョニー syndicate_ midorijeon Amats dollyn- mochia japanese anime jpop j_pop j pop j-pop akiko -_nilou_- nilou
BeatmapID:4545180
BeatmapSetID:2156134

[Difficulty]
HPDrainRate:6
CircleSize:4
OverallDifficulty:8
ApproachRate:8.4
SliderMultiplier:1.7
SliderTickRate:1

[Events]
//Background and Video events
Video,291,"video.mp4"
0,0,"bg.png",0,0
//Break Periods
//Storyboard Layer 0 (Background)
//Storyboard Layer 1 (Fail)
//Storyboard Layer 2 (Pass)
//Storyboard Layer 3 (Foreground)
//Storyboard Layer 4 (Overlay)
//Storyboard Sound Samples

[TimingPoints]
44,375,4,2,1,55,1,0
44,-133.333333333333,4,2,1,55,0,0
3044,-133.333333333333,4,2,1,65,0,0
4544,-100,4,2,1,75,0,0
11856,-133.333333333333,4,2,1,75,0,0
12419,-133.333333333333,4,2,1,45,0,0
12606,-133.333333333333,4,2,1,48,0,0
12794,-133.333333333333,4,2,1,52,0,0
12981,-133.333333333333,4,2,1,55,0,0
13169,-133.333333333333,4,2,1,58,0,0
13356,-133.333333333333,4,2,1,62,0,0
13544,-125,4,2,1,65,0,0
37544,-125,4,2,1,55,0,0
43544,-125,4,2,1,65,0,0
44294,-111.111111111111,4,2,1,65,0,0
49544,-125,4,2,1,75,0,0
51231,-125,4,2,1,45,0,0
51419,-125,4,2,1,50,0,0
51606,-125,4,2,1,55,0,0
51794,-125,4,2,1,60,0,0
51981,-125,4,2,1,65,0,0
52169,-125,4,2,1,70,0,0
52356,-125,4,2,1,75,0,0
52544,-95.2380952380952,4,2,1,80,0,0
76544,-95.2380952380952,4,2,1,75,0,0

[Colours]
Combo1 : 238,204,87
Combo2 : 146,146,201
Combo3 : 255,128,192
Combo4 : 234,138,106

[HitObjects]
410,67,44,6,0,P|403:44|381:8,2,63.7500024318696,2|2|2,0:0|0:0|0:0,0:0:0:0:
386,159,606,2,0,P|448:152|513:124,1,127.500004863739,2|2,0:0|0:0,0:0:0:0:
410,67,1169,1,2,0:0:0:0:
303,152,1356,2,0,P|295:215|303:278,1,127.500004863739,2|2,0:0|0:0,0:0:0:0:
253,355,1919,1,2,0:0:0:0:
154,243,2106,1,2,0:0:0:0:
154,243,2856,6,0,L|146:184,1,31.8750012159348,2|2,0:0|0:0,0:0:0:0:
167,104,3044,2,0,L|181:33,1,63.7500024318696,14|0,0:0|1:2,0:0:0:0:
272,203,3419,2,0,L|281:265,1,63.7500024318696,10|0,0:0|1:2,0:0:0:0:
445,148,3794,1,2,0:0:0:0:
362,65,3981,1,8,0:0:0:0:
404,279,4169,1,10,0:0:0:0:
407,290,4263,1,8,0:0:0:0:
409,302,4357,1,8,0:3:0:0:
411,314,4450,1,0,0:0:0:0:
411,324,4544,6,0,P|326:313|244:290,1,170,6|10,1:1|0:0,0:0:0:0:
136,348,5106,2,0,P|113:311|97:273,1,85,2|0,0:0|1:2,0:0:0:0:
13,214,5481,1,2,1:2:0:0:
61,108,5669,1,8,0:0:0:0:
216,175,5856,2,0,P|266:168|299:160,1,85,2|0,0:0|1:2,0:0:0:0:
461,44,6231,5,2,0:0:0:0:
424,170,6419,1,10,0:0:0:0:
305,127,6606,2,0,L|280:24,1,85,2|0,1:2|0:0,0:0:0:0:
170,151,6981,2,0,P|129:142|81:118,1,85,2|8,1:2|0:0,0:0:0:0:
136,39,7356,5,2,0:0:0:0:
249,205,7544,2,0,P|266:284|273:406,1,170,2|10,1:2|0:0,0:0:0:0:
156,248,8106,2,0,P|169:290|172:333,1,85,2|0,0:0|1:2,0:0:0:0:
367,301,8481,2,0,P|354:260|350:218,1,85,2|8,1:2|0:0,0:0:0:0:
249,175,8856,1,2,0:0:0:0:
172,330,9044,6,0,P|90:336|24:284,1,170,2|8,1:2|0:0,0:0:0:0:
42,196,9606,1,0,1:2:0:0:
193,247,9794,2,0,P|203:204|207:146,1,85,2|0,0:0|1:2,0:0:0:0:
89,33,10169,2,0,P|79:76|75:134,1,85,10|0,0:0|0:0,0:0:0:0:
331,79,10544,5,10,1:2:0:0:
192,54,10731,1,10,1:2:0:0:
255,199,11106,5,10,1:2:0:0:
414,175,11293,1,10,1:2:0:0:
285,335,11669,5,10,1:2:0:0:
128,322,11856,2,0,P|224:315|314:284,1,191.250007295609,14|10,1:2|0:0,0:0:0:0:
398,218,12606,1,10,0:0:0:0:
338,154,12794,1,8,0:0:0:0:
357,297,12981,1,10,0:0:0:0:
507,241,13169,1,8,0:0:0:0:
418,98,13356,1,10,0:0:0:0:
250,251,13544,6,0,P|232:198|223:112,1,136,6|8,1:1|0:0,0:0:0:0:
130,0,14106,1,2,0:0:0:0:
81,92,14294,2,0,P|116:91|152:79,1,68,2|0,1:2|1:2,0:0:0:0:
215,26,14669,1,10,0:0:0:0:
272,145,14856,6,0,P|347:144|431:119,1,136,2|0,0:0|0:0,0:0:0:0:
430,49,15419,1,10,0:0:0:0:
499,157,15606,2,0,P|508:196|505:246,1,68,2|0,0:0|1:2,0:0:0:0:
449,296,15981,2,0,P|415:294|382:285,1,68,2|8,1:2|0:0,0:0:0:0:
322,220,16356,1,2,0:0:0:0:
236,364,16544,6,0,P|221:302|219:221,1,136,2|8,1:2|0:0,0:0:0:0:
228,152,17106,1,2,0:0:0:0:
134,256,17294,2,0,P|113:285|94:323,1,68,2|0,1:2|1:2,0:0:0:0:
25,231,17669,1,10,0:0:0:0:
94,120,17856,6,0,P|144:82|220:53,1,136,2|0,0:0|0:0,0:0:0:0:
275,134,18419,1,10,0:0:0:0:
396,89,18606,2,0,P|398:45|383:-8,1,68,2|0,0:0|1:2,0:0:0:0:
275,134,18981,2,0,P|270:168|272:202,1,68,2|8,1:2|0:0,0:0:0:0:
381,171,19356,1,2,0:0:0:0:
351,315,19544,2,0,P|283:313|218:292,1,136,2|8,1:2|0:0,0:0:0:0:
218,292,20294,5,2,1:2:0:0:
271,201,20481,1,0,1:2:0:0:
132,144,20669,2,0,P|99:150|66:157,1,68,10|0,0:0|0:0,0:0:0:0:
260,169,21044,6,0,P|267:96|247:13,2,136,2|10|2,1:2|0:0|1:2,0:0:0:0:
283,252,21981,1,0,1:2:0:0:
413,222,22169,2,0,P|427:219|490:190,1,68,10|0,0:0|0:0,0:0:0:0:
475,369,22544,1,2,1:2:0:0:
404,310,22731,1,0,0:0:0:0:
301,368,22919,6,0,P|284:327|276:231,1,136,8|2,0:0|1:2,0:0:0:0:
120,369,23481,1,0,1:2:0:0:
199,280,23669,1,10,0:0:0:0:
120,369,23856,2,0,P|73:366|38:356,1,68,2|0,0:0|1:2,0:0:0:0:
131,272,24231,2,0,P|178:275|213:285,1,68,2|8,0:0|0:0,0:0:0:0:
32,243,24606,2,0,P|35:196|45:161,1,68,2|0,0:0|1:2,0:0:0:0:
172,178,24981,5,2,1:2:0:0:
5,84,25169,1,8,0:0:0:0:
5,84,25544,6,0,P|61:70|153:36,1,136,2|8,1:2|0:0,0:0:0:0:
134,43,26294,1,2,1:2:0:0:
286,108,26481,1,2,1:2:0:0:
199,152,26669,1,10,0:0:0:0:
268,24,26856,1,2,0:0:0:0:
199,152,27044,2,0,P|196:222|208:291,1,136,0|10,1:2|0:0,0:0:0:0:
206,286,27794,5,2,1:2:0:0:
294,327,27981,2,0,P|327:323|358:309,1,68,2|8,1:2|0:0,0:0:0:0:
418,361,28356,1,2,0:0:0:0:
337,216,28544,2,0,P|320:177|304:124,1,68,2|0,1:2|0:0,0:0:0:0:
229,14,28919,2,0,P|215:80|191:155,1,136,8|0,0:0|1:2,0:0:0:0:
65,194,29481,5,2,1:2:0:0:
97,80,29669,1,10,0:0:0:0:
65,194,29856,2,0,L|135:203,1,68,2|0,0:0|1:2,0:0:0:0:
357,144,30231,6,0,P|290:132|223:143,1,136,2|2,0:0|0:0,0:0:0:0:
144,240,30794,1,0,1:2:0:0:
238,304,30981,1,2,1:2:0:0:
140,220,31169,2,0,L|73:208,1,68,8|0,0:0|0:0,0:0:0:0:
99,368,31544,6,0,P|153:354|233:350,1,136,2|8,1:2|0:0,0:0:0:0:
233,350,32106,1,0,0:0:0:0:
311,225,32294,2,0,P|253:242|175:246,1,136,2|8,1:2|0:0,0:0:0:0:
177,246,32856,1,0,0:0:0:0:
44,226,33044,2,0,L|44:158,1,68,2|0,1:2|0:0,0:0:0:0:
186,166,33419,1,8,0:0:0:0:
186,166,33794,6,0,P|219:156|264:120,1,68,2|0,1:2|1:2,0:0:0:0:
155,66,34169,2,0,P|129:51|91:35,1,68,10|0,0:0|0:0,0:0:0:0:
38,170,34544,5,2,1:2:0:0:
100,288,34731,1,2,0:0:0:0:
157,217,34919,2,0,P|200:210|237:212,1,68,10|0,0:0|0:0,0:0:0:0:
394,232,35294,1,2,1:2:0:0:
394,232,35481,1,0,1:2:0:0:
337,309,35669,5,10,0:0:0:0:
357,141,35856,2,0,P|355:102|343:67,1,68,2|0,0:0|1:2,0:0:0:0:
145,105,36231,1,10,0:0:0:0:
279,15,36419,1,8,0:0:0:0:
336,161,36606,1,2,1:2:0:0:
246,113,36794,1,8,0:0:0:0:
222,272,36981,5,2,1:2:0:0:
324,198,37169,1,10,0:0:0:0:
352,324,37356,1,10,0:0:0:0:
469,265,37544,6,0,P|479:195|462:117,1,136,6|0,1:1|0:0,0:0:0:0:
386,71,38106,2,0,P|381:104|384:138,1,68,2|0,0:0|1:2,0:0:0:0:
467,131,38481,1,2,0:0:0:0:
377,225,38669,2,0,P|343:227|309:223,1,68,10|0,0:0|0:0,0:0:0:0:
167,251,39044,1,2,1:2:0:0:
102,191,39231,2,0,P|86:125|83:57,2,136,2|2|0,1:2|0:0|1:2,0:0:0:0:
243,226,40169,1,8,0:0:0:0:
243,226,40544,5,2,1:2:0:0:
125,189,40731,2,0,P|126:155|132:122,1,68,2|0,1:2|0:0,0:0:0:0:
217,144,41106,1,2,1:2:0:0:
131,283,41294,2,0,P|97:275|66:263,1,68,2|0,1:2|0:0,0:0:0:0:
217,144,41669,2,0,P|251:140|285:139,1,68,10|2,0:0|0:0,0:0:0:0:
207,237,42044,6,0,P|227:302|229:370,1,136,2|2,1:2|0:0,0:0:0:0:
339,280,42606,2,0,P|318:215|316:148,1,136,10|2,0:0|1:2,0:0:0:0:
446,347,43169,1,10,0:0:0:0:
446,347,43544,5,6,1:2:0:0:
452,214,43731,1,2,1:2:0:0:
266,306,43919,1,10,0:0:0:0:
347,373,44106,1,2,0:0:0:0:
384,282,44294,6,0,P|392:232|382:130,1,152.999995330811,2|10,1:2|0:0,0:0:0:0:
258,14,44856,2,0,P|251:81|266:166,1,152.999995330811,2|0,0:0|1:2,0:0:0:0:
128,182,45419,2,0,P|150:200|195:217,1,76.4999976654053,10|8,0:0|0:0,0:0:0:0:
343,176,45794,1,2,1:2:0:0:
202,123,45981,1,0,1:2:0:0:
275,271,46169,2,0,P|285:303|285:349,1,76.4999976654053,10|0,0:0|0:0,0:0:0:0:
454,363,46544,6,0,P|463:296|447:212,1,152.999995330811,2|8,1:2|0:0,0:0:0:0:
381,70,47294,1,0,1:2:0:0:
336,181,47481,1,0,1:2:0:0:
226,166,47669,2,0,P|225:130|229:86,1,76.4999976654053,10|0,0:0|0:0,0:0:0:0:
316,52,48044,6,0,P|351:60|400:79,1,76.4999976654053,0|0,1:2|0:0,0:0:0:0:
377,243,48419,2,0,P|341:234|301:216,1,76.4999976654053,8|0,0:0|0:0,0:0:0:0:
146,247,48794,1,2,1:2:0:0:
218,367,48981,1,0,1:2:0:0:
63,357,49169,2,0,P|30:341|-1:303,1,76.4999976654053,10|0,0:0|0:0,0:0:0:0:
181,271,49544,1,10,1:2:0:0:
333,327,49731,6,0,P|344:258|341:161,1,136,10|10,1:2|1:2,0:0:0:0:
107,223,50294,2,0,P|95:155|95:88,1,136,10|10,1:2|1:2,0:0:0:0:
356,52,50856,2,0,P|366:119|366:194,1,136,14|10,1:2|0:0,0:0:0:0:
328,266,51419,5,8,1:2:0:0:
231,170,51606,1,10,0:0:0:0:
397,207,51794,1,10,1:2:0:0:
284,363,51981,5,10,0:0:0:0:
317,177,52169,1,10,1:2:0:0:
461,305,52356,1,10,0:0:0:0:
208,348,52544,6,0,P|168:324|120:285,1,89.2499972763062,6|2,1:1|0:0,0:0:0:0:
92,195,52919,1,10,0:0:0:0:
311,202,53106,2,0,P|308:252|296:302,1,89.2499972763062,2|0,1:2|0:0,0:0:0:0:
213,166,53481,1,2,1:2:0:0:
378,117,53669,1,10,0:0:0:0:
397,305,53856,6,0,P|435:304|500:253,1,89.2499972763062,2|0,0:0|1:2,0:0:0:0:
239,274,54231,1,2,0:0:0:0:
311,156,54419,1,10,0:0:0:0:
126,221,54606,2,0,P|110:172|107:117,1,89.2499972763062,2|0,0:0|1:2,0:0:0:0:
119,39,54981,1,0,1:2:0:0:
214,89,55169,1,8,0:0:0:0:
214,89,55544,5,2,1:2:0:0:
80,137,55731,1,2,0:0:0:0:
246,219,55919,1,10,0:0:0:0:
310,67,56106,2,0,P|281:33|247:5,1,89.2499972763062,2|0,1:2|0:0,0:0:0:0:
308,223,56481,1,2,1:2:0:0:
214,89,56669,1,10,0:0:0:0:
96,194,56856,6,0,P|88:293|107:404,1,178.499994552612,2|2,0:0|0:0,0:0:0:0:
233,328,57419,1,10,0:0:0:0:
233,328,57794,5,2,1:2:0:0:
199,150,57981,1,2,1:2:0:0:
100,230,58169,1,10,0:0:0:0:
27,135,58356,1,0,0:0:0:0:
256,168,58544,6,0,P|294:132|327:64,1,89.2499972763062,6|2,1:1|0:0,0:0:0:0:
159,88,58919,1,10,0:0:0:0:
233,272,59106,2,0,P|276:263|317:245,1,89.2499972763062,2|0,1:2|0:0,0:0:0:0:
49,181,59481,1,2,1:2:0:0:
197,242,59669,1,8,0:0:0:0:
22,283,59856,6,0,P|15:333|14:384,1,89.2499972763062,2|0,0:0|1:2,0:0:0:0:
40,177,60231,1,2,0:0:0:0:
162,283,60419,1,10,0:0:0:0:
252,161,60606,2,0,P|302:159|358:166,1,89.2499972763062,2|0,0:0|1:2,0:0:0:0:
483,204,60981,1,0,1:2:0:0:
434,360,61169,1,8,0:0:0:0:
434,360,61544,6,0,P|429:308|411:260,1,89.2499972763062,2|2,1:2|0:0,0:0:0:0:
329,197,61919,1,10,0:0:0:0:
511,168,62106,2,0,P|460:164|401:143,1,89.2499972763062,2|0,1:2|0:0,0:0:0:0:
288,97,62481,5,2,1:2:0:0:
388,43,62669,2,0,P|429:32|501:31,1,89.2499972763062,10|2,0:0|0:0,0:0:0:0:
364,189,63044,1,2,1:2:0:0:
286,111,63231,1,8,0:0:0:0:
211,276,63418,1,10,0:0:0:0:
182,134,63606,1,2,1:2:0:0:
378,206,63794,5,8,0:0:0:0:
331,333,63981,1,2,1:2:0:0:
378,206,64169,1,10,0:0:0:0:
194,233,64356,1,2,0:0:0:0:
344,375,64544,6,0,P|355:311|350:262,1,89.2499972763062,6|2,1:1|0:0,0:0:0:0:
271,189,64919,1,10,0:0:0:0:
155,288,65106,2,0,P|144:224|149:175,1,89.2499972763062,2|0,1:2|0:0,0:0:0:0:
211,30,65481,1,2,1:2:0:0:
251,156,65669,1,8,0:0:0:0:
114,133,65856,2,0,P|108:77|118:15,1,89.2499972763062,2|0,0:0|1:2,0:0:0:0:
174,200,66231,5,2,0:0:0:0:
33,153,66419,1,10,0:0:0:0:
29,310,66606,2,0,P|85:316|147:306,1,89.2499972763062,2|0,0:0|1:2,0:0:0:0:
226,265,66981,1,0,1:2:0:0:
148,140,67169,2,0,P|141:197|150:234,1,89.2499972763062,8|2,0:0|0:0,0:0:0:0:
312,357,67544,5,2,1:2:0:0:
406,291,67731,1,2,0:0:0:0:
258,229,67919,1,10,0:0:0:0:
401,136,68106,2,0,P|416:87|421:19,1,89.2499972763062,2|0,1:2|0:0,0:0:0:0:
366,228,68481,1,2,1:2:0:0:
270,99,68669,1,10,0:0:0:0:
151,331,68856,6,0,P|138:250|158:118,1,178.499994552612,2|2,0:0|0:0,0:0:0:0:
239,104,69418,2,0,P|293:95|341:76,1,89.2499972763062,10|2,0:0|0:0,0:0:0:0:
71,18,69793,2,0,P|62:72|45:121,1,89.2499972763062,0|2,1:2|1:2,0:0:0:0:
151,269,70168,1,10,0:0:0:0:
74,190,70356,1,0,0:0:0:0:
264,152,70544,6,0,P|313:146|379:150,1,89.2499972763062,6|2,1:1|0:0,0:0:0:0:
336,304,70918,1,10,0:0:0:0:
151,269,71106,2,0,P|146:216|157:159,1,89.2499972763062,2|0,1:2|0:0,0:0:0:0:
303,271,71481,1,2,1:2:0:0:
158,346,71669,1,8,0:0:0:0:
77,191,71856,6,0,P|132:182|274:135,1,178.499994552612,2|2,0:0|0:0,0:0:0:0:
366,50,72418,1,10,0:0:0:0:
233,70,72606,2,0,P|182:67|133:51,1,89.2499972763062,2|0,0:0|1:2,0:0:0:0:
46,23,72981,1,0,1:2:0:0:
30,160,73168,1,8,0:0:0:0:
30,160,73544,6,0,L|45:264,1,89.2499972763062,10|2,0:3|1:2,0:0:0:0:
164,225,73919,1,2,1:2:0:0:
17,345,74106,2,0,P|85:326|226:305,1,178.499994552612,6|2,0:3|1:2,0:0:0:0:
326,342,74669,1,14,0:0:0:0:
263,228,74856,5,2,0:0:0:0:
263,228,74950,1,2,0:0:0:0:
263,228,75044,1,10,0:0:0:0:
405,263,75231,1,2,1:2:0:0:
364,74,75419,1,10,0:0:0:0:
348,200,75606,1,0,1:2:0:0:
468,98,75794,1,2,0:0:0:0:
302,18,75981,1,10,0:0:0:0:
326,225,76169,1,10,0:0:0:0:
129,100,76356,1,10,0:3:0:0:
129,100,76449,1,0,0:0:0:0:
129,100,76544,6,0,P|129:165|150:220,1,89.2499972763062,6|0,1:1|0:0,0:0:0:0:
249,359,76919,2,0,P|254:293|237:237,1,89.2499972763062,10|0,0:0|0:0,0:0:0:0:
210,141,77294,1,2,1:2:0:0:
76,248,77481,1,0,1:2:0:0:
29,101,77669,2,0,P|39:52|62:-7,1,89.2499972763062,10|0,0:0|0:0,0:0:0:0:
190,169,78044,6,0,P|182:108|166:60,1,89.2499972763062,2|0,1:2|0:0,0:0:0:0:
27,262,78419,2,0,P|78:276|151:270,1,89.2499972763062,10|0,0:0|0:0,0:0:0:0:
320,329,78794,1,2,1:2:0:0:
280,196,78981,1,0,1:2:0:0:
213,379,79169,1,10,0:0:0:0:
213,379,79544,5,2,1:2:0:0:
294,214,79731,1,2,0:0:0:0:
393,339,79919,1,10,0:0:0:0:
497,280,80106,2,0,P|487:223|467:178,1,89.2499972763062,2|0,1:2|0:0,0:0:0:0:
424,100,80481,1,0,1:2:0:0:
325,170,80669,5,10,0:0:0:0:
372,21,80856,1,2,0:0:0:0:
325,170,81044,1,2,0:0:0:0:
237,100,81231,1,2,1:2:0:0:
108,199,81419,2,0,P|49:181|3:152,1,89.2499972763062,8|0,0:0|0:0,0:0:0:0:
225,189,81794,5,2,1:2:0:0:
135,32,81981,1,0,1:2:0:0:
108,199,82169,2,0,P|122:262|142:307,1,89.2499972763062,10|0,0:0|0:0,0:0:0:0:
317,352,82544,2,0,P|315:275|325:236,1,89.2499972763062,6|0,1:1|0:0,0:0:0:0:
470,222,82919,2,0,P|438:274|393:303,1,89.2499972763062,10|0,0:0|0:0,0:0:0:0:
290,163,83294,5,2,1:2:0:0:
356,57,83481,1,0,1:2:0:0:
501,137,83669,2,0,P|440:134|400:115,1,89.2499972763062,10|0,0:0|0:0,0:0:0:0:
241,2,84044,2,0,P|244:75|262:112,1,89.2499972763062,2|0,1:2|0:0,0:0:0:0:
294,294,84419,2,0,P|335:244|384:220,1,89.2499972763062,10|0,0:0|1:2,0:0:0:0:
469,382,84794,2,0,P|425:370|381:365,1,89.2499972763062,2|0,0:0|1:2,0:0:0:0:
217,286,85169,1,10,0:0:0:0:
274,189,85356,1,2,0:0:0:0:
425,274,85544,5,2,1:2:0:0:
247,365,85731,1,2,0:0:0:0:
425,274,85919,1,10,0:0:0:0:
178,208,86106,2,0,P|118:174|82:147,1,89.2499972763062,6|0,1:1|0:0,0:0:0:0:
139,67,86481,5,2,1:2:0:0:
284,230,86669,1,10,0:0:0:0:
364,16,86856,1,6,1:1:0:0:
256,192,87044,12,0,88731,0:0:0:0:
