osu file format v14

[General]
AudioFilename: audio.mp3
AudioLeadIn: 0
PreviewTime: 52544
Countdown: 0
SampleSet: Soft
StackLeniency: 0.7
Mode: 0
LetterboxInBreaks: 0
WidescreenStoryboard: 1

[Editor]
DistanceSpacing: 1
BeatDivisor: 4
GridSize: 8
TimelineZoom: 1

[Metadata]
Title:Hikaru nara (TV Size)
TitleUnicode:光るなら (TV Size)
Artist:Goose house
ArtistUnicode:Goose house
Creator:Mochi-
Version:Hard
Source:四月は君の嘘
Tags:shigatsu wa kimi no uso your lie in april first opening グース ハウス noitamina ノイタミナ フジテレビ tv terebi sony music labels phrase #9 工藤秀平 shuhei kudo 竹渕慶 kei takebuchi 竹澤汀 migiwa takezawa マナミ manami 沙夜香 sayaka ワタナベシュウヘイ shuhei watanabe 齊藤ジョニー syndicate_ midorijeon Amats dollyn- mochia japanese anime jpop j_pop j pop j-pop akiko -_nilou_- nilou
BeatmapID:4545340
BeatmapSetID:2156134

[Difficulty]
HPDrainRate:4
CircleSize:4
OverallDifficulty:5
ApproachRate:8
SliderMultiplier:1.3
SliderTickRate:1

[Events]
//Background and Video events
Video,291,"video.mp4"
0,0,"bg.png",0,0
//Break Periods
//Storyboard Layer 0 (Background)
//Storyboard Layer 1 (Fail)
//Storyboard Layer 2 (Pass)
//Storyboard Layer 3 (Foreground)
//Storyboard Layer 4 (Overlay)
//Storyboard Sound Samples

[TimingPoints]
44,375,4,2,1,55,1,0
44,-111.111111111111,4,2,1,55,0,0
3044,-100,4,2,1,65,0,0
4544,-90.9090909090909,4,2,1,75,0,0
12419,-90.9090909090909,4,2,1,45,0,0
12606,-90.9090909090909,4,2,1,48,0,0
12794,-90.9090909090909,4,2,1,52,0,0
12981,-90.9090909090909,4,2,1,55,0,0
13169,-90.9090909090909,4,2,1,58,0,0
13356,-90.9090909090909,4,2,1,62,0,0
13544,-90.9090909090909,4,2,1,65,0,0
14294,-100,4,2,1,65,0,0
37544,-100,4,2,1,55,0,0
43544,-100,4,2,1,65,0,0
49544,-100,4,2,1,75,0,0
51231,-100,4,2,1,45,0,0
51419,-100,4,2,1,50,0,0
51606,-100,4,2,1,55,0,0
51794,-100,4,2,1,60,0,0
51981,-100,4,2,1,65,0,0
52169,-100,4,2,1,70,0,0
52356,-100,4,2,1,75,0,0
52544,-90.9090909090909,4,2,1,80,0,0
76544,-90.9090909090909,4,2,1,75,0,0

[Colours]
Combo1 : 238,204,87
Combo2 : 146,146,201
Combo3 : 255,128,192
Combo4 : 234,138,106

[HitObjects]
470,77,44,6,0,P|482:40|482:14,2,58.4999982147217,2|2|2,0:0|0:0|0:0,0:0:0:0:
501,159,606,2,0,P|455:146|381:164,1,116.999996429443,2|2,0:0|0:0,0:0:0:0:
306,140,1169,1,2,0:0:0:0:
334,216,1356,2,0,L|385:331,1,116.999996429443,2|2,0:0|0:0,0:0:0:0:
315,372,1919,1,2,0:0:0:0:
253,313,2106,1,2,0:0:0:0:
253,313,2856,5,2,0:0:0:0:
253,313,2950,1,2,0:0:0:0:
253,313,3044,2,0,L|174:281,1,65,14|0,0:0|1:2,0:0:0:0:
93,254,3419,2,0,L|144:214,1,65,10|0,0:0|1:2,0:0:0:0:
217,147,3794,2,0,L|225:211,1,65,2|8,0:0|0:0,0:0:0:0:
141,129,4169,2,0,L|135:96,3,32.5,10|8|8|0,0:0|0:0|0:3|0:0,0:0:0:0:
129,71,4544,6,0,P|87:73|43:100,1,71.5000021820069,6|2,1:1|0:0,0:0:0:0:
24,163,4919,1,10,0:0:0:0:
57,246,5106,2,0,P|125:263|196:254,1,143.000004364014,2|2,0:0|1:2,0:0:0:0:
273,206,5669,1,8,0:0:0:0:
319,288,5856,2,0,P|331:336|326:380,1,71.5000021820069,2|0,0:0|1:2,0:0:0:0:
423,353,6231,1,2,0:0:0:0:
423,353,6419,1,10,0:0:0:0:
489,279,6606,2,0,L|496:201,1,71.5000021820069,2|0,1:2|0:0,0:0:0:0:
401,143,6981,2,0,L|407:214,1,71.5000021820069,2|8,1:2|0:0,0:0:0:0:
489,118,7356,1,2,0:0:0:0:
425,48,7544,6,0,P|370:43|279:62,1,143.000004364014,2|10,1:2|0:0,0:0:0:0:
185,31,8106,2,0,L|207:109,1,71.5000021820069,2|0,0:0|1:2,0:0:0:0:
263,213,8481,2,0,L|277:143,1,71.5000021820069,2|8,1:2|0:0,0:0:0:0:
171,177,8856,1,2,0:0:0:0:
97,117,9044,2,0,P|42:161|23:229,1,143.000004364014,2|8,1:2|0:0,0:0:0:0:
174,382,9794,2,0,P|190:336|186:301,1,71.5000021820069,2|0,0:0|1:2,0:0:0:0:
97,257,10169,2,0,P|96:288|112:325,1,71.5000021820069,10|0,0:0|0:0,0:0:0:0:
211,303,10544,5,10,1:2:0:0:
293,344,10731,1,10,1:2:0:0:
498,194,11106,5,10,1:2:0:0:
416,235,11293,1,10,1:2:0:0:
249,84,11669,5,10,1:2:0:0:
331,125,11856,1,14,1:2:0:0:
256,192,11950,12,6,13544,1:1:0:0:
47,27,14294,6,0,P|43:77|53:103,1,65,2|0,1:2|1:2,0:0:0:0:
129,123,14669,1,10,0:0:0:0:
66,185,14856,2,0,P|76:262|76:322,1,130,2|0,0:0|0:0,0:0:0:0:
152,360,15419,1,10,0:0:0:0:
230,323,15606,2,0,P|291:327|358:361,2,130,2|2|2,0:0|1:2|0:0,0:0:0:0:
179,248,16544,1,2,1:2:0:0:
285,139,16919,1,8,0:0:0:0:
375,258,17294,6,0,P|418:274|449:277,1,65,2|0,1:2|1:2,0:0:0:0:
496,216,17669,1,10,0:0:0:0:
496,216,17856,2,0,P|470:159|471:90,1,130,2|0,0:0|0:0,0:0:0:0:
497,16,18419,1,10,0:0:0:0:
394,36,18606,2,0,L|319:51,1,65,2|0,0:0|1:2,0:0:0:0:
230,27,18981,2,0,L|250:88,1,65,2|8,1:2|0:0,0:0:0:0:
323,149,19356,1,2,0:0:0:0:
302,234,19544,2,0,P|258:234|170:229,1,130,2|8,1:2|0:0,0:0:0:0:
34,374,20294,6,0,P|35:318|44:290,1,65,2|0,1:2|1:2,0:0:0:0:
122,343,20669,2,0,P|154:345|186:339,1,65,10|0,0:0|0:0,0:0:0:0:
278,379,21044,2,0,P|296:317|283:254,2,130,2|10|2,1:2|0:0|1:2,0:0:0:0:
200,310,21981,1,0,1:2:0:0:
200,310,22169,2,0,L|136:298,1,65,10|0,0:0|0:0,0:0:0:0:
47,273,22544,1,2,1:2:0:0:
47,273,22919,6,0,P|44:214|53:134,1,130,8|2,0:0|1:2,0:0:0:0:
239,82,23669,1,10,0:0:0:0:
294,147,23856,2,0,L|377:132,1,65,2|0,0:0|1:2,0:0:0:0:
442,98,24231,2,0,P|445:130|443:162,1,65,2|8,0:0|0:0,0:0:0:0:
381,286,24606,2,0,P|377:253|379:221,1,65,2|0,0:0|1:2,0:0:0:0:
470,239,24981,1,2,1:2:0:0:
498,333,25169,1,8,0:0:0:0:
498,333,25544,6,0,L|366:354,1,130,2|8,1:2|0:0,0:0:0:0:
210,216,26294,6,0,L|220:280,1,65,2|2,1:2|1:2,0:0:0:0:
165,354,26669,1,10,0:0:0:0:
165,354,26856,1,2,0:0:0:0:
71,333,27044,2,0,P|37:273|55:201,2,130,0|10|2,1:2|0:0|1:2,0:0:0:0:
132,260,27981,2,0,P|199:237|279:239,1,130,2|2,1:2|0:0,0:0:0:0:
347,270,28544,6,0,L|356:194,1,65,2|0,1:2|0:0,0:0:0:0:
440,159,28919,2,0,L|422:24,1,130,8|0,0:0|1:2,0:0:0:0:
333,20,29481,1,2,1:2:0:0:
333,20,29669,1,10,0:0:0:0:
301,110,29856,2,0,P|248:108|170:120,2,130,2|2|2,0:0|0:0|0:0,0:0:0:0:
361,172,30794,2,0,P|401:172|438:153,1,65,0|2,1:2|1:2,0:0:0:0:
489,83,31169,1,8,0:0:0:0:
489,83,31544,6,0,P|507:144|501:221,1,130,2|8,1:2|0:0,0:0:0:0:
484,364,32294,1,2,1:2:0:0:
412,318,32481,1,0,1:2:0:0:
335,375,32669,2,0,P|306:350|281:311,1,65,8|0,0:0|0:0,0:0:0:0:
192,284,33044,2,0,P|251:248|278:185,1,130,2|8,1:2|0:0,0:0:0:0:
144,89,33794,5,2,1:2:0:0:
61,59,33981,1,0,1:2:0:0:
49,151,34169,2,0,P|46:189|35:227,1,65,10|0,0:0|0:0,0:0:0:0:
49,300,34544,2,0,P|97:285|120:199,1,130,2|10,1:2|0:0,0:0:0:0:
273,180,35294,1,2,1:2:0:0:
273,180,35481,1,0,1:2:0:0:
360,200,35669,5,10,0:0:0:0:
368,291,35856,2,0,L|347:359,1,65,2|2,0:0|1:2,0:0:0:0:
440,347,36231,1,10,0:0:0:0:
440,347,36419,1,8,0:0:0:0:
475,257,36606,2,0,P|481:225|474:193,1,65,2|8,1:2|0:0,0:0:0:0:
497,113,36981,2,0,P|433:97|369:93,1,130,2|8,1:2|0:0,0:0:0:0:
288,52,37544,5,6,1:1:0:0:
196,39,37731,2,0,P|189:95|208:196,2,130,2|2|2,1:2|0:0|0:0,0:0:0:0:
115,82,38669,2,0,P|71:94|43:88,1,65,10|0,0:0|0:0,0:0:0:0:
9,161,39044,1,2,1:2:0:0:
62,236,39231,1,2,1:2:0:0:
62,236,39606,6,0,P|121:242|202:243,1,130,2|0,0:0|1:2,0:0:0:0:
240,179,40169,1,8,0:0:0:0:
240,179,40544,5,2,1:2:0:0:
184,107,40731,2,0,P|179:74|167:25,2,65,2|0|2,1:2|0:0|1:2,0:0:0:0:
130,181,41294,2,0,P|129:213|121:248,1,65,2|0,1:2|0:0,0:0:0:0:
26,332,41669,2,0,P|68:324|96:326,1,65,10|2,0:0|0:0,0:0:0:0:
179,352,42044,6,0,P|233:368|321:353,1,130,2|2,1:2|0:0,0:0:0:0:
316,262,42606,2,0,P|262:246|174:261,1,130,10|2,0:0|1:2,0:0:0:0:
119,183,43169,1,10,0:0:0:0:
119,183,43544,5,6,1:2:0:0:
189,126,43731,1,2,1:2:0:0:
113,76,43919,2,0,L|109:-15,1,65,10|2,0:0|0:0,0:0:0:0:
198,10,44294,2,0,L|287:30,1,65,2|0,1:2|1:2,0:0:0:0:
322,91,44669,1,10,0:0:0:0:
403,39,44856,6,0,P|413:101|387:165,1,130,2|0,0:0|1:2,0:0:0:0:
309,213,45419,2,0,P|297:158|304:125,1,65,10|8,0:0|0:0,0:0:0:0:
389,162,45794,1,2,1:2:0:0:
398,249,45981,1,0,1:2:0:0:
371,334,46169,2,0,P|329:330|283:320,1,65,10|0,0:0|0:0,0:0:0:0:
208,384,46544,6,0,P|199:311|223:228,2,130,2|8|0,1:2|0:0|1:2,0:0:0:0:
278,319,47481,1,0,1:2:0:0:
161,303,47669,2,0,L|81:291,1,65,10|0,0:0|0:0,0:0:0:0:
16,346,48044,6,0,P|6:302|14:266,1,65,0|0,1:2|0:0,0:0:0:0:
61,214,48419,2,0,P|104:210|133:203,1,65,8|0,0:0|0:0,0:0:0:0:
206,141,48794,1,2,1:2:0:0:
206,141,48981,1,0,1:2:0:0:
308,187,49169,1,10,0:0:0:0:
476,27,49544,5,10,1:2:0:0:
459,110,49731,1,10,1:2:0:0:
321,192,50106,5,10,1:2:0:0:
299,109,50293,1,10,1:2:0:0:
150,42,50669,5,10,1:2:0:0:
145,136,50856,2,0,P|137:198|106:286,1,130,14|10,1:2|0:0,0:0:0:0:
44,309,51419,2,0,P|66:337|102:352,1,65,8|10,1:2|0:0,0:0:0:0:
189,362,51793,5,10,1:2:0:0:
261,300,51981,1,10,0:0:0:0:
337,365,52169,1,10,1:2:0:0:
393,279,52356,1,10,0:0:0:0:
472,362,52544,6,0,P|488:330|483:274,1,71.5000021820069,6|2,1:1|0:0,0:0:0:0:
453,216,52919,1,10,0:0:0:0:
503,141,53106,2,0,P|460:132|427:132,1,71.5000021820069,2|0,1:2|0:0,0:0:0:0:
357,93,53481,1,2,1:2:0:0:
357,93,53669,1,10,0:0:0:0:
278,150,53856,6,0,P|219:143|196:70,1,143.000004364014,2|2,0:0|0:0,0:0:0:0:
274,34,54419,1,10,0:0:0:0:
357,93,54606,2,0,P|392:92|428:94,1,71.5000021820069,2|0,0:0|1:2,0:0:0:0:
479,161,54981,1,0,1:2:0:0:
425,223,55169,1,8,0:0:0:0:
425,223,55544,6,0,P|432:280|445:296,1,71.5000021820069,2|2,1:2|0:0,0:0:0:0:
497,353,55919,1,10,0:0:0:0:
403,372,56106,2,0,P|338:344|270:361,1,143.000004364014,2|2,1:2|1:2,0:0:0:0:
201,312,56669,1,10,0:0:0:0:
129,372,56856,6,0,B|98:335|98:335|115:214,1,143.000004364014,2|2,0:0|0:0,0:0:0:0:
170,185,57419,2,0,L|160:112,1,71.5000021820069,10|0,0:0|0:0,0:0:0:0:
74,85,57794,1,2,1:2:0:0:
144,28,57981,1,2,1:2:0:0:
223,56,58169,2,0,P|265:52|313:46,1,71.5000021820069,10|0,0:0|0:0,0:0:0:0:
381,19,58544,6,0,P|379:59|368:95,1,71.5000021820069,6|2,1:1|0:0,0:0:0:0:
351,180,58919,1,10,0:0:0:0:
417,248,59106,2,0,P|461:233|482:128,1,143.000004364014,2|2,1:2|1:2,0:0:0:0:
455,66,59669,1,8,0:0:0:0:
370,89,59856,6,0,P|310:85|203:62,1,143.000004364014,2|2,0:0|0:0,0:0:0:0:
144,72,60419,1,10,0:0:0:0:
65,22,60606,2,0,P|52:63|51:96,1,71.5000021820069,2|0,0:0|1:2,0:0:0:0:
68,178,60981,1,0,1:2:0:0:
162,196,61169,1,8,0:0:0:0:
162,196,61544,5,2,1:2:0:0:
178,288,61731,1,2,0:0:0:0:
281,271,61919,1,10,0:0:0:0:
338,349,62106,2,0,L|423:336,1,71.5000021820069,2|0,1:2|0:0,0:0:0:0:
499,278,62481,1,2,1:2:0:0:
499,278,62669,1,10,0:0:0:0:
502,182,62856,6,0,P|466:123|375:133,1,143.000004364014,2|8,0:0|0:0,0:0:0:0:
319,165,63419,2,0,P|311:108|321:77,1,71.5000021820069,10|2,0:0|1:2,0:0:0:0:
392,48,63794,2,0,P|400:105|390:136,1,71.5000021820069,8|2,0:0|1:2,0:0:0:0:
396,210,64169,1,10,0:0:0:0:
472,273,64356,1,2,0:0:0:0:
432,352,64544,6,0,P|385:354|339:334,1,71.5000021820069,6|2,1:1|0:0,0:0:0:0:
297,285,64919,1,10,0:0:0:0:
263,382,65106,2,0,P|224:368|122:349,1,143.000004364014,2|2,1:2|1:2,0:0:0:0:
63,272,65669,1,8,0:0:0:0:
60,185,65856,6,0,P|121:204|145:293,1,143.000004364014,2|2,0:0|0:0,0:0:0:0:
189,353,66419,1,10,0:0:0:0:
189,353,66606,1,2,0:0:0:0:
252,274,66794,2,0,P|264:232|270:193,1,71.5000021820069,0|0,1:2|1:2,0:0:0:0:
245,116,67169,1,8,0:0:0:0:
245,116,67544,5,2,1:2:0:0:
304,39,67731,1,2,0:0:0:0:
393,79,67919,1,10,0:0:0:0:
385,174,68106,2,0,P|381:209|373:244,1,71.5000021820069,2|0,1:2|0:0,0:0:0:0:
359,345,68481,1,2,1:2:0:0:
279,287,68669,1,10,0:0:0:0:
373,244,68856,1,2,0:0:0:0:
273,187,69044,6,0,P|220:196|101:182,1,143.000004364014,0|10,1:2|0:0,0:0:0:0:
53,161,69606,1,2,0:0:0:0:
19,77,69794,2,0,P|65:70|95:83,1,71.5000021820069,0|2,1:2|1:2,0:0:0:0:
172,109,70169,2,0,P|207:110|242:97,1,71.5000021820069,10|0,0:0|0:0,0:0:0:0:
323,34,70544,5,6,1:1:0:0:
323,34,70731,1,2,0:0:0:0:
379,110,70919,1,10,0:0:0:0:
476,96,71106,2,0,P|468:148|448:190,1,71.5000021820069,2|0,1:2|0:0,0:0:0:0:
376,201,71481,2,0,P|386:252|412:292,1,71.5000021820069,2|8,1:2|0:0,0:0:0:0:
464,350,71856,6,0,P|396:323|322:374,1,143.000004364014,2|2,0:0|0:0,0:0:0:0:
264,288,72419,1,10,0:0:0:0:
176,362,72606,2,0,P|167:276|169:192,1,143.000004364014,2|0,0:0|1:2,0:0:0:0:
219,142,73169,1,8,0:0:0:0:
219,142,73544,6,0,P|259:152|304:145,1,71.5000021820069,10|2,0:3|1:2,0:0:0:0:
362,101,73919,1,2,1:2:0:0:
439,151,74106,2,0,P|441:199|400:293,1,143.000004364014,6|2,0:3|1:2,0:0:0:0:
341,359,74669,1,14,0:0:0:0:
243,364,74856,1,2,0:0:0:0:
243,364,74950,1,2,0:0:0:0:
243,364,75044,6,0,P|189:356|143:334,1,71.5000021820069,10|2,0:0|1:2,0:0:0:0:
83,363,75419,2,0,P|91:309|118:266,1,71.5000021820069,10|0,0:0|1:2,0:0:0:0:
28,237,75794,1,2,0:0:0:0:
28,237,75981,1,10,0:0:0:0:
80,160,76169,1,10,0:0:0:0:
80,160,76356,1,10,0:3:0:0:
174,203,76544,6,0,P|240:203|307:242,2,143.000004364014,6|10|2,1:1|0:0|1:2,0:0:0:0:
159,118,77481,1,0,1:2:0:0:
80,160,77669,2,0,P|74:124|76:89,1,71.5000021820069,10|0,0:0|0:0,0:0:0:0:
143,33,78044,6,0,P|194:28|233:31,1,71.5000021820069,2|0,1:2|0:0,0:0:0:0:
299,84,78419,2,0,P|304:135|301:174,1,71.5000021820069,10|0,0:0|0:0,0:0:0:0:
235,213,78794,1,2,1:2:0:0:
235,213,78981,1,0,1:2:0:0:
326,268,79169,2,0,P|368:268|407:261,1,71.5000021820069,10|0,0:0|0:0,0:0:0:0:
471,206,79544,5,2,1:2:0:0:
471,206,79731,1,2,0:0:0:0:
478,305,79919,1,10,0:0:0:0:
379,371,80106,2,0,P|318:375|238:322,1,143.000004364014,2|0,1:2|1:2,0:0:0:0:
247,252,80669,2,0,P|207:259|176:291,1,71.5000021820069,10|2,0:0|0:0,0:0:0:0:
153,359,81044,2,0,P|117:357|87:338,1,71.5000021820069,2|2,0:0|1:2,0:0:0:0:
49,265,81419,1,8,0:0:0:0:
49,265,81794,5,2,1:2:0:0:
101,177,81981,1,0,1:2:0:0:
198,200,82169,2,0,P|240:195|282:185,1,71.5000021820069,10|0,0:0|0:0,0:0:0:0:
341,247,82544,6,0,P|363:199|365:156,1,71.5000021820069,6|0,1:1|0:0,0:0:0:0:
293,123,82919,2,0,P|271:171|269:214,1,71.5000021820069,10|0,0:0|0:0,0:0:0:0:
341,247,83294,2,0,P|363:295|365:338,1,71.5000021820069,2|0,1:2|1:2,0:0:0:0:
293,371,83669,2,0,P|271:323|269:280,1,71.5000021820069,10|0,0:0|0:0,0:0:0:0:
341,247,84044,6,0,P|389:225|432:223,1,71.5000021820069,2|0,1:2|0:0,0:0:0:0:
482,290,84419,2,0,P|434:312|391:314,1,71.5000021820069,10|0,0:0|1:2,0:0:0:0:
341,247,84794,2,0,P|293:225|250:223,1,71.5000021820069,2|0,0:0|1:2,0:0:0:0:
191,273,85169,1,10,0:0:0:0:
105,229,85356,1,2,0:0:0:0:
127,139,85544,6,0,P|124:82|109:59,1,71.5000021820069,2|2,1:2|0:0,0:0:0:0:
24,31,85919,1,10,0:0:0:0:
117,70,86106,2,0,P|177:75|217:79,1,71.5000021820069,6|0,1:1|0:0,0:0:0:0:
283,27,86481,1,2,1:2:0:0:
354,97,86669,1,10,0:0:0:0:
308,183,86856,1,6,1:1:0:0:
256,192,86950,12,0,88731,0:0:0:0:
