osu file format v14

[General]
AudioFilename: audio.mp3
AudioLeadIn: 0
PreviewTime: 52544
Countdown: 0
SampleSet: Soft
StackLeniency: 0.7
Mode: 0
LetterboxInBreaks: 0
WidescreenStoryboard: 1

[Editor]
DistanceSpacing: 1
BeatDivisor: 4
GridSize: 16
TimelineZoom: 1

[Metadata]
Title:Hikaru nara (TV Size)
TitleUnicode:光るなら (TV Size)
Artist:Goose house
ArtistUnicode:Goose house
Creator:Mochi-
Version:Collab Normal
Source:四月は君の嘘
Tags:shigatsu wa kimi no uso your lie in april first opening グース ハウス noitamina ノイタミナ フジテレビ tv terebi sony music labels phrase #9 工藤秀平 shuhei kudo 竹渕慶 kei takebuchi 竹澤汀 migiwa takezawa マナミ manami 沙夜香 sayaka ワタナベシュウヘイ shuhei watanabe 齊藤ジョニー syndicate_ midorijeon Amats dollyn- mochia japanese anime jpop j_pop j pop j-pop akiko -_nilou_- nilou
BeatmapID:4545356
BeatmapSetID:2156134

[Difficulty]
HPDrainRate:3
CircleSize:3
OverallDifficulty:4
ApproachRate:4
SliderMultiplier:0.999999999999999
SliderTickRate:1

[Events]
//Background and Video events
Video,291,"video.mp4"
0,0,"bg.png",0,0
//Break Periods
//Storyboard Layer 0 (Background)
//Storyboard Layer 1 (Fail)
//Storyboard Layer 2 (Pass)
//Storyboard Layer 3 (Foreground)
//Storyboard Layer 4 (Overlay)
//Storyboard Sound Samples

[TimingPoints]
44,375,4,2,1,55,1,0
44,-111.111111111111,4,2,1,55,0,0
3044,-100,4,2,1,65,0,0
4544,-100,4,2,1,75,0,0
12419,-111.111111111111,4,2,1,45,0,0
12606,-111.111111111111,4,2,1,48,0,0
12794,-111.111111111111,4,2,1,52,0,0
12981,-111.111111111111,4,2,1,55,0,0
13169,-111.111111111111,4,2,1,58,0,0
13356,-111.111111111111,4,2,1,62,0,0
13544,-100,4,2,1,65,0,0
37544,-100,4,2,1,55,0,0
43544,-100,4,2,1,65,0,0
49544,-100,4,2,1,75,0,0
51231,-100,4,2,1,45,0,0
51419,-100,4,2,1,50,0,0
51606,-100,4,2,1,55,0,0
51794,-100,4,2,1,60,0,0
51981,-100,4,2,1,65,0,0
52169,-100,4,2,1,70,0,0
52356,-100,4,2,1,75,0,0
52544,-90.9090909090909,4,2,1,80,0,0
76544,-90.9090909090909,4,2,1,75,0,0

[Colours]
Combo1 : 238,204,87
Combo2 : 146,146,201
Combo3 : 255,128,192
Combo4 : 234,138,106

[HitObjects]
121,224,44,6,0,P|170:214|216:205,1,89.999997253418,2|2,0:0|0:0,0:0:0:0:
248,228,606,1,2,0:0:0:0:
322,177,981,2,0,L|379:189,1,44.999998626709,2|2,0:0|0:0,0:0:0:0:
409,196,1356,2,0,P|399:245|394:304,1,89.999997253418,2|2,0:0|0:0,0:0:0:0:
399,334,1919,1,2,0:0:0:0:
399,334,2106,1,2,0:0:0:0:
178,216,3044,6,0,P|129:205|68:221,2,99.9999999999999,14|10|2,0:0|0:0|0:0,0:0:0:0:
215,257,3981,1,8,0:0:0:0:
215,257,4169,1,10,0:0:0:0:
291,192,4544,6,0,P|281:142|281:83,1,99.9999999999999,6|10,1:1|0:0,0:0:0:0:
288,43,5106,1,2,0:0:0:0:
195,80,5481,2,0,L|130:69,1,50,2|8,1:2|0:0,0:0:0:0:
95,74,5856,2,0,P|80:122|91:172,1,99.9999999999999,2|2,0:0|0:0,0:0:0:0:
103,222,6418,1,10,0:0:0:0:
103,222,6606,1,2,1:2:0:0:
21,291,6981,1,2,1:2:0:0:
91,361,7356,6,0,P|137:347|201:345,1,99.9999999999999,2|0,0:0|0:0,0:0:0:0:
241,358,7919,1,10,0:0:0:0:
241,358,8106,1,2,0:0:0:0:
337,332,8481,2,0,L|394:343,1,50,2|8,1:2|0:0,0:0:0:0:
435,352,8856,2,0,P|453:305|440:246,1,99.9999999999999,2|0,0:0|0:0,0:0:0:0:
415,216,9419,1,8,0:0:0:0:
392,118,9794,2,0,P|435:95|501:104,1,99.9999999999999,2|10,0:0|0:0,0:0:0:0:
480,3,10544,5,10,1:2:0:0:
480,3,10731,1,10,1:2:0:0:
384,15,11106,1,10,1:2:0:0:
384,15,11294,1,10,1:2:0:0:
291,44,11669,1,10,1:2:0:0:
291,44,11856,1,14,1:2:0:0:
337,95,13544,6,0,P|283:103|225:119,1,99.9999999999999,6|8,1:1|0:0,0:0:0:0:
141,139,14294,2,0,P|129:196|146:245,1,99.9999999999999,2|10,1:2|0:0,0:0:0:0:
155,282,14856,1,2,0:0:0:0:
278,377,15419,1,10,0:0:0:0:
278,377,15606,2,0,P|327:367|382:359,2,99.9999999999999,2|2|2,0:0|1:2|0:0,0:0:0:0:
296,330,16544,1,2,1:2:0:0:
372,265,16919,1,8,0:0:0:0:
467,293,17294,6,0,L|490:360,2,50,2|0|10,1:2|1:2|0:0,0:0:0:0:
484,245,17856,2,0,P|494:195|464:100,1,150,2|10,0:0|0:0,0:0:0:0:
431,65,18606,1,2,0:0:0:0:
334,90,18981,1,2,1:2:0:0:
251,44,19356,1,2,0:0:0:0:
251,44,19544,2,0,P|239:89|253:148,1,99.9999999999999,2|8,1:2|0:0,0:0:0:0:
166,196,20294,5,2,1:2:0:0:
81,146,20669,1,10,0:0:0:0:
29,231,21044,2,0,P|13:278|23:326,1,99.9999999999999,2|10,1:2|0:0,0:0:0:0:
122,334,21794,2,0,P|171:342|220:351,1,99.9999999999999,2|10,1:2|0:0,0:0:0:0:
298,289,22544,5,2,1:2:0:0:
384,339,22919,2,0,L|448:330,1,50,8|2,0:0|0:0,0:0:0:0:
475,304,23294,2,0,P|485:255|469:208,1,99.9999999999999,2|10,1:2|0:0,0:0:0:0:
440,167,23856,1,2,0:0:0:0:
344,135,24231,1,2,0:0:0:0:
281,213,24606,1,2,0:0:0:0:
321,304,24981,2,0,P|269:304|220:315,1,99.9999999999999,2|0,1:2|0:0,0:0:0:0:
176,334,25544,5,2,1:2:0:0:
81,300,25919,1,8,0:0:0:0:
110,204,26294,2,0,L|49:195,2,50,2|2|10,1:2|1:2|0:0,0:0:0:0:
138,164,26856,1,2,0:0:0:0:
138,164,27044,2,0,P|130:114|116:66,1,99.9999999999999,0|10,1:2|0:0,0:0:0:0:
217,33,27794,1,2,1:2:0:0:
217,33,27981,2,0,P|220:81|242:141,1,99.9999999999999,2|2,1:2|0:0,0:0:0:0:
277,158,28544,6,0,L|378:143,1,99.9999999999999,2|8,1:2|0:0,0:0:0:0:
471,107,29294,1,0,1:2:0:0:
471,107,29481,2,0,L|486:173,1,50,2|10,1:2|0:0,0:0:0:0:
491,205,29856,1,2,0:0:0:0:
494,304,30231,1,2,0:0:0:0:
409,358,30606,2,0,P|362:374|314:364,1,99.9999999999999,2|2,0:0|1:2,0:0:0:0:
274,333,31169,1,8,0:0:0:0:
175,349,31544,6,0,P|167:299|157:250,1,99.9999999999999,2|8,1:2|0:0,0:0:0:0:
57,247,32294,2,0,P|64:197|74:148,1,99.9999999999999,2|8,1:2|0:0,0:0:0:0:
86,49,33044,2,0,P|133:33|181:43,1,99.9999999999999,2|8,1:2|0:0,0:0:0:0:
250,114,33794,1,2,1:2:0:0:
320,43,34169,1,10,0:0:0:0:
410,85,34544,6,0,P|405:109|401:134,1,50,2|2,1:2|0:0,0:0:0:0:
375,177,34919,1,10,0:0:0:0:
452,239,35294,1,2,1:2:0:0:
382,311,35669,1,10,0:0:0:0:
382,311,35856,2,0,P|332:301|283:293,1,99.9999999999999,2|10,0:0|0:0,0:0:0:0:
235,299,36419,1,8,0:0:0:0:
235,299,36606,2,0,P|219:252|229:204,1,99.9999999999999,2|2,1:2|1:2,0:0:0:0:
266,169,37169,1,8,0:0:0:0:
209,93,37544,5,6,1:1:0:0:
209,93,37731,2,0,P|159:102|110:110,1,99.9999999999999,2|2,1:2|0:0,0:0:0:0:
60,105,38294,1,0,1:2:0:0:
12,193,38669,1,10,0:0:0:0:
49,291,39044,1,2,1:2:0:0:
49,291,39231,2,0,P|98:281|147:273,1,99.9999999999999,2|2,1:2|0:0,0:0:0:0:
227,332,39981,1,0,1:2:0:0:
227,332,40169,1,8,0:0:0:0:
324,300,40544,5,2,1:2:0:0:
324,300,40731,2,0,P|314:250|306:201,1,99.9999999999999,2|2,1:2|1:2,0:0:0:0:
292,153,41294,1,2,1:2:0:0:
211,94,41669,1,10,0:0:0:0:
276,19,42044,1,2,1:2:0:0:
276,19,42231,2,0,P|322:3|371:13,1,99.9999999999999,0|10,1:2|0:0,0:0:0:0:
457,73,42981,1,2,1:2:0:0:
457,73,43169,1,10,0:0:0:0:
384,141,43544,6,0,P|393:190|401:239,1,99.9999999999999,6|10,1:2|0:0,0:0:0:0:
415,292,44106,1,2,0:0:0:0:
415,292,44294,1,2,1:2:0:0:
341,359,44669,1,10,0:0:0:0:
341,359,44856,2,0,P|291:349|242:341,1,99.9999999999999,2|0,0:0|1:2,0:0:0:0:
198,364,45419,1,10,0:0:0:0:
119,302,45794,2,0,P|123:277|128:252,1,50,2|0,1:2|1:2,0:0:0:0:
115,206,46169,1,10,0:0:0:0:
198,151,46544,6,0,P|188:101|180:52,2,99.9999999999999,2|8|0,1:2|0:0|1:2,0:0:0:0:
235,192,47481,1,0,1:2:0:0:
235,192,47669,1,10,0:0:0:0:
320,243,48044,1,0,1:2:0:0:
396,178,48419,1,8,0:0:0:0:
374,80,48794,2,0,P|349:84|324:89,1,50,2|0,1:2|1:2,0:0:0:0:
276,74,49169,1,10,0:0:0:0:
206,145,49544,5,10,1:2:0:0:
206,145,49731,2,0,P|156:135|107:127,1,99.9999999999999,10|10,1:2|1:2,0:0:0:0:
70,93,50294,1,10,1:2:0:0:
0,165,50669,1,10,1:2:0:0:
0,165,50856,2,0,P|-10:213|5:260,1,99.9999999999999,14|10,1:2|0:0,0:0:0:0:
50,283,51419,1,8,1:2:0:0:
128,345,51794,2,0,L|188:332,1,50,10|10,1:2|0:0,0:0:0:0:
218,306,52169,2,0,L|266:316,1,50,10|10,1:2|0:0,0:0:0:0:
305,356,52544,6,0,P|358:345|413:336,1,110.000003356934,6|10,1:1|0:0,0:0:0:0:
466,348,53106,1,2,1:2:0:0:
503,244,53481,2,0,P|497:217|492:190,1,55.0000016784668,2|10,1:2|0:0,0:0:0:0:
455,148,53856,2,0,P|402:134|352:154,1,110.000003356934,2|2,0:0|0:0,0:0:0:0:
322,201,54419,1,10,0:0:0:0:
322,201,54606,2,0,P|268:190|213:181,1,110.000003356934,2|0,0:0|1:2,0:0:0:0:
162,200,55169,1,8,0:0:0:0:
55,174,55544,6,0,P|35:123|48:71,1,110.000003356934,2|10,1:2|0:0,0:0:0:0:
80,29,56106,1,2,1:2:0:0:
180,73,56481,2,0,P|206:67|233:62,1,55.0000016784668,2|10,1:2|0:0,0:0:0:0:
263,16,56856,2,0,P|317:25|371:35,1,110.000003356934,2|2,0:0|0:0,0:0:0:0:
415,68,57419,1,10,0:0:0:0:
473,161,57794,2,0,L|467:222,1,55.0000016784668,2|2,1:2|1:2,0:0:0:0:
435,260,58169,1,10,0:0:0:0:
347,326,58544,6,0,P|296:345|244:332,1,110.000003356934,6|10,1:1|0:0,0:0:0:0:
207,290,59106,1,2,1:2:0:0:
114,350,59481,2,0,P|87:344|60:339,1,55.0000016784668,2|8,1:2|0:0,0:0:0:0:
12,311,59856,2,0,P|22:257|31:202,1,110.000003356934,2|2,0:0|0:0,0:0:0:0:
52,154,60419,1,10,0:0:0:0:
52,154,60606,2,0,P|102:134|154:147,1,110.000003356934,2|0,0:0|1:2,0:0:0:0:
199,180,61169,1,8,0:0:0:0:
305,151,61544,6,0,P|324:100|311:48,1,110.000003356934,2|10,1:2|0:0,0:0:0:0:
270,17,62106,1,2,1:2:0:0:
174,70,62481,1,2,1:2:0:0:
174,70,62669,2,0,P|146:64|120:59,1,55.0000016784668,10|2,0:0|0:0,0:0:0:0:
65,51,63044,2,0,P|46:102|59:154,1,110.000003356934,2|10,1:2|0:0,0:0:0:0:
101,188,63606,1,2,1:2:0:0:
22,265,63981,1,2,1:2:0:0:
22,265,64169,2,0,P|27:291|32:318,1,55.0000016784668,10|2,0:0|0:0,0:0:0:0:
73,355,64544,6,0,P|127:344|181:335,1,110.000003356934,6|10,1:1|0:0,0:0:0:0:
234,349,65106,1,2,1:2:0:0:
312,271,65481,1,2,1:2:0:0:
418,296,65856,2,0,P|437:245|424:193,1,110.000003356934,2|2,0:0|0:0,0:0:0:0:
398,149,66419,1,10,0:0:0:0:
398,149,66606,1,2,0:0:0:0:
296,184,66981,1,0,1:2:0:0:
296,184,67169,2,0,P|269:178|242:173,1,55.0000016784668,8|2,0:0|0:0,0:0:0:0:
191,195,67544,6,0,P|172:144|185:92,1,110.000003356934,2|10,1:2|0:0,0:0:0:0:
207,45,68106,1,2,1:2:0:0:
309,85,68481,2,0,P|335:79|362:74,1,55.0000016784668,2|10,1:2|0:0,0:0:0:0:
418,57,68856,1,2,0:0:0:0:
418,57,69044,2,0,P|407:111|398:165,1,110.000003356934,0|10,1:2|0:0,0:0:0:0:
349,188,69606,1,2,0:0:0:0:
426,274,69981,1,2,1:2:0:0:
426,274,70169,1,10,0:0:0:0:
342,345,70544,6,0,P|291:363|238:350,1,110.000003356934,6|10,1:1|0:0,0:0:0:0:
210,303,71106,1,2,1:2:0:0:
119,365,71481,1,2,1:2:0:0:
23,309,71856,2,0,P|32:254|42:200,1,110.000003356934,2|2,0:0|0:0,0:0:0:0:
92,174,72419,1,10,0:0:0:0:
92,174,72606,2,0,P|81:119|72:65,1,110.000003356934,2|0,0:0|1:2,0:0:0:0:
98,16,73169,1,8,0:0:0:0:
203,47,73544,6,0,P|257:36|311:27,1,110.000003356934,10|2,0:3|1:2,0:0:0:0:
360,4,74106,1,6,0:3:0:0:
467,46,74481,1,2,1:2:0:0:
467,46,74669,2,0,P|461:72|456:99,1,55.0000016784668,14|2,0:0|0:0,0:0:0:0:
404,121,75044,2,0,P|410:147|415:174,1,55.0000016784668,10|2,0:0|1:2,0:0:0:0:
457,210,75419,1,10,0:0:0:0:
417,312,75794,2,0,P|391:306|364:301,1,55.0000016784668,2|10,0:0|0:0,0:0:0:0:
323,262,76169,2,0,P|297:268|270:273,1,55.0000016784668,10|10,0:0|0:3,0:0:0:0:
216,288,76544,6,0,P|197:236|210:184,1,110.000003356934,6|10,1:1|0:0,0:0:0:0:
297,118,77294,2,0,P|315:66|302:14,1,110.000003356934,2|10,1:2|0:0,0:0:0:0:
192,3,78044,2,0,P|138:14|84:23,1,110.000003356934,2|10,1:2|0:0,0:0:0:0:
29,119,78794,1,2,1:2:0:0:
122,177,79169,1,10,0:0:0:0:
53,263,79544,6,0,L|75:322,1,55.0000016784668,2|2,1:2|0:0,0:0:0:0:
114,358,79919,1,10,0:0:0:0:
114,358,80106,2,0,P|168:347|222:338,1,110.000003356934,2|0,1:2|1:2,0:0:0:0:
261,299,80669,1,10,0:0:0:0:
354,366,81044,1,2,0:0:0:0:
354,366,81231,2,0,P|408:355|462:346,1,110.000003356934,2|0,1:2|0:0,0:0:0:0:
496,303,81794,1,2,1:2:0:0:
416,226,82169,1,10,0:0:0:0:
464,127,82544,6,0,P|482:75|469:23,1,110.000003356934,6|10,1:1|0:0,0:0:0:0:
358,30,83294,2,0,P|345:82|363:133,1,110.000003356934,2|10,1:2|0:0,0:0:0:0:
253,133,84044,2,0,P|199:144|145:153,1,110.000003356934,2|10,1:2|0:0,0:0:0:0:
82,62,84794,1,2,0:0:0:0:
7,143,85169,2,0,P|13:169|18:196,1,55.0000016784668,10|2,0:0|0:0,0:0:0:0:
31,250,85544,6,0,P|83:259|146:258,1,110.000003356934,2|10,1:2|0:0,0:0:0:0:
194,264,86106,2,0,P|213:314|202:366,1,110.000003356934,6|2,1:1|1:2,0:0:0:0:
150,369,86669,1,10,0:0:0:0:
150,369,86856,1,6,1:1:0:0:
256,192,87044,12,0,88731,0:0:0:0:
