osu file format v14

[General]
AudioFilename: audio.mp3
AudioLeadIn: 0
PreviewTime: 27234
Countdown: 0
SampleSet: Drum
StackLeniency: 0.7
Mode: 0
LetterboxInBreaks: 0
WidescreenStoryboard: 1

[Editor]
Bookmarks: 36113,51669
DistanceSpacing: 1.7
BeatDivisor: 4
GridSize: 4
TimelineZoom: 2.4

[Metadata]
Title:Hello Hello Hello (TV Size)
TitleUnicode:ハローハローハロー (TV Size)
Artist:Good Morning America
ArtistUnicode:グッドモーニングアメリカ
Creator:[-Evil-]
Version:Hard
Source:DRAGON BALL 超
Tags:ドラゴンボール SHINGO KANEHIRO japanese rock j-rock goku gohan gotenks ending jumps fast sky cloud house kame anime toei animation water
BeatmapID:2190226
BeatmapSetID:1047408

[Difficulty]
HPDrainRate:4.2
CircleSize:3.3
OverallDifficulty:6.3
ApproachRate:7.9
SliderMultiplier:1
SliderTickRate:1

[Events]
//Background and Video events
0,0,"new-image.jpg",0,0
//Break Periods
//Storyboard Layer 0 (Background)
//Storyboard Layer 1 (Fail)
//Storyboard Layer 2 (Pass)
//Storyboard Layer 3 (Foreground)
//Storyboard Layer 4 (Overlay)
//Storyboard Sound Samples

[TimingPoints]
568,277.777777777778,4,3,1,55,1,0
9456,-111.111111111111,4,3,1,50,0,0
13901,-100,4,3,1,55,0,0
18345,-100,4,3,1,60,0,0
25012,-100,4,3,1,63,0,0
25429,-100,4,3,1,66,0,0
25845,-100,4,3,1,69,0,0
26262,-100,4,3,1,72,0,0
27234,-83.3333333333333,4,3,1,70,0,1
45012,-100,4,3,1,60,0,0
51679,-100,4,3,1,65,0,0
53901,-100,4,3,1,60,0,0
56679,-111.111111111111,4,3,1,60,0,0
56818,-125,4,3,1,50,0,0
56956,-142.857142857143,4,3,1,50,0,0
58206,-200,4,3,1,50,0,0
59456,-100,4,3,1,10,0,0

[Colours]
Combo1 : 128,255,128
Combo2 : 255,128,64
Combo3 : 83,160,255
Combo4 : 254,239,54

[HitObjects]
110,278,568,6,0,L|100:344,2,50,0|0|8,1:0|0:0|0:0,0:0:0:0:
168,216,984,2,0,L|183:109,1,100,0|0,0:0|0:0,0:0:0:0:
156,35,1401,2,0,P|202:13|218:10,1,50,8|0,0:0|0:0,0:0:0:0:
265,69,1679,6,0,P|301:91|319:93,1,50,0|0,1:0|0:0,0:0:0:0:
391,76,1956,1,8,0:0:0:0:
391,76,2095,1,0,0:0:0:0:
418,156,2234,2,0,P|421:212|417:223,1,50,0|0,1:0|0:0,0:0:0:0:
410,289,2512,1,8,0:0:0:0:
410,289,2651,1,0,0:0:0:0:
332,323,2790,6,0,P|281:336|269:336,2,50,0|0|8,1:0|0:0|0:0,0:0:0:0:
307,241,3206,2,0,L|367:221,1,50,0|0,0:0|1:0,0:0:0:0:
300,158,3484,1,0,0:0:0:0:
227,113,3623,2,0,P|166:118|154:121,1,50,8|0,0:0|0:0,0:0:0:0:
93,132,3901,6,0,P|74:90|71:67,1,50,0|0,1:0|0:0,0:0:0:0:
23,16,4179,1,8,0:0:0:0:
23,16,4318,1,0,0:0:0:0:
107,15,4456,2,0,P|163:21|174:18,1,50,0|0,1:0|0:0,0:0:0:0:
239,1,4734,1,8,0:0:0:0:
239,1,4873,1,0,0:0:0:0:
276,77,5012,6,0,P|287:107|289:141,2,50,0|0|8,1:0|0:0|0:0,0:0:0:0:
352,37,5429,2,0,P|411:76|430:111,1,100,0|0,0:0|0:0,0:0:0:0:
456,179,5845,2,0,L|450:252,1,50,8|0,0:0|0:0,0:0:0:0:
419,308,6123,6,0,P|383:322|355:324,1,50,0|0,1:0|0:0,0:0:0:0:
288,342,6401,1,8,0:0:0:0:
219,292,6540,1,0,0:0:0:0:
219,206,6679,2,0,P|223:168|220:144,1,50,0|0,1:0|0:0,0:0:0:0:
197,75,6956,1,8,0:0:0:0:
119,40,7095,1,0,0:0:0:0:
35,54,7234,6,0,L|13:6,2,50,0|0|8,1:0|0:0|0:0,0:0:0:0:
68,138,7651,2,0,P|72:182|68:209,1,50,0|0,0:0|1:0,0:0:0:0:
49,270,7929,1,0,0:0:0:0:
101,337,8068,2,0,P|141:360|160:361,1,50,8|0,0:0|0:0,0:0:0:0:
228,354,8345,5,0,1:0:0:0:
300,308,8484,1,0,0:0:0:0:
312,223,8623,2,0,P|312:191|323:153,1,50,8|8,3:0|3:0,0:0:0:0:
390,132,8901,2,0,P|398:107|401:70,1,50,10|8,0:0|0:0,0:0:0:0:
321,51,9179,2,0,P|321:20|325:11,2,25,10|8|8,0:0|0:0|0:0,0:0:0:0:
272,110,9456,6,0,P|225:127|179:117,1,89.9999972534181,0|10,1:0|0:0,0:0:0:0:
37,83,10012,1,2,1:3:0:0:
75,231,10290,2,0,B|116:335|116:335|192:357,1,179.999994506836,10|8,0:0|0:0,0:0:0:0:
334,325,11123,1,2,1:3:0:0:
361,174,11401,6,0,P|413:138|506:193,1,179.999994506836,10|10,0:0|0:0,0:0:0:0:
407,308,12234,2,0,P|427:272|429:220,1,89.9999972534181,2|10,1:3|0:0,0:0:0:0:
327,109,12790,2,0,P|319:67|336:12,1,89.9999972534181,0|8,1:0|0:0,0:0:0:0:
188,80,13345,2,0,P|131:57|94:62,1,89.9999972534181,2|10,1:3|0:0,0:0:0:0:
72,227,13901,6,0,P|93:238|127:248,1,50,2|0,1:3|0:0,0:0:0:0:
184,299,14179,2,0,P|162:310|129:320,1,50,10|0,0:0|0:0,0:0:0:0:
199,377,14456,1,2,1:3:0:0:
269,329,14595,1,0,1:0:0:0:
276,244,14734,2,0,P|337:253|369:281,1,100,10|0,0:0|1:0,0:0:0:0:
438,122,15290,6,0,B|368:137,1,50,10|0,0:0|0:0,0:0:0:0:
314,91,15568,2,0,L|253:108,1,50,2|0,1:3|1:0,0:0:0:0:
207,166,15845,2,0,P|179:126|189:64,1,100,10|0,0:0|1:0,0:0:0:0:
61,197,16401,6,0,L|74:264,1,50,10|0,0:0|0:0,0:0:0:0:
149,279,16679,2,0,L|163:333,1,50,2|0,1:3|1:3,0:0:0:0:
245,311,16956,2,0,P|301:333|352:309,1,100,10|0,0:0|1:0,0:0:0:0:
398,163,17512,6,0,L|390:221,1,50,8|0,0:0|0:0,0:0:0:0:
325,265,17790,2,0,L|345:336,1,50,0|0,1:0|1:0,0:0:0:0:
421,333,18068,1,10,0:0:0:0:
468,263,18206,1,0,0:0:0:0:
487,180,18345,6,0,P|437:153|388:169,1,100,2|8,1:3|0:0,0:0:0:0:
313,182,18762,1,0,0:0:0:0:
236,220,18901,2,0,P|226:170|229:157,1,50,2|0,1:3|1:3,0:0:0:0:
142,152,19179,2,0,P|149:100|150:84,1,50,10|0,0:0|0:0,0:0:0:0:
185,25,19456,6,0,P|249:53|290:45,1,100,0|10,1:0|0:0,0:0:0:0:
360,31,19873,1,0,0:0:0:0:
412,97,20012,2,0,P|438:153|438:160,1,50,2|0,1:3|1:0,0:0:0:0:
375,200,20290,2,0,P|358:239|361:262,1,50,10|0,0:0|0:0,0:0:0:0:
408,314,20568,6,0,P|358:330|300:307,1,100,0|10,1:0|0:0,0:0:0:0:
230,299,20984,1,0,0:0:0:0:
186,225,21123,2,0,L|175:160,1,50,2|0,1:3|1:0,0:0:0:0:
253,135,21401,2,0,L|238:66,1,50,10|0,0:0|0:0,0:0:0:0:
252,1,21679,6,0,L|137:27,1,100,0|10,1:0|0:0,0:0:0:0:
74,51,22095,1,0,0:0:0:0:
50,132,22234,2,0,L|52:204,2,50,2|0|10,1:3|1:0|0:0,0:0:0:0:
134,117,22651,1,8,0:0:0:0:
136,202,22790,5,10,0:0:0:0:
136,202,22929,1,8,0:0:0:0:
197,260,23068,1,10,0:0:0:0:
197,260,23206,1,8,0:0:0:0:
278,235,23345,2,0,L|343:234,1,50,10|8,0:0|0:0,0:0:0:0:
387,175,23623,2,0,L|449:173,1,50,10|8,0:0|0:0,0:0:0:0:
441,258,23901,6,0,L|446:322,2,50,8|8|10,0:0|0:0|0:0,0:0:0:0:
357,277,24318,1,8,0:0:0:0:
280,236,24456,2,0,L|266:306,2,50,10|8|10,0:0|0:0|0:0,0:0:0:0:
323,161,24873,1,8,0:0:0:0:
230,164,25012,5,8,0:0:0:0:
230,164,25151,1,8,0:0:0:0:
86,65,25429,5,8,0:0:0:0:
86,65,25568,1,8,0:0:0:0:
87,238,25845,5,8,0:0:0:0:
87,238,25984,1,8,0:0:0:0:
177,89,26262,5,8,0:0:0:0:
177,89,26401,1,8,0:0:0:0:
420,348,27234,6,0,P|433:265|423:233,1,119.999996337891,6|8,1:3|0:0,0:0:0:0:
365,146,27651,1,0,0:0:0:0:
282,206,27790,2,0,P|239:219|200:221,1,59.9999981689454,0|0,1:0|1:0,0:0:0:0:
150,149,28068,2,0,P|103:156|73:169,1,59.9999981689454,8|0,0:0|0:0,0:0:0:0:
38,247,28345,6,0,P|3:192|1:128,1,119.999996337891,2|8,1:3|0:0,0:0:0:0:
65,59,28762,1,0,0:0:0:0:
157,15,28901,2,0,P|161:74|154:96,1,59.9999981689454,0|0,1:0|1:0,0:0:0:0:
166,176,29179,1,10,0:0:0:0:
250,233,29318,1,0,0:0:0:0:
330,170,29456,6,0,P|406:157|457:190,1,119.999996337891,2|8,1:3|0:0,0:0:0:0:
496,262,29873,1,0,0:0:0:0:
426,336,30012,2,0,P|370:377|362:379,1,59.9999981689454,0|0,1:0|1:0,0:0:0:0:
319,290,30290,1,10,0:0:0:0:
226,247,30429,1,0,0:0:0:0:
165,329,30568,6,0,L|40:360,1,119.999996337891,2|8,1:3|0:0,0:0:0:0:
3,266,30984,1,0,0:0:0:0:
90,212,31123,2,0,L|145:180,1,59.9999981689454,0|0,1:0|1:0,0:0:0:0:
241,154,31401,2,0,L|182:102,1,59.9999981689454,10|0,0:0|0:0,0:0:0:0:
101,73,31679,6,0,B|130:13|219:17,1,119.999996337891,2|10,1:3|0:0,0:0:0:0:
283,75,32095,2,0,P|352:99|405:83,1,119.999996337891,2|0,0:0|1:0,0:0:0:0:
476,24,32512,1,10,0:0:0:0:
476,24,32651,2,0,B|504:76|504:76|480:150,1,119.999996337891,2|0,0:0|1:0,0:0:0:0:
397,187,33068,6,0,P|435:216|472:211,1,59.9999981689454,10|0,0:0|0:0,0:0:0:0:
507,295,33345,2,0,P|462:332|444:337,1,59.9999981689454,2|0,1:3|1:0,0:0:0:0:
360,352,33623,1,10,0:0:0:0:
266,310,33762,1,0,0:0:0:0:
217,220,33901,6,0,L|195:83,1,119.999996337891,2|10,1:3|0:0,0:0:0:0:
236,6,34318,2,0,P|170:2|122:42,1,119.999996337891,2|0,0:0|1:0,0:0:0:0:
33,70,34734,1,10,0:0:0:0:
114,131,34873,2,0,P|125:188|112:253,1,119.999996337891,2|0,0:0|1:0,0:0:0:0:
68,340,35290,6,0,P|124:348|146:338,1,59.9999981689454,8|2,0:0|0:0,0:0:0:0:
215,297,35568,2,0,P|263:273|294:273,1,59.9999981689454,2|2,1:3|1:3,0:0:0:0:
358,321,35845,1,8,0:0:0:0:
389,223,35984,1,0,0:0:0:0:
304,165,36123,6,0,P|292:75|311:30,1,119.999996337891,2|8,1:3|0:0,0:0:0:0:
393,4,36540,1,0,0:0:0:0:
475,64,36679,2,0,P|461:121|448:143,1,59.9999981689454,0|0,1:0|1:0,0:0:0:0:
398,201,36956,2,0,P|411:258|424:277,1,59.9999981689454,8|0,0:0|0:0,0:0:0:0:
372,353,37234,6,0,P|305:331|244:360,1,119.999996337891,2|8,1:3|0:0,0:0:0:0:
176,286,37651,1,0,0:0:0:0:
82,326,37790,2,0,P|74:268|82:243,1,59.9999981689454,0|0,1:0|1:0,0:0:0:0:
138,187,38068,1,10,0:0:0:0:
64,116,38206,1,0,0:0:0:0:
5,32,38345,6,0,P|63:8|127:29,1,119.999996337891,2|8,1:3|0:0,0:0:0:0:
199,82,38762,1,0,0:0:0:0:
297,110,38901,2,0,P|362:125|379:123,1,59.9999981689454,0|0,1:0|1:0,0:0:0:0:
419,45,39179,1,10,0:0:0:0:
512,87,39318,1,0,0:0:0:0:
492,186,39456,6,0,L|476:319,1,119.999996337891,2|8,1:3|0:0,0:0:0:0:
408,381,39873,1,0,0:0:0:0:
325,321,40012,2,0,P|263:298|241:298,1,59.9999981689454,0|0,1:0|1:0,0:0:0:0:
209,215,40290,2,0,P|164:211|129:226,1,59.9999981689454,10|0,0:0|0:0,0:0:0:0:
65,272,40568,6,0,P|46:208|80:137,1,119.999996337891,2|10,1:3|0:0,0:0:0:0:
34,60,40984,2,0,B|90:33|90:86|162:59,1,119.999996337891,2|0,0:0|1:0,0:0:0:0:
248,34,41401,1,10,0:0:0:0:
248,34,41540,2,0,L|252:169,1,119.999996337891,2|0,0:0|0:0,0:0:0:0:
185,232,41956,6,0,P|241:252|260:247,1,59.9999981689454,10|0,0:0|0:0,0:0:0:0:
332,207,42234,2,0,P|357:187|405:185,1,59.9999981689454,2|0,1:3|1:0,0:0:0:0:
476,222,42512,1,10,0:0:0:0:
509,125,42651,1,2,0:0:0:0:
475,28,42790,6,0,L|339:53,1,119.999996337891,2|10,1:3|0:0,0:0:0:0:
277,114,43206,2,0,P|222:64|172:86,1,119.999996337891,2|0,0:0|1:0,0:0:0:0:
96,128,43623,1,10,0:0:0:0:
92,223,43762,2,0,P|94:273|153:315,1,119.999996337891,2|0,0:0|1:0,0:0:0:0:
230,255,44179,6,0,P|255:257|294:271,1,59.9999981689454,8|2,0:0|0:0,0:0:0:0:
383,231,44456,2,0,P|383:285|375:304,1,59.9999981689454,2|2,1:3|1:3,0:0:0:0:
463,351,44734,1,8,0:0:0:0:
364,378,44873,1,0,0:0:0:0:
264,344,45012,6,0,P|220:348|157:329,1,100,2|10,1:3|0:3,0:0:0:0:
108,271,45429,1,10,0:0:0:0:
122,187,45568,2,0,P|135:135|141:123,1,50,0|0,1:0|1:0,0:0:0:0:
213,107,45845,2,0,P|214:63|208:46,1,50,10|2,0:0|0:0,0:0:0:0:
297,47,46123,6,0,P|340:46|390:12,1,100,0|8,1:0|0:0,0:0:0:0:
464,51,46540,2,0,P|467:19|471:-2,2,50,10|2|2,0:0|1:3|1:3,0:0:0:0:
423,125,46956,1,8,0:0:0:0:
421,209,47095,1,0,1:0:0:0:
472,277,47234,6,0,P|491:315|489:374,1,100,2|10,1:3|0:0,0:0:0:0:
406,350,47651,1,10,0:0:0:0:
331,309,47790,2,0,P|310:315|279:331,1,50,0|0,1:0|1:0,0:0:0:0:
208,366,48068,2,0,P|186:361|157:336,1,50,10|2,0:0|0:0,0:0:0:0:
79,358,48345,6,0,L|95:250,1,100,0|8,1:0|0:0,0:0:0:0:
143,189,48762,2,0,L|154:120,2,50,10|2|2,0:0|1:3|1:3,0:0:0:0:
202,250,49179,1,8,0:0:0:0:
268,196,49318,1,0,1:0:0:0:
230,120,49456,6,0,P|255:67|299:33,1,100,2|10,1:3|0:0,0:0:0:0:
367,14,49873,1,10,0:0:0:0:
421,79,50012,2,0,P|465:116|475:119,1,50,0|0,1:0|1:0,0:0:0:0:
495,188,50290,2,0,P|467:220|449:226,1,50,10|2,0:0|0:0,0:0:0:0:
389,269,50568,6,0,P|325:242|289:255,1,100,0|8,1:0|0:0,0:0:0:0:
213,253,50984,2,0,L|196:317,2,50,2|2|2,0:0|1:3|1:3,0:0:0:0:
250,175,51401,1,8,0:0:0:0:
203,104,51540,1,0,1:0:0:0:
125,78,51679,6,0,L|9:73,1,100,10|10,0:0|0:0,0:0:0:0:
54,153,52095,2,0,P|62:236|43:264,1,100,10|10,0:0|0:0,0:0:0:0:
1,314,52512,2,0,P|43:336|108:316,1,100,10|8,0:0|0:0,0:0:0:0:
167,283,52929,2,0,P|223:268|283:282,1,100,8|8,0:3|0:3,0:0:0:0:
330,327,53345,2,0,L|324:381,2,50,10|8|8,0:0|0:0|0:0,0:0:0:0:
347,243,53762,1,8,0:0:0:0:
347,243,53831,1,8,0:0:0:0:
347,243,53901,6,0,L|354:171,1,50,6|2,1:3|1:3,0:0:0:0:
415,138,54179,2,0,L|422:82,1,50,10|0,0:0|0:0,0:0:0:0:
484,34,54456,2,0,P|428:12|417:11,1,50,0|0,1:0|1:0,0:0:0:0:
354,31,54734,1,10,0:0:0:0:
297,94,54873,1,2,0:0:0:0:
216,122,55012,6,0,P|181:123|151:117,2,50,2|0|10,1:3|1:0|0:0,0:0:0:0:
268,189,55429,1,8,0:0:0:0:
350,208,55568,2,0,P|379:215|417:214,1,50,10|8,0:0|0:0,0:0:0:0:
441,212,55776,1,8,0:0:0:0:
441,212,55845,2,0,L|435:272,1,50,10|10,0:0|0:0,0:0:0:0:
430,347,56123,5,4,0:0:0:0:
256,192,56262,12,0,59456,0:0:0:0:
