osu file format v14

[General]
AudioFilename: audio.mp3
AudioLeadIn: 0
PreviewTime: 27234
Countdown: 0
SampleSet: Drum
StackLeniency: 0.7
Mode: 0
LetterboxInBreaks: 0
WidescreenStoryboard: 1

[Editor]
Bookmarks: 9446,36113,44446,51669
DistanceSpacing: 1.8
BeatDivisor: 4
GridSize: 32
TimelineZoom: 2.599999

[Metadata]
Title:Hello Hello Hello (TV Size)
TitleUnicode:ハローハローハロー (TV Size)
Artist:Good Morning America
ArtistUnicode:グッドモーニングアメリカ
Creator:[-Evil-]
Version:Extra
Source:DRAGON BALL 超
Tags:ドラゴンボール SHINGO KANEHIRO japanese rock j-rock goku gohan gotenks ending jumps fast sky cloud house kame anime toei animation water
BeatmapID:2195933
BeatmapSetID:1047408

[Difficulty]
HPDrainRate:5.4
CircleSize:4.4
OverallDifficulty:8.6
ApproachRate:9.3
SliderMultiplier:1.02
SliderTickRate:1

[Events]
//Background and Video events
0,0,"new-image.jpg",0,0
//Break Periods
//Storyboard Layer 0 (Background)
//Storyboard Layer 1 (Fail)
//Storyboard Layer 2 (Pass)
//Storyboard Layer 3 (Foreground)
//Storyboard Layer 4 (Overlay)
//Storyboard Sound Samples

[TimingPoints]
568,277.777777777778,4,3,1,55,1,0
568,-90.9090909090909,4,3,1,55,0,0
9456,-111.111111111111,4,3,1,50,0,0
13901,-100,4,3,1,55,0,0
18345,-90.9090909090909,4,3,1,60,0,0
25012,-90.9090909090909,4,3,1,63,0,0
25429,-90.9090909090909,4,3,1,66,0,0
25845,-90.9090909090909,4,3,1,69,0,0
26262,-90.9090909090909,4,3,1,72,0,0
27234,-71.4285714285714,4,3,1,70,0,1
45012,-90.9090909090909,4,3,1,60,0,0
51679,-66.6666666666667,4,3,1,65,0,0
53901,-90.9090909090909,4,3,1,60,0,0
56679,-111.111111111111,4,3,1,60,0,0
56818,-125,4,3,1,50,0,0
56956,-142.857142857143,4,3,1,50,0,0
58206,-200,4,3,1,50,0,0
59456,-100,4,3,1,10,0,0

[Colours]
Combo1 : 128,255,128
Combo2 : 255,117,51
Combo3 : 83,160,255
Combo4 : 254,239,54

[HitObjects]
361,98,568,5,0,1:0:0:0:
297,189,706,1,0,0:0:0:0:
207,81,845,1,8,0:0:0:0:
419,195,984,2,0,P|408:259|365:303,1,112.200003424072
275,269,1401,1,8,0:0:0:0:
275,269,1540,1,0,0:0:0:0:
185,327,1679,6,0,L|174:268,1,56.1000017120362,0|0,1:0|0:0,0:0:0:0:
106,189,1956,1,8,0:0:0:0:
210,167,2095,1,0,0:0:0:0:
127,29,2234,6,0,L|147:104,1,56.1000017120362,0|0,1:0|0:0,0:0:0:0:
357,301,2512,1,8,0:0:0:0:
298,107,2651,1,0,0:0:0:0:
439,255,2790,5,0,1:0:0:0:
336,210,2929,1,0,0:0:0:0:
430,123,3068,1,8,0:0:0:0:
357,301,3206,1,0,0:0:0:0:
301,121,3345,2,0,P|274:151|260:190,1,56.1000017120362,0|0,1:0|0:0,0:0:0:0:
259,266,3623,2,0,P|235:298|203:313,1,56.1000017120362
189,209,3901,6,0,P|172:172|136:154,1,56.1000017120362,0|0,1:0|0:0,0:0:0:0:
197,68,4179,1,8,0:0:0:0:
98,89,4318,1,0,0:0:0:0:
72,186,4456,6,0,P|77:213|92:236,1,56.1000017120362,0|0,1:0|0:0,0:0:0:0:
179,288,4734,1,8,0:0:0:0:
117,368,4873,1,0,0:0:0:0:
237,180,5012,5,0,1:0:0:0:
340,226,5151,1,0,0:0:0:0:
315,107,5290,1,8,0:0:0:0:
281,280,5429,2,0,B|327:338|402:290,1,112.200003424072
449,219,5845,1,8,0:0:0:0:
449,219,5984,1,0,0:0:0:0:
369,147,6123,6,0,P|373:92|384:75,1,56.1000017120362,0|0,1:0|0:0,0:0:0:0:
308,6,6401,1,8,0:0:0:0:
414,9,6540,1,0,0:0:0:0:
293,83,6679,6,0,P|231:77|222:79,1,56.1000017120362,0|0,1:0|0:0,0:0:0:0:
181,166,6956,1,8,0:0:0:0:
256,240,7095,1,0,0:0:0:0:
78,182,7234,5,0,1:0:0:0:
157,71,7373,1,0,0:0:0:0:
7,89,7512,1,8,0:0:0:0:
183,171,7651,1,0,0:0:0:0:
19,260,7790,6,0,P|49:277|87:274,1,56.1000017120362,0|0,1:0|0:0,0:0:0:0:
163,318,8068,1,8,0:0:0:0:
242,248,8206,1,0,0:0:0:0:
315,324,8345,2,0,P|316:369|310:393,1,56.1000017120362,0|0,1:0|0:0,0:0:0:0:
364,305,8623,5,8,3:0:0:0:
179,176,8762,1,8,3:0:0:0:
382,81,8901,1,10,0:0:0:0:
221,311,9040,1,8,0:0:0:0:
242,48,9179,1,10,0:0:0:0:
205,26,9248,1,8,0:0:0:0:
164,17,9317,1,8,0:0:0:0:
123,21,9387,1,8,0:0:0:0:
87,36,9456,6,0,L|74:145,1,91.7999971984864,0|10,1:0|0:0,0:0:0:0:
57,298,10012,1,2,1:3:0:0:
57,298,10151,1,0,1:0:0:0:
57,298,10290,2,0,B|95:341|147:320,1,91.7999971984864,10|0,0:0|1:0,0:0:0:0:
267,203,10845,1,8,0:0:0:0:
391,344,11123,5,2,1:3:0:0:
391,344,11262,1,0,1:0:0:0:
391,344,11401,2,0,B|382:231,1,91.7999971984864,10|0,0:0|1:0,0:0:0:0:
406,79,11956,1,10,0:0:0:0:
253,130,12234,1,2,1:3:0:0:
253,130,12373,1,0,1:0:0:0:
253,130,12512,2,0,B|199:152|184:199,1,91.7999971984864,10|0,0:0|1:0,0:0:0:0:
253,353,13068,1,8,0:0:0:0:
79,362,13345,6,0,P|27:337|18:295,1,91.7999971984864,2|10,1:3|0:0,0:0:0:0:
82,93,13901,6,0,L|154:78,1,51,2|0,1:3|0:0,0:0:0:0:
186,150,14179,2,0,L|258:165,1,51,10|0,0:0|0:0,0:0:0:0:
311,203,14456,1,2,1:3:0:0:
431,159,14595,1,0,1:0:0:0:
353,26,14734,2,0,P|321:86|312:136,1,102,10|0,0:0|1:0,0:0:0:0:
311,203,15151,1,0,0:0:0:0:
322,288,15290,6,0,L|333:349,1,51,10|0,0:0|0:0,0:0:0:0:
406,260,15568,2,0,L|415:209,1,51,2|0,1:3|1:0,0:0:0:0:
449,60,15845,2,0,B|424:36|424:36|339:41,1,102,10|0,0:0|1:0,0:0:0:0:
273,66,16262,1,0,0:0:0:0:
188,87,16401,6,0,P|186:34|181:23,1,51,10|0,0:0|0:0,0:0:0:0:
108,168,16679,2,0,P|103:142|106:117,1,51,2|0,1:3|1:3,0:0:0:0:
40,256,16956,2,0,P|29:366|23:375,1,102,10|0,0:0|1:0,0:0:0:0:
116,323,17373,1,0,0:0:0:0:
168,253,17512,6,0,P|204:238|234:240,1,51,8|0,0:0|0:0,0:0:0:0:
269,305,17790,2,0,P|305:320|335:318,1,51,0|0,1:0|1:0,0:0:0:0:
371,248,18068,1,10,0:0:0:0:
462,370,18206,1,0,0:0:0:0:
487,137,18345,6,0,L|365:127,1,112.200003424072,2|8,1:3|0:0,0:0:0:0:
295,63,18762,1,0,0:0:0:0:
211,119,18901,2,0,L|199:190,1,56.1000017120362,2|0,1:3|1:3,0:0:0:0:
126,297,19179,2,0,L|123:222,1,56.1000017120362,10|0,0:0|0:0,0:0:0:0:
101,141,19456,6,0,P|62:103|-5:113,1,112.200003424072,0|10,1:0|0:0,0:0:0:0:
31,204,19873,1,0,0:0:0:0:
30,305,20012,2,0,P|31:353|39:375,1,56.1000017120362,2|0,1:3|1:0,0:0:0:0:
121,260,20290,2,0,P|127:288|125:316,1,56.1000017120362,10|0,0:0|0:0,0:0:0:0:
294,320,20568,6,0,P|345:310|421:315,1,112.200003424072,0|10,1:0|0:0,0:0:0:0:
492,362,20984,1,0,0:0:0:0:
490,260,21123,2,0,P|485:211|488:193,1,56.1000017120362,2|0,1:3|1:0,0:0:0:0:
413,76,21401,2,0,P|418:125|415:143,1,56.1000017120362,10|0,0:0|0:0,0:0:0:0:
250,98,21679,6,0,P|234:151|251:226,1,112.200003424072,0|10,1:0|0:0,0:0:0:0:
299,289,22095,1,0,0:0:0:0:
209,336,22234,2,0,P|166:353|141:353,1,56.1000017120362,2|0,1:3|1:0,0:0:0:0:
58,328,22512,1,10,0:0:0:0:
69,308,22581,1,8,0:0:0:0:
76,287,22651,1,8,0:0:0:0:
80,265,22720,1,8,0:0:0:0:
79,243,22790,6,0,P|64:199|64:173,1,56.1000017120362,10|8,0:0|0:0,0:0:0:0:
192,117,23068,1,10,0:0:0:0:
350,175,23206,1,8,0:0:0:0:
221,283,23345,1,10,0:0:0:0:
289,105,23484,1,8,0:0:0:0:
328,354,23623,1,10,0:0:0:0:
92,264,23762,1,8,0:0:0:0:
350,175,23901,6,0,L|406:169,2,56.1000017120362,8|8|10,0:0|0:0|0:0,0:0:0:0:
293,266,24318,1,8,0:0:0:0:
188,110,24456,2,0,L|244:106,1,56.1000017120362,10|8,0:0|0:0,0:0:0:0:
105,179,24734,1,10,0:0:0:0:
105,179,24873,1,8,0:0:0:0:
160,45,25012,5,8,0:0:0:0:
208,281,25151,1,8,0:0:0:0:
275,78,25429,5,8,0:0:0:0:
223,308,25568,1,8,0:0:0:0:
180,99,25845,5,8,0:0:0:0:
232,329,25984,1,8,0:0:0:0:
299,126,26262,5,8,0:0:0:0:
247,356,26401,1,8,0:0:0:0:
78,31,27234,6,0,B|42:67|42:67|27:183,1,142.79999564209,6|8,1:3|0:0,0:0:0:0:
55,292,27651,1,0,0:0:0:0:
182,264,27790,2,0,P|249:255|279:258,1,71.399997821045,0|0,1:0|1:0,0:0:0:0:
371,188,28068,2,0,P|336:180|300:179,1,71.399997821045,8|0,0:0|0:0,0:0:0:0:
261,52,28345,6,0,P|229:88|219:181,1,142.79999564209,2|8,1:3|0:0,0:0:0:0:
322,299,28762,1,0,0:0:0:0:
436,225,28901,2,0,P|445:196|420:135,1,71.399997821045,0|0,1:0|1:0,0:0:0:0:
310,114,29179,1,10,0:0:0:0:
425,42,29318,1,0,0:0:0:0:
205,35,29456,6,0,L|35:49,1,142.79999564209,2|8,1:3|0:0,0:0:0:0:
160,142,29873,1,0,0:0:0:0:
96,261,30012,2,0,P|87:323|98:351,1,71.399997821045,0|0,1:0|1:0,0:0:0:0:
211,270,30290,1,10,0:0:0:0:
289,381,30429,1,0,0:0:0:0:
307,174,30568,6,0,B|315:78|315:78|344:129,1,142.79999564209,2|8,1:3|0:0,0:0:0:0:
462,172,30984,1,0,0:0:0:0:
409,297,31123,2,0,P|356:324|315:322,1,71.399997821045,0|0,1:0|1:0,0:0:0:0:
208,320,31401,1,10,0:0:0:0:
308,190,31540,1,0,0:0:0:0:
150,44,31679,6,0,B|107:110|178:110|135:191,1,142.79999564209,2|10,1:3|0:0,0:0:0:0:
34,268,32095,2,0,P|143:324|179:304,1,142.79999564209,2|0,0:0|1:0,0:0:0:0:
273,260,32512,1,10,0:0:0:0:
342,376,32651,2,0,L|364:216,1,142.79999564209,2|0,0:0|1:0,0:0:0:0:
399,103,33068,5,10,0:0:0:0:
239,139,33206,1,0,0:0:0:0:
372,38,33345,2,0,P|398:91|398:114,1,71.399997821045,2|0,1:3|1:0,0:0:0:0:
296,193,33623,2,0,P|270:246|270:269,1,71.399997821045,10|0,0:0|0:0,0:0:0:0:
380,337,33901,6,0,B|309:315|323:391|225:355,1,142.79999564209,2|10,1:3|0:0,0:0:0:0:
112,365,34318,2,0,B|100:312|100:312|119:278|119:278|113:219|113:218,1,142.79999564209,2|0,0:0|1:0,0:0:0:0:
76,98,34734,1,10,0:0:0:0:
286,17,34873,2,0,P|321:22|356:113,1,142.79999564209,2|0,0:0|1:0,0:0:0:0:
247,184,35290,5,8,0:0:0:0:
452,180,35429,1,2,0:0:0:0:
282,310,35568,1,2,1:3:0:0:
356,111,35706,1,2,1:3:0:0:
413,311,35845,1,8,0:0:0:0:
247,184,35984,1,0,0:0:0:0:
308,382,36123,6,0,P|245:372|208:301,1,142.79999564209,2|8,1:3|0:0,0:0:0:0:
125,198,36540,1,0,0:0:0:0:
231,116,36679,2,0,P|246:147|239:205,1,71.399997821045,0|0,1:0|1:0,0:0:0:0:
362,253,36956,2,0,P|357:217|376:187,1,71.399997821045,8|0,0:0|0:0,0:0:0:0:
495,121,37234,6,0,L|498:270,1,142.79999564209,2|8,1:3|0:0,0:0:0:0:
362,253,37651,1,0,0:0:0:0:
267,350,37790,2,0,P|200:353|181:346,1,71.399997821045,0|0,1:0|1:0,0:0:0:0:
145,225,38068,1,10,0:0:0:0:
56,326,38206,1,0,0:0:0:0:
85,113,38345,6,0,B|106:60|106:60|205:44,1,142.79999564209,2|8,1:3|0:0,0:0:0:0:
327,57,38762,1,0,0:0:0:0:
274,182,38901,2,0,P|249:128|248:99,1,71.399997821045,0|0,1:0|1:0,0:0:0:0:
333,281,39179,1,10,0:0:0:0:
184,246,39318,1,0,0:0:0:0:
444,226,39456,6,0,P|469:307|426:372,1,142.79999564209,2|8,1:3|0:0,0:0:0:0:
309,374,39873,1,0,0:0:0:0:
227,265,40012,2,0,P|205:218|210:175,1,71.399997821045,0|0,1:0|1:0,0:0:0:0:
287,90,40290,1,10,0:0:0:0:
359,208,40429,1,0,0:0:0:0:
151,107,40568,6,0,L|1:128,1,142.79999564209,2|10,1:3|0:0,0:0:0:0:
100,234,40984,2,0,P|114:318|97:372,1,142.79999564209,2|0,0:0|1:0,0:0:0:0:
229,335,41401,1,10,0:0:0:0:
232,199,41540,2,0,P|258:155|344:192,1,142.79999564209,2|0,0:0|1:0,0:0:0:0:
410,287,41956,6,0,P|411:367|416:375,1,71.399997821045,10|0,0:0|0:0,0:0:0:0:
499,220,42234,2,0,P|503:184|494:150,1,71.399997821045,2|0,1:3|1:0,0:0:0:0:
423,26,42512,1,10,0:0:0:0:
357,145,42651,1,2,0:0:0:0:
252,77,42790,6,0,B|240:178|240:178|195:211,1,142.79999564209,2|10,1:3|0:0,0:0:0:0:
72,184,43206,2,0,B|43:267|105:237|74:323,1,142.79999564209,2|0,0:0|1:0,0:0:0:0:
209,345,43623,1,10,0:0:0:0:
145,128,43762,2,0,P|132:48|170:2,1,142.79999564209,2|0,0:0|1:0,0:0:0:0:
300,42,44179,5,8,0:0:0:0:
359,220,44318,1,2,0:0:0:0:
142,184,44456,1,2,1:3:0:0:
327,137,44595,1,2,1:3:0:0:
258,345,44734,1,8,0:0:0:0:
142,184,44873,1,0,0:0:0:0:
434,156,45012,6,0,L|444:285,1,112.200003424072,2|10,1:3|0:3,0:3:0:0:
346,316,45429,1,10,0:0:0:0:
241,294,45568,2,0,P|228:232|231:218,1,56.1000017120362,0|0,1:0|1:0,0:0:0:0:
140,179,45845,2,0,P|137:206|126:232,1,56.1000017120362,10|2,0:0|0:0,0:0:0:0:
14,352,46123,6,0,P|55:347|125:371,1,112.200003424072,0|8,1:0|0:0,0:0:0:0:
205,360,46540,1,10,0:0:0:0:
287,311,46679,1,2,1:3:0:0:
304,217,46818,2,0,L|310:153,2,56.1000017120362,2|8|0,1:3|0:0|1:0,0:0:0:0:
442,77,47234,6,0,L|431:208,1,112.200003424072,2|10,1:3|0:0,0:0:0:0:
426,284,47651,1,10,0:0:0:0:
356,349,47790,2,0,P|333:301|313:286,1,56.1000017120362,0|0,1:0|1:0,0:0:0:0:
270,225,48068,2,0,P|247:273|227:288,1,56.1000017120362,10|2,0:0|0:0,0:0:0:0:
360,216,48345,6,0,B|362:144|362:144|327:93,1,112.200003424072,0|8,1:0|0:0,0:0:0:0:
259,57,48762,1,10,0:0:0:0:
163,59,48901,1,2,1:3:0:0:
82,110,49040,2,0,P|46:149|36:164,2,56.1000017120362,2|8|0,1:3|0:0|1:0,0:0:0:0:
43,302,49456,6,0,P|95:321|165:294,1,112.200003424072,2|10,1:3|0:0,0:0:0:0:
238,277,49873,1,10,0:0:0:0:
317,329,50012,2,0,L|321:384,1,56.1000017120362,0|0,1:0|1:0,0:0:0:0:
377,255,50290,2,0,L|381:200,1,56.1000017120362,10|2,0:0|0:0,0:0:0:0:
470,89,50568,6,0,P|453:13|414:1,1,112.200003424072,0|8,1:0|0:0,0:0:0:0:
363,87,50984,1,2,0:0:0:0:
278,21,51123,1,2,1:3:0:0:
171,25,51262,2,0,P|110:40|97:48,2,56.1000017120362,2|8|0,1:3|0:0|1:0,0:0:0:0:
269,154,51679,6,0,P|275:210|230:307,1,153.000005836487,10|10,0:0|0:0,0:0:0:0:
24,307,52095,2,0,P|40:253|134:199,1,153.000005836487,10|10,0:0|0:0,0:0:0:0:
367,300,52512,2,0,B|328:327|328:327|188:325,1,153.000005836487,10|8,0:0|0:0,0:0:0:0:
75,127,52929,2,0,B|134:119|134:119|167:93|167:93|235:84,1,153.000005836487,8|8,0:3|0:3,0:3:0:0:
475,204,53345,2,0,P|431:189|397:188,1,76.5000029182435,10|8,0:0|0:0,0:0:0:0:
215,240,53623,5,8,0:0:0:0:
183,261,53692,1,8,0:0:0:0:
147,271,53761,1,8,0:0:0:0:
109,266,53831,1,8,0:0:0:0:
75,248,53901,6,0,P|35:220|7:218,1,56.1000017120362,6|2,1:3|1:3,0:0:0:0:
45,112,54179,2,0,P|70:101|91:82,1,56.1000017120362,10|0,0:0|0:0,0:0:0:0:
196,64,54456,2,0,P|249:48|266:50,1,56.1000017120362,0|0,1:0|1:0,0:0:0:0:
351,14,54734,2,0,P|359:57|380:80,1,56.1000017120362,10|2,0:0|0:0,0:0:0:0:
454,127,55012,5,2,1:3:0:0:
503,303,55151,1,0,1:0:0:0:
341,276,55290,2,0,P|297:270|273:250,1,56.1000017120362,10|8,0:0|0:0,0:0:0:0:
130,330,55568,5,10,0:0:0:0:
128,301,55637,1,8,0:0:0:0:
126,273,55706,1,8,0:0:0:0:
125,245,55776,1,8,0:0:0:0:
123,217,55845,1,10,0:0:0:0:
42,278,55984,1,10,0:0:0:0:
341,276,56123,5,4,0:0:0:0:
256,192,56262,12,0,59456,0:0:0:0:
