osu file format v14

[General]
AudioFilename: audio.mp3
AudioLeadIn: 0
PreviewTime: 27234
Countdown: 0
SampleSet: Drum
StackLeniency: 0.7
Mode: 0
LetterboxInBreaks: 0
WidescreenStoryboard: 0

[Editor]
DistanceSpacing: 1
BeatDivisor: 2
GridSize: 8
TimelineZoom: 1

[Metadata]
Title:Hello Hello Hello (TV Size)
TitleUnicode:ハローハローハロー (TV Size)
Artist:Good Morning America
ArtistUnicode:グッドモーニングアメリカ
Creator:[-Evil-]
Version:Easy
Source:DRAGON BALL 超
Tags:ドラゴンボール SHINGO KANEHIRO japanese rock j-rock goku gohan gotenks ending jumps fast sky cloud house kame anime toei animation water
BeatmapID:2189375
BeatmapSetID:1047408

[Difficulty]
HPDrainRate:2
CircleSize:2.5
OverallDifficulty:1.3
ApproachRate:3
SliderMultiplier:0.87
SliderTickRate:1

[Events]
//Background and Video events
0,0,"new-image.jpg",0,0
//Break Periods
//Storyboard Layer 0 (Background)
//Storyboard Layer 1 (Fail)
//Storyboard Layer 2 (Pass)
//Storyboard Layer 3 (Foreground)
//Storyboard Layer 4 (Overlay)
//Storyboard Sound Samples

[TimingPoints]
568,277.777777777778,4,3,1,55,1,0
568,-100,4,3,1,55,0,0
9456,-100,4,3,1,50,0,0
13901,-100,4,3,1,55,0,0
18345,-100,4,3,1,60,0,0
25012,-100,4,3,1,63,0,0
25429,-100,4,3,1,66,0,0
25845,-100,4,3,1,69,0,0
26262,-100,4,3,1,72,0,0
27234,-100,4,3,1,70,0,1
45012,-100,4,3,1,60,0,0
51679,-100,4,3,1,65,0,0
53901,-100,4,3,1,60,0,0
56679,-111.111111111111,4,3,1,60,0,0
56818,-125,4,3,1,50,0,0
56956,-142.857142857143,4,3,1,50,0,0
58206,-200,4,3,1,50,0,0
59456,-100,4,3,1,10,0,0

[Colours]
Combo1 : 128,255,128
Combo2 : 255,128,64
Combo3 : 83,160,255
Combo4 : 254,239,54

[HitObjects]
168,66,568,6,0,P|189:143|161:207,1,130.5,0|0,1:0|0:0,0:0:0:0:
95,294,1401,1,8,0:0:0:0:
170,337,1679,2,0,P|211:357|258:357,1,87,0|8,1:0|0:0,0:0:0:0:
319,303,2234,1,0,1:0:0:0:
382,362,2512,1,8,0:0:0:0:
469,362,2790,6,0,L|487:260,1,87,0|8,1:0|0:0,0:0:0:0:
432,206,3345,1,0,1:0:0:0:
455,122,3623,2,0,P|412:62|308:66,1,174,8|8,0:0|0:0,0:0:0:0:
277,136,4456,2,0,P|236:162|195:159,1,87,0|8,1:0|0:0,0:0:0:0:
158,82,5012,6,0,P|125:62|39:107,1,130.5,0|0,1:0|0:0,0:0:0:0:
23,221,5845,1,8,0:0:0:0:
109,210,6123,2,0,P|121:252|107:301,1,87,0|8,1:0|0:0,0:0:0:0:
43,348,6679,1,0,1:0:0:0:
123,380,6956,1,8,0:0:0:0:
192,327,7234,6,0,P|228:337|276:376,1,87,0|8,1:0|0:0,0:0:0:0:
354,370,7790,1,0,1:0:0:0:
358,283,8068,2,0,L|367:95,1,174,8|8,0:0|3:0,0:0:0:0:
433,55,8901,1,10,0:0:0:0:
494,116,9179,1,10,0:0:0:0:
474,200,9456,6,0,B|474:249|474:249|443:301,2,87,0|10|2,1:0|0:0|1:3,0:0:0:0:
409,141,10290,2,0,B|329:87|239:136,1,174,10|8,0:0|0:0,0:0:0:0:
170,180,11123,1,2,1:3:0:0:
88,150,11401,6,0,P|99:237|197:269,1,174,10|10,0:0|0:0,0:0:0:0:
241,222,12234,1,2,1:3:0:0:
243,133,12512,2,0,P|284:144|317:172,1,87,10|0,0:0|1:0,0:0:0:0:
404,181,13068,1,8,0:0:0:0:
484,213,13345,2,0,P|463:261|424:294,1,87,2|10,1:3|0:0,0:0:0:0:
350,293,13901,6,0,L|343:385,2,87,2|10|2,1:3|0:0|1:3,0:0:0:0:
273,255,14734,2,0,P|212:229|185:122,1,174,10|10,0:0|0:0,0:0:0:0:
220,53,15568,1,2,1:3:0:0:
306,48,15845,6,0,L|486:39,1,174,10|10,0:0|0:0,0:0:0:0:
493,125,16679,1,2,1:3:0:0:
417,168,16956,1,10,0:0:0:0:
403,254,17234,2,0,P|462:264|494:260,1,87,0|8,1:0|0:0,0:0:0:0:
496,348,17790,2,0,P|437:358|401:353,1,87,0|10,1:0|0:0,0:0:0:0:
323,342,18345,6,0,P|273:286|174:294,1,174,2|2,1:3|1:3,0:0:0:0:
117,351,19179,2,0,P|58:362|10:260,1,174,10|10,0:0|0:0,0:0:0:0:
52,203,20012,1,2,1:3:0:0:
138,212,20290,6,0,P|158:136|131:41,1,174,10|10,0:0|0:0,0:0:0:0:
217,22,21123,2,0,P|268:3|322:22,1,87,2|10,1:3|0:0,0:0:0:0:
385,21,21679,1,0,1:0:0:0:
439,88,21956,1,10,0:0:0:0:
370,141,22234,2,0,P|349:191|346:237,1,87,2|10,1:3|0:0,0:0:0:0:
405,286,22790,6,0,L|421:384,2,87,10|10|10,0:0|0:0|0:0,0:0:0:0:
320,305,23623,1,10,0:0:0:0:
253,249,23901,2,0,L|260:162,2,87,8|10|10,0:0|0:0|0:0,0:0:0:0:
168,270,24734,1,10,0:0:0:0:
141,186,25012,6,0,P|47:167|13:182,2,130.5,8|8|8,0:0|0:0|0:0,0:0:0:0:
255,249,26262,1,8,0:0:0:0:
93,32,27234,6,0,L|82:136,1,87,6|8,1:3|0:0,0:0:0:0:
160,160,27790,2,0,L|169:257,1,87,0|8,1:0|0:0,0:0:0:0:
251,271,28345,2,0,L|261:372,2,87,2|8|0,1:3|0:0|1:0,0:0:0:0:
331,235,29179,1,10,0:0:0:0:
414,210,29456,6,0,P|412:153|326:77,1,174,2|0,1:3|1:0,0:0:0:0:
247,51,30290,1,10,0:0:0:0:
172,96,30568,2,0,B|133:109|93:148,2,87,2|8|0,1:3|0:0|1:0,0:0:0:0:
248,138,31401,1,10,0:0:0:0:
245,225,31679,6,0,L|232:329,1,87,2|10,1:3|0:0,0:0:0:0:
147,316,32234,2,0,L|161:208,1,87,2|10,0:0|0:0,0:0:0:0:
96,167,32790,2,0,P|142:139|199:151,1,87,2|10,0:0|0:0,0:0:0:0:
251,100,33345,2,0,P|273:145|326:160,1,87,2|10,1:3|0:0,0:0:0:0:
370,217,33901,6,0,L|386:313,2,87,2|10|2,1:3|0:0|0:0,0:0:0:0:
388,131,34734,1,10,0:0:0:0:
412,47,35012,2,0,L|497:12,2,87,2|8|2,0:0|0:0|1:3,0:0:0:0:
325,38,35845,1,8,0:0:0:0:
239,52,36123,6,0,P|204:38|153:36,1,87,2|8,1:3|0:0,0:0:0:0:
67,30,36679,2,0,P|66:69|34:129,1,87,0|8,1:0|0:0,0:0:0:0:
52,199,37234,2,0,P|44:235|55:313,2,87,2|8|0,1:3|0:0|1:0,0:0:0:0:
133,167,38068,1,10,0:0:0:0:
159,249,38345,6,0,P|196:290|308:262,1,174,2|0,1:3|1:0,0:0:0:0:
386,244,39179,1,10,0:0:0:0:
466,275,39456,2,0,P|482:320|489:368,2,87,2|8|0,1:3|0:0|1:0,0:0:0:0:
452,188,40290,1,10,0:0:0:0:
378,141,40568,6,0,P|370:96|379:40,1,87,2|10,1:3|0:0,0:0:0:0:
290,30,41123,2,0,P|247:26|197:37,1,87,0|10,0:0|0:0,0:0:0:0:
192,120,41679,2,0,P|164:130|87:135,1,87,2|10,0:0|0:0,0:0:0:0:
29,96,42234,2,0,P|17:158|30:206,1,87,2|10,1:3|0:0,0:0:0:0:
98,219,42790,6,0,L|116:303,2,87,2|10|0,1:3|0:0|0:0,0:0:0:0:
184,211,43623,1,10,0:0:0:0:
262,173,43901,2,0,L|349:161,2,87,2|8|2,0:0|0:0|1:3,0:0:0:0:
298,251,44734,1,8,0:0:0:0:
383,233,45012,6,0,P|389:299|311:334,1,130.5,2|10,1:3|0:0,0:0:0:0:
218,294,45845,1,10,0:0:0:0:
188,211,46123,2,0,P|129:182|78:202,1,87,0|8,1:0|0:0,0:0:0:0:
122,275,46679,2,0,P|74:325|46:338,1,87,2|8,1:3|0:0,0:0:0:0:
27,251,47234,6,0,L|32:94,1,130.5,2|10,1:3|0:0,0:0:0:0:
114,19,48068,1,10,0:0:0:0:
197,43,48345,2,0,P|200:86|216:126,1,87,0|8,1:0|0:0,0:0:0:0:
290,168,48901,2,0,P|320:200|372:223,1,87,2|8,1:3|0:0,0:0:0:0:
424,163,49456,6,0,P|452:240|398:295,1,130.5,2|10,1:3|0:0,0:0:0:0:
300,294,50290,1,10,0:0:0:0:
231,240,50568,2,0,P|213:279|212:342,1,87,0|8,1:0|0:0,0:0:0:0:
131,362,51123,2,0,P|124:315|106:278,1,87,2|8,1:3|0:0,0:0:0:0:
37,226,51679,6,0,P|90:191|155:205,2,130.5,10|10|10,0:0|0:0|0:0,0:0:0:0:
73,100,52929,1,8,0:3:0:0:
195,55,53345,2,0,P|238:37|287:37,1,87,10|8,0:0|0:0,0:0:0:0:
363,17,53901,6,0,P|376:43|375:103,1,87,6|10,1:3|0:0,0:0:0:0:
294,124,54456,2,0,P|282:168|294:226,1,87,0|10,1:0|0:0,0:0:0:0:
260,291,55012,2,0,P|293:323|364:328,1,87,2|10,1:3|0:0,0:0:0:0:
372,256,55568,2,0,P|403:223|483:218,1,87,10|10,0:0|0:0,0:0:0:0:
469,128,56123,5,4,0:0:0:0:
256,192,56401,12,0,59456,0:0:0:0:
