osu file format v14

[General]
AudioFilename: audio.mp3
AudioLeadIn: 0
PreviewTime: 118519
Countdown: 0
SampleSet: Soft
StackLeniency: 0.7
Mode: 3
LetterboxInBreaks: 0
SpecialStyle: 0
WidescreenStoryboard: 0

[Editor]
DistanceSpacing: 0.85
BeatDivisor: 4
GridSize: 32
TimelineZoom: 2

[Metadata]
Title:Shigatsu no Baka!
TitleUnicode:四月のバカっ!
Artist:Good MEDiCiNE
ArtistUnicode:ぐっどめでぃしん
Creator:lenpai
Version:April Fool obj. LNpai
Source:
Tags:mad idol 地下アイドル ムスコノプロダクション japanese pop jpop j-pop ぱやちの 息子P april fools
BeatmapID:4079482
BeatmapSetID:1967045

[Difficulty]
HPDrainRate:8
CircleSize:4
OverallDifficulty:7
ApproachRate:5
SliderMultiplier:1.4
SliderTickRate:1

[Events]
//Background and Video events
0,0,"Fsi4kNGagAAtP_f.jpg",0,0
//Break Periods
//Storyboard Layer 0 (Background)
//Storyboard Layer 1 (Fail)
//Storyboard Layer 2 (Pass)
//Storyboard Layer 3 (Foreground)
//Storyboard Layer 4 (Overlay)
//Storyboard Sound Samples

[TimingPoints]
732,370.37037037037,4,2,1,50,1,0
47954,-100,4,2,1,50,0,1
74435,-100,4,2,1,50,0,0
119065,-100,4,2,1,50,0,1
145917,-100,4,2,1,50,0,0
168139,-100,4,2,1,50,0,1
169620,-100,4,2,1,50,0,0
175361,-100,4,2,1,50,0,1
175546,-100,4,2,1,50,0,0
175917,-100,4,2,1,50,0,1
196287,-100,4,2,1,50,0,0

[HitObjects]
192,192,732,128,0,824:0:0:0:0:
448,192,778,128,0,917:0:0:0:0:
64,192,917,128,0,1102:0:0:0:0:
192,192,1102,128,0,1287:0:0:0:0:
320,192,1287,128,0,1472:0:0:0:0:
448,192,1472,128,0,1657:0:0:0:0:
64,192,1657,128,0,3139:0:0:0:0:
192,192,1843,128,0,3139:0:0:0:0:
320,192,2028,128,0,3139:0:0:0:0:
448,192,2213,128,0,3139:0:0:0:0:
64,192,3324,128,0,3602:0:0:0:0:
320,192,3324,1,0,0:0:0:0:
448,192,3324,1,0,0:0:0:0:
192,192,3509,128,0,3787:0:0:0:0:
320,192,3694,128,0,4065:0:0:0:0:
64,192,3694,1,0,0:0:0:0:
448,192,3694,1,0,0:0:0:0:
192,192,3880,1,0,0:0:0:0:
192,192,4065,128,0,4157:0:0:0:0:
64,192,4065,128,0,4157:0:0:0:0:
448,192,4065,1,0,0:0:0:0:
192,192,4250,128,0,4343:0:0:0:0:
64,192,4250,128,0,4343:0:0:0:0:
320,192,4435,1,0,0:0:0:0:
320,192,4620,128,0,4713:0:0:0:0:
448,192,4620,128,0,4713:0:0:0:0:
64,192,4806,1,0,0:0:0:0:
192,192,4806,1,0,0:0:0:0:
448,192,4806,1,0,0:0:0:0:
448,192,4991,128,0,5269:0:0:0:0:
192,192,4991,128,0,5269:0:0:0:0:
192,192,5361,128,0,5454:0:0:0:0:
448,192,5361,128,0,5454:0:0:0:0:
320,192,5546,128,0,5639:0:0:0:0:
192,192,5546,1,0,0:0:0:0:
64,192,5546,1,0,0:0:0:0:
192,192,5731,128,0,5824:0:0:0:0:
448,192,5731,128,0,6287:0:0:0:0:
64,192,5917,1,0,0:0:0:0:
192,192,6102,1,0,0:0:0:0:
320,192,6287,128,0,6565:0:0:0:0:
192,192,6287,1,0,0:0:0:0:
64,192,6287,1,0,0:0:0:0:
192,192,6472,128,0,6750:0:0:0:0:
64,192,6657,128,0,6935:0:0:0:0:
448,192,6657,128,0,7028:0:0:0:0:
320,192,6843,1,0,0:0:0:0:
192,192,7028,128,0,7120:0:0:0:0:
64,192,7028,128,0,7120:0:0:0:0:
320,192,7028,1,0,0:0:0:0:
192,192,7213,128,0,7306:0:0:0:0:
448,192,7213,128,0,7306:0:0:0:0:
320,192,7398,1,0,0:0:0:0:
64,192,7583,128,0,7676:0:0:0:0:
320,192,7583,128,0,7676:0:0:0:0:
448,192,7769,1,0,0:0:0:0:
320,192,7769,1,0,0:0:0:0:
64,192,7769,1,0,0:0:0:0:
192,192,7954,128,0,8694:0:0:0:0:
64,192,7954,128,0,8694:0:0:0:0:
448,192,7954,1,0,0:0:0:0:
448,192,8324,1,0,0:0:0:0:
448,192,8509,1,0,0:0:0:0:
320,192,8509,1,0,0:0:0:0:
448,192,8694,1,0,0:0:0:0:
320,192,8880,128,0,8972:0:0:0:0:
64,192,8880,128,0,9157:0:0:0:0:
320,192,9065,128,0,9157:0:0:0:0:
448,192,9065,128,0,9157:0:0:0:0:
192,192,9250,128,0,9343:0:0:0:0:
448,192,9250,128,0,9528:0:0:0:0:
192,192,9435,128,0,9528:0:0:0:0:
64,192,9435,128,0,9528:0:0:0:0:
448,192,9620,128,0,9713:0:0:0:0:
320,192,9620,128,0,9898:0:0:0:0:
64,192,9620,1,0,0:0:0:0:
64,192,9806,128,0,9898:0:0:0:0:
192,192,9806,128,0,10083:0:0:0:0:
448,192,9991,128,0,10083:0:0:0:0:
320,192,9991,128,0,10083:0:0:0:0:
320,192,10176,128,0,10454:0:0:0:0:
192,192,10176,128,0,10824:0:0:0:0:
64,192,10176,128,0,10454:0:0:0:0:
64,192,10546,128,0,10824:0:0:0:0:
320,192,10546,1,0,0:0:0:0:
320,192,10731,128,0,10824:0:0:0:0:
448,192,10731,1,0,0:0:0:0:
192,192,10917,128,0,11287:0:0:0:0:
320,192,10917,128,0,11194:0:0:0:0:
448,192,10917,128,0,11194:0:0:0:0:
320,192,11287,1,0,0:0:0:0:
448,192,11287,1,0,0:0:0:0:
192,192,11380,1,0,0:0:0:0:
64,192,11472,128,0,11750:0:0:0:0:
320,192,11472,128,0,11565:0:0:0:0:
448,192,11472,1,0,0:0:0:0:
192,192,11657,128,0,11750:0:0:0:0:
448,192,11657,128,0,11750:0:0:0:0:
448,192,11843,128,0,11935:0:0:0:0:
64,192,11843,128,0,11935:0:0:0:0:
320,192,11843,128,0,11935:0:0:0:0:
64,192,12028,128,0,12120:0:0:0:0:
320,192,12028,128,0,12120:0:0:0:0:
448,192,12028,128,0,12120:0:0:0:0:
448,192,12583,1,0,0:0:0:0:
192,192,12583,1,0,0:0:0:0:
64,192,12583,128,0,13509:0:0:0:0:
448,192,12954,1,0,0:0:0:0:
448,192,13324,1,0,0:0:0:0:
320,192,13509,128,0,13694:0:0:0:0:
192,192,13694,128,0,13880:0:0:0:0:
448,192,13694,1,0,0:0:0:0:
448,192,13880,128,0,14250:0:0:0:0:
64,192,14065,1,0,0:0:0:0:
320,192,14435,128,0,14713:0:0:0:0:
64,192,14435,1,0,0:0:0:0:
192,192,14620,128,0,14713:0:0:0:0:
448,192,14806,128,0,15361:0:0:0:0:
64,192,14806,1,0,0:0:0:0:
320,192,15083,128,0,15546:0:0:0:0:
64,192,15176,1,0,0:0:0:0:
192,192,15361,128,0,15546:0:0:0:0:
64,192,15546,128,0,16102:0:0:0:0:
448,192,15546,1,0,0:0:0:0:
448,192,15917,1,0,0:0:0:0:
192,192,16102,128,0,16287:0:0:0:0:
448,192,16287,128,0,17028:0:0:0:0:
64,192,16287,1,0,0:0:0:0:
64,192,16657,1,0,0:0:0:0:
192,192,17028,1,0,0:0:0:0:
192,192,17398,1,0,0:0:0:0:
64,192,17769,128,0,17954:0:0:0:0:
320,192,17769,1,0,0:0:0:0:
192,192,17954,128,0,18139:0:0:0:0:
448,192,18139,128,0,18231:0:0:0:0:
320,192,18139,1,0,0:0:0:0:
320,192,18509,128,0,18694:0:0:0:0:
64,192,18509,1,0,0:0:0:0:
192,192,18880,128,0,19065:0:0:0:0:
64,192,18880,1,0,0:0:0:0:
320,192,19065,128,0,19250:0:0:0:0:
448,192,19250,1,0,0:0:0:0:
192,192,19435,128,0,19620:0:0:0:0:
448,192,19620,1,0,0:0:0:0:
64,192,19806,128,0,20176:0:0:0:0:
320,192,19991,1,0,0:0:0:0:
320,192,20361,1,0,0:0:0:0:
320,192,20731,128,0,20917:0:0:0:0:
448,192,20731,1,0,0:0:0:0:
64,192,20917,128,0,21102:0:0:0:0:
320,192,21102,128,0,21287:0:0:0:0:
448,192,21102,1,0,0:0:0:0:
192,192,21472,128,0,21657:0:0:0:0:
64,192,21472,1,0,0:0:0:0:
448,192,21843,128,0,22120:0:0:0:0:
192,192,21843,1,0,0:0:0:0:
320,192,22028,128,0,22120:0:0:0:0:
64,192,22028,1,0,0:0:0:0:
320,192,22213,1,0,0:0:0:0:
192,192,22398,128,0,22583:0:0:0:0:
448,192,22491,1,0,0:0:0:0:
320,192,22583,1,0,0:0:0:0:
64,192,22583,1,0,0:0:0:0:
448,192,22676,1,0,0:0:0:0:
64,192,22769,128,0,23231:0:0:0:0:
192,192,22769,1,0,0:0:0:0:
448,192,22954,128,0,23046:0:0:0:0:
320,192,22954,128,0,23046:0:0:0:0:
192,192,23139,128,0,23231:0:0:0:0:
448,192,23139,128,0,23231:0:0:0:0:
64,192,23324,1,0,0:0:0:0:
192,192,23324,1,0,0:0:0:0:
320,192,23324,1,0,0:0:0:0:
64,192,23509,128,0,24065:0:0:0:0:
192,192,23509,128,0,24065:0:0:0:0:
448,192,23509,128,0,23602:0:0:0:0:
320,192,23880,1,0,0:0:0:0:
448,192,23880,1,0,0:0:0:0:
448,192,24065,1,0,0:0:0:0:
320,192,24065,1,0,0:0:0:0:
320,192,24250,1,0,0:0:0:0:
448,192,24250,1,0,0:0:0:0:
192,192,24343,1,0,0:0:0:0:
320,192,24435,1,0,0:0:0:0:
448,192,24435,1,0,0:0:0:0:
64,192,24435,128,0,24806:0:0:0:0:
192,192,24620,1,0,0:0:0:0:
320,192,24806,1,0,0:0:0:0:
448,192,24806,1,0,0:0:0:0:
64,192,24991,1,0,0:0:0:0:
192,192,25176,1,0,0:0:0:0:
448,192,25176,1,0,0:0:0:0:
64,192,25361,128,0,25546:0:0:0:0:
448,192,25546,1,0,0:0:0:0:
192,192,25546,128,0,25731:0:0:0:0:
448,192,25731,128,0,25917:0:0:0:0:
64,192,25731,128,0,26009:0:0:0:0:
192,192,25824,128,0,26009:0:0:0:0:
320,192,25917,128,0,26009:0:0:0:0:
192,192,26102,1,0,0:0:0:0:
320,192,26287,128,0,26565:0:0:0:0:
448,192,26287,128,0,26380:0:0:0:0:
64,192,26287,128,0,26380:0:0:0:0:
192,192,26472,128,0,26565:0:0:0:0:
448,192,26657,128,0,27213:0:0:0:0:
192,192,26657,128,0,26750:0:0:0:0:
64,192,26657,128,0,26750:0:0:0:0:
320,192,26935,128,0,27491:0:0:0:0:
64,192,27028,128,0,27120:0:0:0:0:
192,192,27028,1,0,0:0:0:0:
192,192,27213,128,0,27398:0:0:0:0:
448,192,27398,128,0,28046:0:0:0:0:
64,192,27398,1,0,0:0:0:0:
192,192,27583,1,0,0:0:0:0:
320,192,27769,1,0,0:0:0:0:
64,192,27769,1,0,0:0:0:0:
64,192,27954,128,0,28417:0:0:0:0:
320,192,28139,128,0,28880:0:0:0:0:
448,192,28139,1,0,0:0:0:0:
192,192,28324,1,0,0:0:0:0:
64,192,28509,1,0,0:0:0:0:
448,192,28509,1,0,0:0:0:0:
192,192,28694,1,0,0:0:0:0:
192,192,28880,1,0,0:0:0:0:
448,192,28880,1,0,0:0:0:0:
320,192,29065,1,0,0:0:0:0:
192,192,29250,1,0,0:0:0:0:
64,192,29250,1,0,0:0:0:0:
192,192,29435,1,0,0:0:0:0:
448,192,29435,1,0,0:0:0:0:
64,192,29620,128,0,29713:0:0:0:0:
320,192,29620,128,0,29713:0:0:0:0:
192,192,29806,128,0,29898:0:0:0:0:
320,192,29806,128,0,29898:0:0:0:0:
320,192,29991,128,0,30083:0:0:0:0:
448,192,29991,128,0,30083:0:0:0:0:
64,192,29991,1,0,0:0:0:0:
192,192,30176,1,0,0:0:0:0:
64,192,30361,128,0,30454:0:0:0:0:
448,192,30361,1,0,0:0:0:0:
192,192,30361,128,0,30639:0:0:0:0:
320,192,30546,1,0,0:0:0:0:
448,192,30731,1,0,0:0:0:0:
192,192,30731,128,0,30824:0:0:0:0:
64,192,30731,1,0,0:0:0:0:
64,192,30917,128,0,31750:0:0:0:0:
320,192,30917,128,0,31287:0:0:0:0:
448,192,30917,1,0,0:0:0:0:
192,192,31287,128,0,31472:0:0:0:0:
448,192,31472,128,0,31750:0:0:0:0:
320,192,31472,1,0,0:0:0:0:
320,192,31657,128,0,31750:0:0:0:0:
64,192,31843,1,0,0:0:0:0:
320,192,31843,128,0,32120:0:0:0:0:
448,192,31843,128,0,31935:0:0:0:0:
192,192,32028,128,0,32306:0:0:0:0:
64,192,32213,128,0,32306:0:0:0:0:
320,192,32213,1,0,0:0:0:0:
448,192,32213,1,0,0:0:0:0:
448,192,32398,128,0,32954:0:0:0:0:
64,192,32398,1,0,0:0:0:0:
192,192,32398,128,0,32676:0:0:0:0:
192,192,32769,1,0,0:0:0:0:
64,192,32954,1,0,0:0:0:0:
192,192,32954,1,0,0:0:0:0:
320,192,32954,1,0,0:0:0:0:
64,192,33139,128,0,33231:0:0:0:0:
320,192,33139,128,0,33231:0:0:0:0:
192,192,33231,128,0,33324:0:0:0:0:
320,192,33324,128,0,33417:0:0:0:0:
448,192,33324,128,0,33787:0:0:0:0:
192,192,33509,128,0,33602:0:0:0:0:
320,192,33509,128,0,33787:0:0:0:0:
192,192,33694,128,0,33787:0:0:0:0:
64,192,33694,128,0,33787:0:0:0:0:
192,192,33880,128,0,34250:0:0:0:0:
320,192,33880,128,0,34157:0:0:0:0:
448,192,33880,128,0,34065:0:0:0:0:
64,192,33880,128,0,34343:0:0:0:0:
320,192,34250,128,0,34343:0:0:0:0:
448,192,34250,128,0,34343:0:0:0:0:
320,192,34435,128,0,34528:0:0:0:0:
64,192,34435,128,0,34528:0:0:0:0:
320,192,34620,128,0,35269:0:0:0:0:
448,192,34620,128,0,35083:0:0:0:0:
64,192,34991,1,0,0:0:0:0:
192,192,35083,1,0,0:0:0:0:
448,192,35176,128,0,35269:0:0:0:0:
64,192,35269,1,0,0:0:0:0:
320,192,35361,128,0,35454:0:0:0:0:
64,192,35454,1,0,0:0:0:0:
192,192,35546,128,0,36194:0:0:0:0:
448,192,35546,1,0,0:0:0:0:
320,192,35639,1,0,0:0:0:0:
448,192,35731,1,0,0:0:0:0:
320,192,35917,1,0,0:0:0:0:
64,192,36009,1,0,0:0:0:0:
320,192,36102,1,0,0:0:0:0:
192,192,36287,128,0,36657:0:0:0:0:
320,192,36287,128,0,36565:0:0:0:0:
448,192,36287,128,0,36472:0:0:0:0:
64,192,36287,1,0,0:0:0:0:
448,192,36565,128,0,36750:0:0:0:0:
64,192,36657,128,0,37213:0:0:0:0:
320,192,36657,128,0,36843:0:0:0:0:
192,192,36750,128,0,36935:0:0:0:0:
320,192,37028,128,0,37583:0:0:0:0:
192,192,37398,128,0,37954:0:0:0:0:
64,192,37398,1,0,0:0:0:0:
448,192,37398,1,0,0:0:0:0:
64,192,37769,128,0,37954:0:0:0:0:
448,192,37769,128,0,38324:0:0:0:0:
320,192,38139,128,0,38694:0:0:0:0:
64,192,38324,128,0,38509:0:0:0:0:
192,192,38417,128,0,38602:0:0:0:0:
448,192,38509,128,0,39065:0:0:0:0:
192,192,38880,128,0,39620:0:0:0:0:
64,192,38880,1,0,0:0:0:0:
320,192,38880,1,0,0:0:0:0:
64,192,39250,1,0,0:0:0:0:
320,192,39250,128,0,39620:0:0:0:0:
448,192,39250,1,0,0:0:0:0:
192,192,39806,128,0,39898:0:0:0:0:
64,192,39806,128,0,39898:0:0:0:0:
192,192,39991,128,0,40361:0:0:0:0:
448,192,39991,128,0,40361:0:0:0:0:
64,192,40361,1,0,0:0:0:0:
320,192,40361,128,0,40546:0:0:0:0:
192,192,40546,128,0,40824:0:0:0:0:
448,192,40546,128,0,40824:0:0:0:0:
64,192,40731,128,0,40824:0:0:0:0:
320,192,40731,128,0,40824:0:0:0:0:
448,192,40917,1,0,0:0:0:0:
192,192,40917,1,0,0:0:0:0:
320,192,41009,1,0,0:0:0:0:
192,192,41102,1,0,0:0:0:0:
64,192,41102,1,0,0:0:0:0:
320,192,41194,1,0,0:0:0:0:
192,192,41287,128,0,41565:0:0:0:0:
64,192,41287,128,0,41565:0:0:0:0:
448,192,41287,128,0,41935:0:0:0:0:
192,192,41657,128,0,41750:0:0:0:0:
64,192,41657,128,0,41750:0:0:0:0:
192,192,41843,128,0,41935:0:0:0:0:
320,192,41843,128,0,41935:0:0:0:0:
64,192,42028,128,0,42676:0:0:0:0:
320,192,42028,128,0,42306:0:0:0:0:
448,192,42028,128,0,42306:0:0:0:0:
320,192,42398,128,0,42491:0:0:0:0:
448,192,42398,128,0,42491:0:0:0:0:
192,192,42583,128,0,42676:0:0:0:0:
320,192,42583,128,0,42676:0:0:0:0:
64,192,42769,128,0,42861:0:0:0:0:
448,192,42769,128,0,43231:0:0:0:0:
192,192,42769,128,0,42861:0:0:0:0:
192,192,43139,128,0,43231:0:0:0:0:
320,192,43139,128,0,43231:0:0:0:0:
192,192,43324,1,0,0:0:0:0:
64,192,43324,1,0,0:0:0:0:
64,192,43509,128,0,44435:0:0:0:0:
320,192,43509,128,0,43602:0:0:0:0:
448,192,43509,128,0,43602:0:0:0:0:
448,192,43880,128,0,43972:0:0:0:0:
192,192,43880,128,0,43972:0:0:0:0:
320,192,44065,128,0,44157:0:0:0:0:
192,192,44065,128,0,44528:0:0:0:0:
320,192,44250,128,0,44620:0:0:0:0:
448,192,44250,128,0,44713:0:0:0:0:
192,192,44620,128,0,44898:0:0:0:0:
320,192,44806,128,0,45083:0:0:0:0:
448,192,44806,1,0,0:0:0:0:
64,192,44806,1,0,0:0:0:0:
448,192,44991,128,0,45639:0:0:0:0:
64,192,45176,128,0,45269:0:0:0:0:
192,192,45176,128,0,45269:0:0:0:0:
320,192,45176,128,0,45269:0:0:0:0:
192,192,45361,1,0,0:0:0:0:
64,192,45546,128,0,46009:0:0:0:0:
192,192,45546,128,0,45639:0:0:0:0:
320,192,45546,128,0,45639:0:0:0:0:
320,192,45731,1,0,0:0:0:0:
448,192,45917,128,0,46380:0:0:0:0:
320,192,45917,128,0,46009:0:0:0:0:
192,192,45917,128,0,46009:0:0:0:0:
192,192,46102,1,0,0:0:0:0:
192,192,46287,128,0,46380:0:0:0:0:
64,192,46287,128,0,46380:0:0:0:0:
320,192,46287,128,0,46380:0:0:0:0:
192,192,46472,128,0,46750:0:0:0:0:
320,192,46472,128,0,46750:0:0:0:0:
64,192,46472,128,0,46565:0:0:0:0:
448,192,46472,128,0,46565:0:0:0:0:
192,192,46843,128,0,46935:0:0:0:0:
64,192,46843,128,0,46935:0:0:0:0:
320,192,46843,128,0,46935:0:0:0:0:
448,192,46843,128,0,46935:0:0:0:0:
448,192,47028,128,0,47120:0:0:0:0:
320,192,47028,128,0,47120:0:0:0:0:
192,192,47028,128,0,47120:0:0:0:0:
64,192,47028,128,0,47120:0:0:0:0:
64,192,47398,128,0,47861:0:0:0:0:
192,192,47583,128,0,47861:0:0:0:0:
320,192,47769,128,0,47861:0:0:0:0:
448,192,47954,128,0,48231:0:0:0:0:
64,192,47954,128,0,48602:0:0:0:0:
320,192,47954,128,0,48417:0:0:0:0:
448,192,48324,128,0,48417:0:0:0:0:
320,192,48509,128,0,48602:0:0:0:0:
192,192,48509,1,0,0:0:0:0:
64,192,48694,128,0,48787:0:0:0:0:
192,192,48694,128,0,48787:0:0:0:0:
448,192,48880,128,0,48972:0:0:0:0:
192,192,48880,128,0,48972:0:0:0:0:
320,192,49065,1,0,0:0:0:0:
64,192,49250,128,0,49343:0:0:0:0:
320,192,49250,128,0,49898:0:0:0:0:
192,192,49435,128,0,50083:0:0:0:0:
448,192,49435,128,0,49713:0:0:0:0:
448,192,49806,128,0,49898:0:0:0:0:
320,192,49991,128,0,50083:0:0:0:0:
64,192,49991,1,0,0:0:0:0:
192,192,50176,128,0,50269:0:0:0:0:
64,192,50176,128,0,50269:0:0:0:0:
448,192,50361,128,0,50454:0:0:0:0:
192,192,50361,128,0,50639:0:0:0:0:
64,192,50546,128,0,50639:0:0:0:0:
320,192,50546,128,0,50639:0:0:0:0:
192,192,50731,1,0,0:0:0:0:
64,192,50731,1,0,0:0:0:0:
320,192,50731,1,0,0:0:0:0:
320,192,50917,128,0,51194:0:0:0:0:
192,192,50917,128,0,51009:0:0:0:0:
448,192,50917,128,0,51009:0:0:0:0:
192,192,51287,1,0,0:0:0:0:
448,192,51287,1,0,0:0:0:0:
320,192,51472,128,0,51750:0:0:0:0:
64,192,51472,128,0,51750:0:0:0:0:
192,192,51472,128,0,51565:0:0:0:0:
192,192,51657,128,0,51750:0:0:0:0:
192,192,51843,128,0,52120:0:0:0:0:
320,192,51843,128,0,51935:0:0:0:0:
448,192,51843,128,0,52120:0:0:0:0:
320,192,52028,128,0,52120:0:0:0:0:
64,192,52213,128,0,52491:0:0:0:0:
192,192,52213,128,0,52306:0:0:0:0:
448,192,52213,128,0,52306:0:0:0:0:
192,192,52398,128,0,52491:0:0:0:0:
320,192,52398,128,0,52491:0:0:0:0:
64,192,52583,1,0,0:0:0:0:
448,192,52583,128,0,52861:0:0:0:0:
192,192,52583,1,0,0:0:0:0:
192,192,52769,128,0,53046:0:0:0:0:
64,192,52769,128,0,52861:0:0:0:0:
320,192,52954,128,0,53046:0:0:0:0:
448,192,52954,128,0,53046:0:0:0:0:
64,192,53139,128,0,53602:0:0:0:0:
192,192,53139,128,0,53231:0:0:0:0:
320,192,53139,128,0,53231:0:0:0:0:
320,192,53509,128,0,53602:0:0:0:0:
448,192,53509,128,0,53602:0:0:0:0:
320,192,53694,128,0,53787:0:0:0:0:
192,192,53694,128,0,53787:0:0:0:0:
64,192,53694,128,0,53787:0:0:0:0:
320,192,53880,128,0,53972:0:0:0:0:
448,192,53880,128,0,53972:0:0:0:0:
192,192,54065,128,0,54991:0:0:0:0:
64,192,54065,1,0,0:0:0:0:
448,192,54065,1,0,0:0:0:0:
320,192,54250,1,0,0:0:0:0:
320,192,54435,128,0,54620:0:0:0:0:
448,192,54435,128,0,54620:0:0:0:0:
64,192,54620,128,0,54991:0:0:0:0:
320,192,54806,1,0,0:0:0:0:
320,192,54991,1,0,0:0:0:0:
448,192,55176,1,0,0:0:0:0:
192,192,55176,128,0,55269:0:0:0:0:
64,192,55176,128,0,55269:0:0:0:0:
192,192,55361,128,0,55454:0:0:0:0:
320,192,55361,128,0,55454:0:0:0:0:
192,192,55546,128,0,56472:0:0:0:0:
64,192,55546,1,0,0:0:0:0:
320,192,55731,1,0,0:0:0:0:
320,192,55917,128,0,56102:0:0:0:0:
448,192,55917,128,0,56102:0:0:0:0:
64,192,56102,128,0,56472:0:0:0:0:
320,192,56287,1,0,0:0:0:0:
320,192,56472,1,0,0:0:0:0:
448,192,56657,1,0,0:0:0:0:
192,192,56657,1,0,0:0:0:0:
64,192,56657,1,0,0:0:0:0:
320,192,56843,128,0,56935:0:0:0:0:
192,192,56935,128,0,57028:0:0:0:0:
320,192,57028,128,0,57120:0:0:0:0:
64,192,57028,128,0,57306:0:0:0:0:
448,192,57028,128,0,57306:0:0:0:0:
192,192,57213,128,0,57306:0:0:0:0:
64,192,57398,128,0,57676:0:0:0:0:
320,192,57398,128,0,57676:0:0:0:0:
448,192,57398,128,0,57491:0:0:0:0:
192,192,57583,128,0,57676:0:0:0:0:
192,192,57769,128,0,57861:0:0:0:0:
64,192,57769,128,0,58046:0:0:0:0:
448,192,57769,128,0,57861:0:0:0:0:
320,192,57954,128,0,58046:0:0:0:0:
448,192,57954,128,0,58046:0:0:0:0:
192,192,58139,1,0,0:0:0:0:
64,192,58139,1,0,0:0:0:0:
448,192,58139,1,0,0:0:0:0:
320,192,58324,128,0,58602:0:0:0:0:
192,192,58509,128,0,58602:0:0:0:0:
64,192,58509,128,0,58602:0:0:0:0:
448,192,58509,128,0,58602:0:0:0:0:
192,192,58694,1,0,0:0:0:0:
64,192,58694,1,0,0:0:0:0:
448,192,58787,1,0,0:0:0:0:
192,192,58880,1,0,0:0:0:0:
64,192,58880,1,0,0:0:0:0:
320,192,58972,1,0,0:0:0:0:
192,192,59065,1,0,0:0:0:0:
64,192,59065,1,0,0:0:0:0:
448,192,59065,128,0,59713:0:0:0:0:
320,192,59250,128,0,59713:0:0:0:0:
192,192,59435,128,0,59713:0:0:0:0:
64,192,59620,128,0,59713:0:0:0:0:
64,192,59806,128,0,60454:0:0:0:0:
448,192,59806,128,0,60083:0:0:0:0:
192,192,59806,128,0,60269:0:0:0:0:
448,192,60176,128,0,60269:0:0:0:0:
192,192,60361,128,0,60454:0:0:0:0:
448,192,60361,1,0,0:0:0:0:
64,192,60546,128,0,60639:0:0:0:0:
320,192,60546,128,0,60639:0:0:0:0:
320,192,60731,128,0,60824:0:0:0:0:
448,192,60731,128,0,60824:0:0:0:0:
192,192,60917,1,0,0:0:0:0:
448,192,61102,128,0,61194:0:0:0:0:
192,192,61102,128,0,61750:0:0:0:0:
64,192,61287,128,0,61935:0:0:0:0:
320,192,61287,128,0,61565:0:0:0:0:
320,192,61657,128,0,61750:0:0:0:0:
192,192,61843,128,0,61935:0:0:0:0:
448,192,61843,1,0,0:0:0:0:
320,192,62028,128,0,62120:0:0:0:0:
64,192,62028,128,0,62120:0:0:0:0:
448,192,62213,128,0,62306:0:0:0:0:
320,192,62213,128,0,62491:0:0:0:0:
64,192,62398,128,0,62491:0:0:0:0:
192,192,62398,128,0,62491:0:0:0:0:
320,192,62583,1,0,0:0:0:0:
64,192,62583,1,0,0:0:0:0:
192,192,62583,1,0,0:0:0:0:
320,192,62769,128,0,62861:0:0:0:0:
448,192,62769,128,0,62861:0:0:0:0:
192,192,62769,128,0,63046:0:0:0:0:
448,192,63139,1,0,0:0:0:0:
192,192,63139,1,0,0:0:0:0:
64,192,63324,128,0,63417:0:0:0:0:
320,192,63324,128,0,63602:0:0:0:0:
192,192,63324,128,0,63602:0:0:0:0:
64,192,63509,128,0,63602:0:0:0:0:
320,192,63694,128,0,63972:0:0:0:0:
448,192,63694,128,0,63787:0:0:0:0:
192,192,63694,128,0,63972:0:0:0:0:
448,192,63880,128,0,63972:0:0:0:0:
320,192,64065,128,0,64157:0:0:0:0:
192,192,64065,128,0,64343:0:0:0:0:
64,192,64065,128,0,64157:0:0:0:0:
320,192,64250,128,0,64343:0:0:0:0:
448,192,64250,128,0,64343:0:0:0:0:
64,192,64435,1,0,0:0:0:0:
192,192,64435,1,0,0:0:0:0:
320,192,64435,128,0,64713:0:0:0:0:
64,192,64620,128,0,64898:0:0:0:0:
192,192,64620,128,0,64713:0:0:0:0:
320,192,64806,128,0,64898:0:0:0:0:
448,192,64806,128,0,64898:0:0:0:0:
192,192,64991,128,0,65269:0:0:0:0:
64,192,64991,128,0,65269:0:0:0:0:
448,192,64991,128,0,65546:0:0:0:0:
192,192,65361,1,0,0:0:0:0:
320,192,65454,1,0,0:0:0:0:
192,192,65546,128,0,65639:0:0:0:0:
64,192,65546,128,0,65639:0:0:0:0:
192,192,65731,128,0,65824:0:0:0:0:
320,192,65731,128,0,65824:0:0:0:0:
320,192,65917,128,0,66843:0:0:0:0:
448,192,65917,1,0,0:0:0:0:
64,192,65917,1,0,0:0:0:0:
192,192,66102,1,0,0:0:0:0:
64,192,66287,128,0,66472:0:0:0:0:
192,192,66287,128,0,66472:0:0:0:0:
448,192,66472,128,0,66843:0:0:0:0:
192,192,66657,1,0,0:0:0:0:
192,192,66843,128,0,66935:0:0:0:0:
64,192,66843,128,0,66935:0:0:0:0:
320,192,67028,128,0,67120:0:0:0:0:
448,192,67028,128,0,67120:0:0:0:0:
64,192,67028,1,0,0:0:0:0:
192,192,67213,128,0,67306:0:0:0:0:
320,192,67213,128,0,67306:0:0:0:0:
448,192,67398,1,0,0:0:0:0:
320,192,67398,128,0,68324:0:0:0:0:
192,192,67583,1,0,0:0:0:0:
192,192,67769,128,0,67954:0:0:0:0:
64,192,67769,128,0,67954:0:0:0:0:
448,192,67954,128,0,68324:0:0:0:0:
192,192,68139,1,0,0:0:0:0:
192,192,68324,1,0,0:0:0:0:
320,192,68509,1,0,0:0:0:0:
448,192,68509,1,0,0:0:0:0:
64,192,68509,1,0,0:0:0:0:
320,192,68694,128,0,68787:0:0:0:0:
192,192,68787,128,0,68880:0:0:0:0:
448,192,68880,128,0,68972:0:0:0:0:
64,192,68880,128,0,69157:0:0:0:0:
320,192,68880,128,0,69157:0:0:0:0:
192,192,69065,128,0,69157:0:0:0:0:
64,192,69250,128,0,69343:0:0:0:0:
448,192,69250,128,0,69528:0:0:0:0:
192,192,69250,128,0,69528:0:0:0:0:
320,192,69435,128,0,69528:0:0:0:0:
64,192,69620,128,0,69713:0:0:0:0:
448,192,69620,128,0,69898:0:0:0:0:
320,192,69620,128,0,69713:0:0:0:0:
192,192,69806,128,0,69898:0:0:0:0:
64,192,69806,128,0,69898:0:0:0:0:
64,192,69991,128,0,70269:0:0:0:0:
192,192,69991,128,0,70083:0:0:0:0:
448,192,69991,128,0,70083:0:0:0:0:
448,192,70176,128,0,70269:0:0:0:0:
320,192,70176,128,0,70269:0:0:0:0:
320,192,70361,1,0,0:0:0:0:
64,192,70361,1,0,0:0:0:0:
448,192,70361,1,0,0:0:0:0:
192,192,70361,1,0,0:0:0:0:
64,192,70546,1,0,0:0:0:0:
192,192,70546,1,0,0:0:0:0:
320,192,70546,1,0,0:0:0:0:
448,192,70546,1,0,0:0:0:0:
320,192,70731,1,0,0:0:0:0:
448,192,70731,1,0,0:0:0:0:
192,192,70731,1,0,0:0:0:0:
64,192,70731,1,0,0:0:0:0:
64,192,70917,128,0,71194:0:0:0:0:
192,192,71102,128,0,71380:0:0:0:0:
320,192,71287,128,0,71565:0:0:0:0:
192,192,71472,128,0,71750:0:0:0:0:
64,192,71472,128,0,71750:0:0:0:0:
320,192,71657,128,0,71750:0:0:0:0:
448,192,71657,128,0,71750:0:0:0:0:
192,192,71843,1,0,0:0:0:0:
64,192,71843,1,0,0:0:0:0:
448,192,71843,1,0,0:0:0:0:
320,192,71843,128,0,72213:0:0:0:0:
64,192,72028,1,0,0:0:0:0:
192,192,72213,128,0,72491:0:0:0:0:
448,192,72398,128,0,72491:0:0:0:0:
320,192,72398,128,0,72491:0:0:0:0:
192,192,72583,1,0,0:0:0:0:
64,192,72583,1,0,0:0:0:0:
448,192,72583,1,0,0:0:0:0:
64,192,72769,128,0,72861:0:0:0:0:
192,192,72769,128,0,72861:0:0:0:0:
320,192,72769,128,0,73046:0:0:0:0:
64,192,72954,128,0,73046:0:0:0:0:
448,192,72954,128,0,73046:0:0:0:0:
320,192,73139,128,0,73231:0:0:0:0:
448,192,73139,128,0,73231:0:0:0:0:
192,192,73139,128,0,74065:0:0:0:0:
448,192,73509,1,0,0:0:0:0:
320,192,73509,1,0,0:0:0:0:
320,192,73694,1,0,0:0:0:0:
448,192,73694,1,0,0:0:0:0:
64,192,73787,1,0,0:0:0:0:
448,192,73880,1,0,0:0:0:0:
320,192,73972,1,0,0:0:0:0:
448,192,74065,1,0,0:0:0:0:
64,192,74065,1,0,0:0:0:0:
192,192,74157,1,0,0:0:0:0:
320,192,74250,1,0,0:0:0:0:
192,192,74343,1,0,0:0:0:0:
64,192,74435,128,0,74713:0:0:0:0:
320,192,74435,1,0,0:0:0:0:
448,192,74435,1,0,0:0:0:0:
192,192,74620,128,0,74898:0:0:0:0:
448,192,74806,1,0,0:0:0:0:
64,192,74806,1,0,0:0:0:0:
320,192,74806,128,0,75176:0:0:0:0:
192,192,74991,1,0,0:0:0:0:
192,192,75176,128,0,75269:0:0:0:0:
448,192,75176,1,0,0:0:0:0:
64,192,75176,128,0,75269:0:0:0:0:
64,192,75361,128,0,75454:0:0:0:0:
192,192,75361,128,0,75454:0:0:0:0:
320,192,75546,1,0,0:0:0:0:
448,192,75731,128,0,75824:0:0:0:0:
320,192,75731,128,0,75824:0:0:0:0:
192,192,75917,1,0,0:0:0:0:
448,192,75917,1,0,0:0:0:0:
64,192,75917,1,0,0:0:0:0:
192,192,76102,128,0,76380:0:0:0:0:
448,192,76102,128,0,76380:0:0:0:0:
192,192,76472,128,0,76565:0:0:0:0:
448,192,76472,128,0,76565:0:0:0:0:
64,192,76657,1,0,0:0:0:0:
192,192,76657,1,0,0:0:0:0:
320,192,76657,128,0,76750:0:0:0:0:
448,192,76843,128,0,77398:0:0:0:0:
192,192,76843,128,0,76935:0:0:0:0:
64,192,77028,1,0,0:0:0:0:
192,192,77213,1,0,0:0:0:0:
64,192,77398,1,0,0:0:0:0:
320,192,77398,128,0,77676:0:0:0:0:
192,192,77398,1,0,0:0:0:0:
192,192,77583,128,0,77861:0:0:0:0:
448,192,77769,128,0,78139:0:0:0:0:
64,192,77769,128,0,78046:0:0:0:0:
320,192,77954,1,0,0:0:0:0:
320,192,78139,1,0,0:0:0:0:
64,192,78139,128,0,78231:0:0:0:0:
192,192,78139,128,0,78231:0:0:0:0:
192,192,78324,128,0,78417:0:0:0:0:
448,192,78324,128,0,78417:0:0:0:0:
320,192,78509,1,0,0:0:0:0:
320,192,78694,128,0,78787:0:0:0:0:
64,192,78694,128,0,78787:0:0:0:0:
320,192,78880,1,0,0:0:0:0:
448,192,78880,1,0,0:0:0:0:
64,192,78880,1,0,0:0:0:0:
64,192,79065,128,0,79806:0:0:0:0:
448,192,79065,1,0,0:0:0:0:
192,192,79065,128,0,79806:0:0:0:0:
448,192,79435,1,0,0:0:0:0:
320,192,79620,1,0,0:0:0:0:
448,192,79620,1,0,0:0:0:0:
448,192,79806,1,0,0:0:0:0:
320,192,79991,128,0,80083:0:0:0:0:
64,192,79991,128,0,80269:0:0:0:0:
448,192,80176,128,0,80269:0:0:0:0:
320,192,80176,128,0,80269:0:0:0:0:
192,192,80269,1,0,0:0:0:0:
448,192,80361,128,0,80639:0:0:0:0:
64,192,80361,128,0,80454:0:0:0:0:
320,192,80454,1,0,0:0:0:0:
192,192,80546,128,0,80639:0:0:0:0:
64,192,80546,128,0,80639:0:0:0:0:
64,192,80731,1,0,0:0:0:0:
320,192,80731,128,0,81009:0:0:0:0:
448,192,80731,128,0,80824:0:0:0:0:
192,192,80917,128,0,81194:0:0:0:0:
64,192,80917,128,0,81009:0:0:0:0:
320,192,81102,128,0,81194:0:0:0:0:
448,192,81102,128,0,81194:0:0:0:0:
64,192,81287,128,0,81565:0:0:0:0:
320,192,81287,128,0,81565:0:0:0:0:
192,192,81287,128,0,81935:0:0:0:0:
64,192,81657,128,0,81935:0:0:0:0:
320,192,81657,1,0,0:0:0:0:
320,192,81843,128,0,81935:0:0:0:0:
448,192,81843,1,0,0:0:0:0:
448,192,82028,128,0,82306:0:0:0:0:
320,192,82028,128,0,82306:0:0:0:0:
192,192,82028,128,0,82398:0:0:0:0:
320,192,82398,1,0,0:0:0:0:
448,192,82398,1,0,0:0:0:0:
192,192,82491,1,0,0:0:0:0:
448,192,82583,1,0,0:0:0:0:
64,192,82583,128,0,82861:0:0:0:0:
320,192,82583,128,0,82676:0:0:0:0:
448,192,82769,128,0,82861:0:0:0:0:
192,192,82769,128,0,82861:0:0:0:0:
320,192,82954,128,0,83046:0:0:0:0:
448,192,82954,128,0,83046:0:0:0:0:
64,192,82954,128,0,83046:0:0:0:0:
448,192,83139,128,0,83231:0:0:0:0:
64,192,83139,128,0,83231:0:0:0:0:
320,192,83139,128,0,83231:0:0:0:0:
448,192,83694,128,0,84620:0:0:0:0:
320,192,83694,1,0,0:0:0:0:
64,192,83694,1,0,0:0:0:0:
64,192,84065,1,0,0:0:0:0:
192,192,84250,1,0,0:0:0:0:
64,192,84435,1,0,0:0:0:0:
320,192,84620,128,0,84806:0:0:0:0:
64,192,84806,1,0,0:0:0:0:
192,192,84806,128,0,84991:0:0:0:0:
448,192,84991,128,0,85361:0:0:0:0:
64,192,85176,1,0,0:0:0:0:
320,192,85361,1,0,0:0:0:0:
64,192,85546,1,0,0:0:0:0:
192,192,85546,128,0,85917:0:0:0:0:
448,192,85731,1,0,0:0:0:0:
320,192,85917,128,0,86472:0:0:0:0:
64,192,85917,1,0,0:0:0:0:
64,192,86102,1,0,0:0:0:0:
448,192,86102,1,0,0:0:0:0:
192,192,86194,128,0,86657:0:0:0:0:
448,192,86287,1,0,0:0:0:0:
64,192,86472,128,0,86657:0:0:0:0:
448,192,86657,128,0,87213:0:0:0:0:
320,192,86657,1,0,0:0:0:0:
64,192,86843,1,0,0:0:0:0:
320,192,87028,1,0,0:0:0:0:
192,192,87213,128,0,87398:0:0:0:0:
64,192,87398,1,0,0:0:0:0:
320,192,87398,128,0,88139:0:0:0:0:
448,192,87583,1,0,0:0:0:0:
64,192,87769,1,0,0:0:0:0:
192,192,87769,1,0,0:0:0:0:
448,192,87954,1,0,0:0:0:0:
192,192,88139,1,0,0:0:0:0:
320,192,88324,1,0,0:0:0:0:
192,192,88509,1,0,0:0:0:0:
320,192,88694,1,0,0:0:0:0:
448,192,88694,1,0,0:0:0:0:
192,192,88880,128,0,89065:0:0:0:0:
64,192,88880,1,0,0:0:0:0:
320,192,89065,128,0,89250:0:0:0:0:
64,192,89250,1,0,0:0:0:0:
448,192,89250,128,0,89620:0:0:0:0:
192,192,89435,1,0,0:0:0:0:
64,192,89620,1,0,0:0:0:0:
320,192,89620,128,0,89806:0:0:0:0:
192,192,89620,1,0,0:0:0:0:
64,192,89991,1,0,0:0:0:0:
192,192,89991,128,0,90176:0:0:0:0:
448,192,90176,128,0,90361:0:0:0:0:
320,192,90361,1,0,0:0:0:0:
192,192,90546,128,0,90731:0:0:0:0:
320,192,90731,1,0,0:0:0:0:
448,192,90731,1,0,0:0:0:0:
64,192,90917,128,0,91287:0:0:0:0:
448,192,91102,1,0,0:0:0:0:
320,192,91287,1,0,0:0:0:0:
448,192,91472,1,0,0:0:0:0:
64,192,91657,1,0,0:0:0:0:
192,192,91843,128,0,92028:0:0:0:0:
320,192,91843,1,0,0:0:0:0:
64,192,92028,128,0,92213:0:0:0:0:
192,192,92213,128,0,92398:0:0:0:0:
320,192,92213,1,0,0:0:0:0:
448,192,92398,1,0,0:0:0:0:
320,192,92583,128,0,92769:0:0:0:0:
64,192,92583,1,0,0:0:0:0:
64,192,92769,1,0,0:0:0:0:
448,192,92954,128,0,93231:0:0:0:0:
192,192,92954,1,0,0:0:0:0:
320,192,93139,128,0,93231:0:0:0:0:
64,192,93139,1,0,0:0:0:0:
320,192,93324,1,0,0:0:0:0:
192,192,93509,128,0,93694:0:0:0:0:
64,192,93509,1,0,0:0:0:0:
320,192,93694,1,0,0:0:0:0:
448,192,93694,1,0,0:0:0:0:
192,192,93880,1,0,0:0:0:0:
64,192,93880,128,0,94343:0:0:0:0:
320,192,94065,128,0,94157:0:0:0:0:
448,192,94065,128,0,94157:0:0:0:0:
192,192,94250,128,0,94343:0:0:0:0:
448,192,94250,128,0,94343:0:0:0:0:
192,192,94435,1,0,0:0:0:0:
64,192,94435,1,0,0:0:0:0:
320,192,94435,1,0,0:0:0:0:
192,192,94620,128,0,95176:0:0:0:0:
64,192,94620,128,0,95176:0:0:0:0:
448,192,94620,128,0,94713:0:0:0:0:
320,192,94991,1,0,0:0:0:0:
448,192,94991,1,0,0:0:0:0:
448,192,95176,1,0,0:0:0:0:
320,192,95176,1,0,0:0:0:0:
448,192,95361,1,0,0:0:0:0:
320,192,95361,1,0,0:0:0:0:
192,192,95454,1,0,0:0:0:0:
448,192,95546,1,0,0:0:0:0:
320,192,95546,1,0,0:0:0:0:
64,192,95546,128,0,95917:0:0:0:0:
192,192,95731,1,0,0:0:0:0:
320,192,95917,1,0,0:0:0:0:
448,192,95917,1,0,0:0:0:0:
192,192,96102,1,0,0:0:0:0:
64,192,96287,1,0,0:0:0:0:
320,192,96287,1,0,0:0:0:0:
192,192,96472,128,0,96657:0:0:0:0:
320,192,96657,128,0,96843:0:0:0:0:
448,192,96657,1,0,0:0:0:0:
192,192,96843,128,0,97120:0:0:0:0:
64,192,96843,128,0,97028:0:0:0:0:
320,192,96935,128,0,97120:0:0:0:0:
448,192,97028,128,0,97120:0:0:0:0:
192,192,97213,1,0,0:0:0:0:
64,192,97398,128,0,97491:0:0:0:0:
320,192,97398,128,0,97676:0:0:0:0:
448,192,97398,128,0,97491:0:0:0:0:
192,192,97583,128,0,97676:0:0:0:0:
448,192,97769,128,0,98324:0:0:0:0:
192,192,97769,128,0,97861:0:0:0:0:
64,192,97769,128,0,97861:0:0:0:0:
192,192,97954,1,0,0:0:0:0:
320,192,98046,128,0,98602:0:0:0:0:
64,192,98139,128,0,98231:0:0:0:0:
192,192,98139,1,0,0:0:0:0:
192,192,98324,128,0,98509:0:0:0:0:
448,192,98417,128,0,99157:0:0:0:0:
64,192,98509,1,0,0:0:0:0:
192,192,98694,1,0,0:0:0:0:
64,192,98880,1,0,0:0:0:0:
320,192,98880,1,0,0:0:0:0:
64,192,99065,128,0,99528:0:0:0:0:
192,192,99250,128,0,99991:0:0:0:0:
448,192,99250,1,0,0:0:0:0:
320,192,99435,1,0,0:0:0:0:
448,192,99620,1,0,0:0:0:0:
320,192,99620,1,0,0:0:0:0:
64,192,99806,1,0,0:0:0:0:
448,192,99991,1,0,0:0:0:0:
320,192,99991,1,0,0:0:0:0:
320,192,100176,1,0,0:0:0:0:
192,192,100361,1,0,0:0:0:0:
64,192,100361,1,0,0:0:0:0:
192,192,100546,1,0,0:0:0:0:
448,192,100546,1,0,0:0:0:0:
64,192,100731,128,0,101009:0:0:0:0:
320,192,100731,128,0,100824:0:0:0:0:
320,192,100917,128,0,101009:0:0:0:0:
192,192,100917,128,0,101009:0:0:0:0:
448,192,101102,128,0,101194:0:0:0:0:
320,192,101102,128,0,101194:0:0:0:0:
64,192,101102,1,0,0:0:0:0:
192,192,101287,1,0,0:0:0:0:
448,192,101472,1,0,0:0:0:0:
192,192,101472,128,0,101750:0:0:0:0:
64,192,101472,128,0,101565:0:0:0:0:
320,192,101657,1,0,0:0:0:0:
192,192,101843,128,0,102028:0:0:0:0:
64,192,101843,1,0,0:0:0:0:
448,192,101843,1,0,0:0:0:0:
64,192,102028,128,0,102861:0:0:0:0:
448,192,102028,1,0,0:0:0:0:
320,192,102028,128,0,102398:0:0:0:0:
192,192,102398,128,0,102861:0:0:0:0:
320,192,102583,1,0,0:0:0:0:
448,192,102769,128,0,102861:0:0:0:0:
320,192,102954,1,0,0:0:0:0:
64,192,102954,128,0,103139:0:0:0:0:
448,192,102954,1,0,0:0:0:0:
320,192,103139,128,0,103417:0:0:0:0:
64,192,103324,128,0,103417:0:0:0:0:
192,192,103324,128,0,103417:0:0:0:0:
192,192,103509,128,0,104065:0:0:0:0:
320,192,103509,128,0,103880:0:0:0:0:
448,192,103509,128,0,103694:0:0:0:0:
448,192,103880,1,0,0:0:0:0:
320,192,104065,1,0,0:0:0:0:
64,192,104065,1,0,0:0:0:0:
64,192,104250,128,0,104343:0:0:0:0:
320,192,104250,128,0,104343:0:0:0:0:
192,192,104343,128,0,104435:0:0:0:0:
320,192,104435,128,0,104528:0:0:0:0:
448,192,104435,128,0,104528:0:0:0:0:
192,192,104620,128,0,104713:0:0:0:0:
448,192,104620,128,0,105083:0:0:0:0:
64,192,104806,128,0,104898:0:0:0:0:
320,192,104806,128,0,105176:0:0:0:0:
64,192,104991,128,0,105361:0:0:0:0:
192,192,104991,128,0,105269:0:0:0:0:
320,192,105361,128,0,105454:0:0:0:0:
448,192,105361,128,0,105454:0:0:0:0:
192,192,105361,128,0,105454:0:0:0:0:
320,192,105546,128,0,105639:0:0:0:0:
64,192,105546,128,0,105639:0:0:0:0:
448,192,105731,128,0,106380:0:0:0:0:
320,192,105731,128,0,106194:0:0:0:0:
192,192,105731,128,0,106009:0:0:0:0:
192,192,106102,1,0,0:0:0:0:
64,192,106194,1,0,0:0:0:0:
320,192,106287,128,0,106380:0:0:0:0:
64,192,106380,1,0,0:0:0:0:
192,192,106472,128,0,106565:0:0:0:0:
448,192,106565,1,0,0:0:0:0:
64,192,106657,128,0,107306:0:0:0:0:
320,192,106657,1,0,0:0:0:0:
192,192,106750,1,0,0:0:0:0:
320,192,106843,1,0,0:0:0:0:
448,192,107028,1,0,0:0:0:0:
320,192,107120,1,0,0:0:0:0:
448,192,107213,1,0,0:0:0:0:
320,192,107398,128,0,107583:0:0:0:0:
192,192,107398,128,0,107676:0:0:0:0:
64,192,107398,128,0,107769:0:0:0:0:
448,192,107398,1,0,0:0:0:0:
320,192,107676,128,0,107861:0:0:0:0:
192,192,107769,128,0,107954:0:0:0:0:
448,192,107769,128,0,108324:0:0:0:0:
64,192,107861,128,0,108046:0:0:0:0:
320,192,108139,128,0,108694:0:0:0:0:
192,192,108509,128,0,109435:0:0:0:0:
64,192,108509,1,0,0:0:0:0:
448,192,108880,128,0,109065:0:0:0:0:
320,192,108880,128,0,109250:0:0:0:0:
64,192,109250,128,0,109806:0:0:0:0:
448,192,109435,128,0,109620:0:0:0:0:
320,192,109528,128,0,109713:0:0:0:0:
192,192,109620,128,0,110176:0:0:0:0:
448,192,109991,1,0,0:0:0:0:
320,192,109991,128,0,110731:0:0:0:0:
448,192,110361,1,0,0:0:0:0:
192,192,110361,128,0,110731:0:0:0:0:
64,192,110361,1,0,0:0:0:0:
64,192,110917,128,0,111009:0:0:0:0:
192,192,110917,128,0,111009:0:0:0:0:
192,192,111102,128,0,111472:0:0:0:0:
448,192,111102,128,0,111472:0:0:0:0:
320,192,111472,128,0,111657:0:0:0:0:
64,192,111472,1,0,0:0:0:0:
448,192,111657,128,0,111935:0:0:0:0:
192,192,111657,128,0,111935:0:0:0:0:
64,192,111843,128,0,111935:0:0:0:0:
320,192,111843,128,0,111935:0:0:0:0:
192,192,112028,1,0,0:0:0:0:
448,192,112028,1,0,0:0:0:0:
320,192,112120,1,0,0:0:0:0:
64,192,112213,1,0,0:0:0:0:
192,192,112213,1,0,0:0:0:0:
320,192,112306,1,0,0:0:0:0:
64,192,112398,128,0,112676:0:0:0:0:
448,192,112398,128,0,113046:0:0:0:0:
192,192,112398,128,0,112676:0:0:0:0:
192,192,112769,128,0,112861:0:0:0:0:
64,192,112769,1,0,0:0:0:0:
320,192,112954,128,0,113046:0:0:0:0:
192,192,112954,1,0,0:0:0:0:
64,192,113139,128,0,113787:0:0:0:0:
448,192,113139,128,0,113417:0:0:0:0:
320,192,113139,1,0,0:0:0:0:
320,192,113509,128,0,113602:0:0:0:0:
448,192,113509,1,0,0:0:0:0:
192,192,113694,128,0,113787:0:0:0:0:
320,192,113694,1,0,0:0:0:0:
448,192,113880,128,0,114343:0:0:0:0:
64,192,113880,128,0,113972:0:0:0:0:
192,192,113880,1,0,0:0:0:0:
192,192,114250,128,0,114343:0:0:0:0:
192,192,114435,1,0,0:0:0:0:
64,192,114435,1,0,0:0:0:0:
320,192,114620,128,0,114713:0:0:0:0:
64,192,114620,128,0,115361:0:0:0:0:
448,192,114620,128,0,114713:0:0:0:0:
192,192,114991,128,0,115083:0:0:0:0:
448,192,114991,128,0,115083:0:0:0:0:
192,192,115176,128,0,115546:0:0:0:0:
320,192,115176,128,0,115269:0:0:0:0:
320,192,115361,128,0,115731:0:0:0:0:
448,192,115361,128,0,115917:0:0:0:0:
64,192,115546,1,0,0:0:0:0:
64,192,115731,128,0,115824:0:0:0:0:
192,192,115917,128,0,116009:0:0:0:0:
320,192,115917,1,0,0:0:0:0:
64,192,115917,1,0,0:0:0:0:
320,192,116102,128,0,116750:0:0:0:0:
192,192,116287,128,0,116380:0:0:0:0:
448,192,116287,128,0,116380:0:0:0:0:
64,192,116287,128,0,116380:0:0:0:0:
64,192,116472,1,0,0:0:0:0:
192,192,116657,128,0,117120:0:0:0:0:
64,192,116657,128,0,116750:0:0:0:0:
448,192,116657,128,0,116750:0:0:0:0:
448,192,116843,1,0,0:0:0:0:
64,192,117028,128,0,117120:0:0:0:0:
320,192,117028,128,0,117491:0:0:0:0:
448,192,117028,128,0,117120:0:0:0:0:
64,192,117213,1,0,0:0:0:0:
448,192,117398,128,0,117491:0:0:0:0:
64,192,117398,128,0,117491:0:0:0:0:
192,192,117398,128,0,117491:0:0:0:0:
448,192,117583,128,0,117861:0:0:0:0:
192,192,117583,128,0,117676:0:0:0:0:
320,192,117583,128,0,117676:0:0:0:0:
64,192,117583,128,0,117861:0:0:0:0:
320,192,117954,128,0,118046:0:0:0:0:
192,192,117954,128,0,118046:0:0:0:0:
448,192,117954,128,0,118046:0:0:0:0:
64,192,117954,128,0,118046:0:0:0:0:
64,192,118139,128,0,118231:0:0:0:0:
192,192,118139,128,0,118231:0:0:0:0:
448,192,118139,128,0,118231:0:0:0:0:
320,192,118139,128,0,118231:0:0:0:0:
64,192,118509,128,0,118972:0:0:0:0:
192,192,118694,128,0,118972:0:0:0:0:
320,192,118880,128,0,118972:0:0:0:0:
320,192,119065,128,0,119528:0:0:0:0:
448,192,119065,128,0,119343:0:0:0:0:
64,192,119065,128,0,119713:0:0:0:0:
448,192,119435,128,0,119528:0:0:0:0:
192,192,119620,1,0,0:0:0:0:
320,192,119620,128,0,119713:0:0:0:0:
192,192,119806,128,0,120083:0:0:0:0:
64,192,119806,128,0,119898:0:0:0:0:
320,192,119898,128,0,120083:0:0:0:0:
448,192,119991,128,0,120083:0:0:0:0:
64,192,119991,128,0,120083:0:0:0:0:
320,192,120176,1,0,0:0:0:0:
320,192,120361,128,0,121009:0:0:0:0:
64,192,120361,128,0,120454:0:0:0:0:
192,192,120546,128,0,121194:0:0:0:0:
448,192,120546,128,0,120824:0:0:0:0:
448,192,120917,128,0,121009:0:0:0:0:
64,192,121102,1,0,0:0:0:0:
320,192,121102,128,0,121194:0:0:0:0:
192,192,121287,128,0,121380:0:0:0:0:
64,192,121287,128,0,121380:0:0:0:0:
192,192,121472,128,0,121750:0:0:0:0:
448,192,121472,128,0,121565:0:0:0:0:
64,192,121657,128,0,121750:0:0:0:0:
320,192,121657,128,0,121750:0:0:0:0:
448,192,121843,128,0,121935:0:0:0:0:
64,192,121843,128,0,121935:0:0:0:0:
320,192,122028,128,0,122306:0:0:0:0:
192,192,122028,128,0,122120:0:0:0:0:
448,192,122028,128,0,122120:0:0:0:0:
192,192,122398,1,0,0:0:0:0:
448,192,122398,1,0,0:0:0:0:
192,192,122583,128,0,122676:0:0:0:0:
320,192,122583,128,0,122861:0:0:0:0:
64,192,122583,128,0,122861:0:0:0:0:
192,192,122769,128,0,122861:0:0:0:0:
448,192,122954,128,0,123231:0:0:0:0:
192,192,122954,128,0,123231:0:0:0:0:
320,192,122954,128,0,123046:0:0:0:0:
320,192,123139,128,0,123231:0:0:0:0:
64,192,123324,128,0,123602:0:0:0:0:
192,192,123324,128,0,123417:0:0:0:0:
448,192,123324,128,0,123417:0:0:0:0:
320,192,123509,128,0,123602:0:0:0:0:
192,192,123509,128,0,123602:0:0:0:0:
192,192,123694,1,0,0:0:0:0:
448,192,123694,128,0,123972:0:0:0:0:
64,192,123694,1,0,0:0:0:0:
64,192,123880,128,0,123972:0:0:0:0:
192,192,123880,128,0,124157:0:0:0:0:
448,192,124065,128,0,124157:0:0:0:0:
320,192,124065,128,0,124157:0:0:0:0:
64,192,124250,128,0,124713:0:0:0:0:
192,192,124250,128,0,124528:0:0:0:0:
320,192,124250,128,0,124435:0:0:0:0:
448,192,124620,128,0,124713:0:0:0:0:
320,192,124620,128,0,124713:0:0:0:0:
320,192,124806,128,0,124898:0:0:0:0:
64,192,124806,128,0,124898:0:0:0:0:
192,192,124898,128,0,124991:0:0:0:0:
320,192,124991,128,0,125083:0:0:0:0:
448,192,124991,128,0,125083:0:0:0:0:
192,192,125176,128,0,126102:0:0:0:0:
448,192,125176,1,0,0:0:0:0:
64,192,125176,1,0,0:0:0:0:
320,192,125361,1,0,0:0:0:0:
320,192,125546,128,0,125731:0:0:0:0:
448,192,125546,128,0,126102:0:0:0:0:
64,192,125731,128,0,126102:0:0:0:0:
320,192,125917,1,0,0:0:0:0:
320,192,126102,1,0,0:0:0:0:
64,192,126287,128,0,126380:0:0:0:0:
192,192,126287,128,0,126380:0:0:0:0:
448,192,126287,1,0,0:0:0:0:
192,192,126472,128,0,126565:0:0:0:0:
320,192,126472,128,0,126565:0:0:0:0:
192,192,126657,128,0,127213:0:0:0:0:
64,192,126657,1,0,0:0:0:0:
320,192,126843,1,0,0:0:0:0:
320,192,127028,128,0,127213:0:0:0:0:
448,192,127028,128,0,127213:0:0:0:0:
64,192,127213,128,0,127583:0:0:0:0:
192,192,127306,128,0,127583:0:0:0:0:
320,192,127398,1,0,0:0:0:0:
448,192,127398,128,0,127583:0:0:0:0:
320,192,127583,1,0,0:0:0:0:
448,192,127769,1,0,0:0:0:0:
64,192,127769,1,0,0:0:0:0:
192,192,127769,1,0,0:0:0:0:
320,192,127954,128,0,128046:0:0:0:0:
192,192,128046,128,0,128139:0:0:0:0:
320,192,128139,128,0,128231:0:0:0:0:
64,192,128139,128,0,128417:0:0:0:0:
448,192,128139,128,0,128417:0:0:0:0:
192,192,128324,128,0,128417:0:0:0:0:
320,192,128509,128,0,128787:0:0:0:0:
448,192,128509,128,0,128602:0:0:0:0:
64,192,128509,128,0,128787:0:0:0:0:
192,192,128694,128,0,128787:0:0:0:0:
192,192,128880,128,0,128972:0:0:0:0:
448,192,128880,128,0,128972:0:0:0:0:
64,192,128880,128,0,129157:0:0:0:0:
320,192,129065,128,0,129157:0:0:0:0:
448,192,129065,128,0,129435:0:0:0:0:
192,192,129250,1,0,0:0:0:0:
64,192,129250,1,0,0:0:0:0:
320,192,129250,1,0,0:0:0:0:
64,192,129435,128,0,129713:0:0:0:0:
192,192,129620,128,0,129713:0:0:0:0:
448,192,129620,128,0,129713:0:0:0:0:
320,192,129620,128,0,129713:0:0:0:0:
64,192,129806,1,0,0:0:0:0:
192,192,129806,1,0,0:0:0:0:
448,192,129898,1,0,0:0:0:0:
192,192,129991,1,0,0:0:0:0:
64,192,129991,1,0,0:0:0:0:
320,192,130083,1,0,0:0:0:0:
448,192,130176,128,0,130824:0:0:0:0:
192,192,130176,1,0,0:0:0:0:
64,192,130176,1,0,0:0:0:0:
320,192,130361,128,0,130824:0:0:0:0:
192,192,130546,128,0,130824:0:0:0:0:
64,192,130731,128,0,130824:0:0:0:0:
448,192,130917,128,0,131194:0:0:0:0:
64,192,130917,128,0,131565:0:0:0:0:
192,192,130917,128,0,131380:0:0:0:0:
448,192,131287,128,0,131380:0:0:0:0:
448,192,131472,1,0,0:0:0:0:
192,192,131472,128,0,131565:0:0:0:0:
320,192,131657,128,0,131750:0:0:0:0:
64,192,131657,128,0,131935:0:0:0:0:
192,192,131750,128,0,131935:0:0:0:0:
320,192,131843,128,0,131935:0:0:0:0:
448,192,131843,128,0,131935:0:0:0:0:
192,192,132028,1,0,0:0:0:0:
192,192,132213,128,0,132861:0:0:0:0:
448,192,132213,128,0,132306:0:0:0:0:
320,192,132398,128,0,132676:0:0:0:0:
64,192,132398,128,0,133046:0:0:0:0:
320,192,132769,128,0,132861:0:0:0:0:
448,192,132954,1,0,0:0:0:0:
192,192,132954,128,0,133046:0:0:0:0:
64,192,133139,128,0,133231:0:0:0:0:
320,192,133139,128,0,133231:0:0:0:0:
448,192,133324,128,0,133417:0:0:0:0:
320,192,133324,128,0,133602:0:0:0:0:
192,192,133509,128,0,133602:0:0:0:0:
64,192,133509,128,0,133602:0:0:0:0:
320,192,133694,1,0,0:0:0:0:
192,192,133694,1,0,0:0:0:0:
64,192,133694,1,0,0:0:0:0:
320,192,133880,128,0,133972:0:0:0:0:
192,192,133880,128,0,134157:0:0:0:0:
448,192,133880,128,0,133972:0:0:0:0:
192,192,134250,128,0,134528:0:0:0:0:
448,192,134250,128,0,134343:0:0:0:0:
64,192,134435,128,0,134528:0:0:0:0:
320,192,134435,128,0,134528:0:0:0:0:
320,192,134620,128,0,134713:0:0:0:0:
192,192,134620,128,0,134898:0:0:0:0:
448,192,134620,128,0,134713:0:0:0:0:
320,192,134806,128,0,135083:0:0:0:0:
64,192,134806,128,0,134898:0:0:0:0:
192,192,134991,128,0,135083:0:0:0:0:
448,192,134991,128,0,135083:0:0:0:0:
192,192,135176,128,0,135454:0:0:0:0:
320,192,135176,128,0,135454:0:0:0:0:
64,192,135176,128,0,135269:0:0:0:0:
448,192,135361,128,0,135454:0:0:0:0:
320,192,135546,128,0,135824:0:0:0:0:
192,192,135546,1,0,0:0:0:0:
64,192,135546,1,0,0:0:0:0:
192,192,135731,128,0,135824:0:0:0:0:
64,192,135731,128,0,136009:0:0:0:0:
448,192,135917,128,0,136009:0:0:0:0:
320,192,135917,128,0,136009:0:0:0:0:
320,192,136102,128,0,136380:0:0:0:0:
192,192,136102,128,0,136287:0:0:0:0:
448,192,136102,128,0,136657:0:0:0:0:
192,192,136472,1,0,0:0:0:0:
320,192,136565,1,0,0:0:0:0:
64,192,136657,128,0,136750:0:0:0:0:
192,192,136657,128,0,136750:0:0:0:0:
448,192,136750,128,0,136843:0:0:0:0:
192,192,136843,128,0,136935:0:0:0:0:
320,192,136843,128,0,136935:0:0:0:0:
64,192,136935,128,0,137028:0:0:0:0:
448,192,137028,1,0,0:0:0:0:
320,192,137028,128,0,137954:0:0:0:0:
192,192,137028,1,0,0:0:0:0:
192,192,137213,1,0,0:0:0:0:
192,192,137398,128,0,137583:0:0:0:0:
64,192,137398,128,0,137769:0:0:0:0:
448,192,137583,128,0,137954:0:0:0:0:
192,192,137769,1,0,0:0:0:0:
64,192,137954,128,0,138046:0:0:0:0:
192,192,137954,128,0,138046:0:0:0:0:
448,192,138139,128,0,138231:0:0:0:0:
320,192,138139,128,0,138231:0:0:0:0:
64,192,138139,1,0,0:0:0:0:
192,192,138324,128,0,138417:0:0:0:0:
320,192,138324,128,0,138417:0:0:0:0:
320,192,138509,128,0,139065:0:0:0:0:
448,192,138509,1,0,0:0:0:0:
192,192,138694,1,0,0:0:0:0:
192,192,138880,128,0,139065:0:0:0:0:
64,192,138880,128,0,139065:0:0:0:0:
448,192,139065,128,0,139435:0:0:0:0:
320,192,139157,128,0,139435:0:0:0:0:
192,192,139250,1,0,0:0:0:0:
64,192,139250,128,0,139435:0:0:0:0:
192,192,139435,1,0,0:0:0:0:
320,192,139620,1,0,0:0:0:0:
64,192,139620,1,0,0:0:0:0:
448,192,139620,1,0,0:0:0:0:
320,192,139806,128,0,139898:0:0:0:0:
192,192,139898,128,0,139991:0:0:0:0:
320,192,139991,128,0,140269:0:0:0:0:
64,192,139991,128,0,140269:0:0:0:0:
448,192,139991,128,0,140083:0:0:0:0:
192,192,140176,128,0,140269:0:0:0:0:
448,192,140361,128,0,140639:0:0:0:0:
192,192,140361,128,0,140639:0:0:0:0:
64,192,140361,128,0,140454:0:0:0:0:
320,192,140546,128,0,140639:0:0:0:0:
448,192,140731,128,0,141009:0:0:0:0:
64,192,140731,128,0,140824:0:0:0:0:
320,192,140824,128,0,140917:0:0:0:0:
64,192,140917,128,0,141009:0:0:0:0:
192,192,141009,128,0,141102:0:0:0:0:
64,192,141102,128,0,141380:0:0:0:0:
448,192,141102,128,0,141194:0:0:0:0:
320,192,141194,128,0,141287:0:0:0:0:
448,192,141287,128,0,141380:0:0:0:0:
192,192,141472,1,0,0:0:0:0:
448,192,141472,1,0,0:0:0:0:
320,192,141472,1,0,0:0:0:0:
64,192,141472,1,0,0:0:0:0:
64,192,141657,1,0,0:0:0:0:
320,192,141657,1,0,0:0:0:0:
192,192,141657,1,0,0:0:0:0:
448,192,141657,1,0,0:0:0:0:
320,192,141843,1,0,0:0:0:0:
448,192,141843,1,0,0:0:0:0:
64,192,141843,1,0,0:0:0:0:
192,192,141843,1,0,0:0:0:0:
64,192,142028,128,0,142306:0:0:0:0:
192,192,142213,128,0,142491:0:0:0:0:
320,192,142398,128,0,142676:0:0:0:0:
64,192,142583,128,0,142861:0:0:0:0:
192,192,142583,128,0,142861:0:0:0:0:
448,192,142769,128,0,142861:0:0:0:0:
320,192,142769,128,0,142861:0:0:0:0:
448,192,142954,1,0,0:0:0:0:
320,192,142954,128,0,143324:0:0:0:0:
64,192,142954,1,0,0:0:0:0:
192,192,142954,1,0,0:0:0:0:
64,192,143139,1,0,0:0:0:0:
192,192,143324,128,0,143602:0:0:0:0:
320,192,143509,128,0,143602:0:0:0:0:
448,192,143509,128,0,143602:0:0:0:0:
448,192,143694,1,0,0:0:0:0:
192,192,143694,1,0,0:0:0:0:
64,192,143694,1,0,0:0:0:0:
320,192,143880,128,0,144157:0:0:0:0:
192,192,143880,128,0,143972:0:0:0:0:
64,192,143880,128,0,143972:0:0:0:0:
64,192,144065,128,0,144157:0:0:0:0:
448,192,144065,128,0,144157:0:0:0:0:
320,192,144250,128,0,144343:0:0:0:0:
448,192,144250,128,0,144343:0:0:0:0:
192,192,144250,128,0,145176:0:0:0:0:
320,192,144620,1,0,0:0:0:0:
448,192,144620,1,0,0:0:0:0:
448,192,144806,1,0,0:0:0:0:
320,192,144806,1,0,0:0:0:0:
64,192,144898,1,0,0:0:0:0:
448,192,144991,1,0,0:0:0:0:
320,192,145083,1,0,0:0:0:0:
448,192,145176,1,0,0:0:0:0:
64,192,145269,1,0,0:0:0:0:
320,192,145361,1,0,0:0:0:0:
192,192,145454,1,0,0:0:0:0:
448,192,145546,1,0,0:0:0:0:
64,192,145546,1,0,0:0:0:0:
320,192,145608,1,0,0:0:0:0:
192,192,145670,1,0,0:0:0:0:
448,192,145731,1,0,0:0:0:0:
320,192,145793,1,0,0:0:0:0:
192,192,145855,1,0,0:0:0:0:
448,192,145917,128,0,146009:0:0:0:0:
320,192,145917,128,0,146009:0:0:0:0:
64,192,145917,128,0,146009:0:0:0:0:
64,192,146102,128,0,146194:0:0:0:0:
320,192,146102,128,0,146194:0:0:0:0:
448,192,146102,128,0,146194:0:0:0:0:
448,192,146287,128,0,146380:0:0:0:0:
320,192,146287,128,0,146380:0:0:0:0:
64,192,146287,128,0,146380:0:0:0:0:
320,192,146657,128,0,146750:0:0:0:0:
448,192,146657,128,0,146750:0:0:0:0:
192,192,146843,128,0,146935:0:0:0:0:
320,192,146843,128,0,146935:0:0:0:0:
64,192,147028,128,0,147120:0:0:0:0:
192,192,147028,128,0,147120:0:0:0:0:
64,192,147213,128,0,147491:0:0:0:0:
448,192,147213,128,0,147491:0:0:0:0:
320,192,147213,128,0,147491:0:0:0:0:
64,192,147583,128,0,147676:0:0:0:0:
192,192,147583,128,0,147676:0:0:0:0:
320,192,147583,128,0,147676:0:0:0:0:
192,192,147769,128,0,147861:0:0:0:0:
64,192,147769,128,0,147861:0:0:0:0:
320,192,147769,128,0,147861:0:0:0:0:
448,192,148139,128,0,148231:0:0:0:0:
320,192,148139,128,0,148231:0:0:0:0:
320,192,148324,128,0,148417:0:0:0:0:
64,192,148324,128,0,148417:0:0:0:0:
192,192,148509,128,0,148602:0:0:0:0:
448,192,148509,128,0,148602:0:0:0:0:
320,192,148694,128,0,148972:0:0:0:0:
448,192,148694,128,0,148972:0:0:0:0:
192,192,148880,128,0,148972:0:0:0:0:
64,192,148880,128,0,148972:0:0:0:0:
192,192,149065,128,0,149157:0:0:0:0:
64,192,149065,128,0,149157:0:0:0:0:
448,192,149065,128,0,149157:0:0:0:0:
192,192,149250,128,0,149343:0:0:0:0:
64,192,149250,128,0,149343:0:0:0:0:
448,192,149250,128,0,149343:0:0:0:0:
320,192,149620,128,0,149806:0:0:0:0:
64,192,149620,128,0,150083:0:0:0:0:
448,192,149806,1,0,0:0:0:0:
320,192,149898,1,0,0:0:0:0:
192,192,149991,128,0,150083:0:0:0:0:
448,192,149991,128,0,150083:0:0:0:0:
64,192,150176,128,0,150454:0:0:0:0:
320,192,150176,128,0,150454:0:0:0:0:
448,192,150176,128,0,150454:0:0:0:0:
64,192,150546,128,0,150639:0:0:0:0:
320,192,150546,128,0,150639:0:0:0:0:
448,192,150546,128,0,150639:0:0:0:0:
192,192,150731,128,0,150824:0:0:0:0:
320,192,150731,128,0,150824:0:0:0:0:
448,192,150731,128,0,150824:0:0:0:0:
320,192,150917,128,0,151287:0:0:0:0:
64,192,151009,1,0,0:0:0:0:
448,192,151102,1,0,0:0:0:0:
192,192,151287,1,0,0:0:0:0:
448,192,151380,1,0,0:0:0:0:
320,192,151472,1,0,0:0:0:0:
64,192,151565,1,0,0:0:0:0:
320,192,151657,128,0,151750:0:0:0:0:
192,192,151750,128,0,151843:0:0:0:0:
64,192,151843,128,0,152213:0:0:0:0:
320,192,151843,128,0,152120:0:0:0:0:
448,192,151843,128,0,152120:0:0:0:0:
320,192,152213,128,0,152583:0:0:0:0:
192,192,152213,1,0,0:0:0:0:
448,192,152213,1,0,0:0:0:0:
64,192,152398,128,0,152861:0:0:0:0:
192,192,152583,128,0,152861:0:0:0:0:
320,192,152769,128,0,152861:0:0:0:0:
192,192,152954,1,0,0:0:0:0:
64,192,152954,1,0,0:0:0:0:
320,192,152954,1,0,0:0:0:0:
192,192,153139,128,0,153231:0:0:0:0:
448,192,153139,128,0,153231:0:0:0:0:
64,192,153324,128,0,153694:0:0:0:0:
192,192,153324,128,0,153602:0:0:0:0:
320,192,153324,128,0,153602:0:0:0:0:
448,192,153694,1,0,0:0:0:0:
320,192,153694,128,0,154065:0:0:0:0:
192,192,153694,1,0,0:0:0:0:
192,192,153880,128,0,154250:0:0:0:0:
64,192,154065,128,0,154435:0:0:0:0:
320,192,154250,128,0,154343:0:0:0:0:
448,192,154250,128,0,154343:0:0:0:0:
320,192,154435,128,0,154528:0:0:0:0:
192,192,154435,128,0,154528:0:0:0:0:
64,192,154620,128,0,155546:0:0:0:0:
192,192,154620,128,0,154713:0:0:0:0:
320,192,154806,128,0,154898:0:0:0:0:
448,192,154806,128,0,154898:0:0:0:0:
192,192,154806,128,0,154898:0:0:0:0:
320,192,154991,1,0,0:0:0:0:
192,192,155176,1,0,0:0:0:0:
448,192,155176,1,0,0:0:0:0:
320,192,155176,128,0,155546:0:0:0:0:
448,192,155361,128,0,155546:0:0:0:0:
192,192,155546,1,0,0:0:0:0:
64,192,155731,1,0,0:0:0:0:
320,192,155731,1,0,0:0:0:0:
192,192,155917,1,0,0:0:0:0:
320,192,155917,1,0,0:0:0:0:
448,192,155917,1,0,0:0:0:0:
320,192,156102,128,0,156194:0:0:0:0:
192,192,156194,128,0,156287:0:0:0:0:
64,192,156287,128,0,156380:0:0:0:0:
448,192,156287,128,0,156657:0:0:0:0:
320,192,156565,128,0,156843:0:0:0:0:
192,192,156657,1,0,0:0:0:0:
64,192,156657,1,0,0:0:0:0:
192,192,156843,128,0,157028:0:0:0:0:
448,192,156843,1,0,0:0:0:0:
320,192,157028,128,0,157306:0:0:0:0:
64,192,157028,128,0,157306:0:0:0:0:
192,192,157306,128,0,157769:0:0:0:0:
448,192,157306,128,0,157583:0:0:0:0:
64,192,157398,1,0,0:0:0:0:
320,192,157398,1,0,0:0:0:0:
64,192,157583,128,0,157769:0:0:0:0:
320,192,157583,1,0,0:0:0:0:
320,192,157769,128,0,158417:0:0:0:0:
448,192,157769,128,0,159157:0:0:0:0:
64,192,157954,1,0,0:0:0:0:
64,192,158139,1,0,0:0:0:0:
192,192,158324,1,0,0:0:0:0:
320,192,158509,128,0,158602:0:0:0:0:
320,192,158694,128,0,159157:0:0:0:0:
192,192,158880,128,0,159157:0:0:0:0:
64,192,159065,128,0,159157:0:0:0:0:
192,192,159250,1,0,0:0:0:0:
64,192,159250,1,0,0:0:0:0:
320,192,159250,128,0,159343:0:0:0:0:
448,192,159250,128,0,159343:0:0:0:0:
320,192,159435,128,0,159528:0:0:0:0:
192,192,159435,128,0,159528:0:0:0:0:
192,192,159620,128,0,159713:0:0:0:0:
64,192,159620,128,0,159713:0:0:0:0:
192,192,159806,1,0,0:0:0:0:
64,192,159806,1,0,0:0:0:0:
320,192,159806,128,0,159991:0:0:0:0:
448,192,159806,128,0,159991:0:0:0:0:
64,192,159991,1,0,0:0:0:0:
192,192,160176,128,0,160269:0:0:0:0:
64,192,160176,128,0,160269:0:0:0:0:
320,192,160361,128,0,160454:0:0:0:0:
448,192,160361,128,0,160454:0:0:0:0:
192,192,160454,128,0,160546:0:0:0:0:
320,192,160546,128,0,160639:0:0:0:0:
448,192,160546,128,0,160639:0:0:0:0:
64,192,160731,128,0,161380:0:0:0:0:
192,192,160731,128,0,160824:0:0:0:0:
448,192,160731,128,0,160824:0:0:0:0:
320,192,160824,1,0,0:0:0:0:
448,192,160917,1,0,0:0:0:0:
192,192,161009,1,0,0:0:0:0:
320,192,161102,1,0,0:0:0:0:
192,192,161194,1,0,0:0:0:0:
448,192,161287,1,0,0:0:0:0:
320,192,161380,1,0,0:0:0:0:
64,192,161472,128,0,161565:0:0:0:0:
448,192,161472,128,0,162120:0:0:0:0:
192,192,161472,128,0,161565:0:0:0:0:
320,192,161565,1,0,0:0:0:0:
64,192,161657,1,0,0:0:0:0:
192,192,161750,1,0,0:0:0:0:
320,192,161843,1,0,0:0:0:0:
64,192,161935,1,0,0:0:0:0:
320,192,162028,1,0,0:0:0:0:
192,192,162120,1,0,0:0:0:0:
64,192,162213,128,0,162954:0:0:0:0:
320,192,162213,128,0,162306:0:0:0:0:
448,192,162213,128,0,162306:0:0:0:0:
448,192,162398,1,0,0:0:0:0:
320,192,162583,1,0,0:0:0:0:
448,192,162769,1,0,0:0:0:0:
320,192,162830,1,0,0:0:0:0:
192,192,162892,1,0,0:0:0:0:
448,192,162954,128,0,163015:0:0:0:0:
320,192,163139,128,0,163201:0:0:0:0:
192,192,163324,128,0,163386:0:0:0:0:
64,192,163509,128,0,163571:0:0:0:0:
320,192,163509,128,0,163880:0:0:0:0:
448,192,163509,128,0,164065:0:0:0:0:
64,192,163880,128,0,163941:0:0:0:0:
192,192,164065,128,0,164127:0:0:0:0:
320,192,164250,128,0,164312:0:0:0:0:
64,192,164250,128,0,164806:0:0:0:0:
448,192,164435,128,0,164497:0:0:0:0:
192,192,164435,128,0,164620:0:0:0:0:
448,192,164806,128,0,164867:0:0:0:0:
320,192,164991,128,0,165052:0:0:0:0:
64,192,164991,128,0,165052:0:0:0:0:
192,192,165361,128,0,165423:0:0:0:0:
320,192,165546,128,0,165608:0:0:0:0:
192,192,165731,128,0,165793:0:0:0:0:
320,192,165917,128,0,165978:0:0:0:0:
64,192,165917,128,0,166102:0:0:0:0:
448,192,166102,128,0,166164:0:0:0:0:
192,192,166102,128,0,166287:0:0:0:0:
64,192,166287,128,0,166349:0:0:0:0:
320,192,166287,128,0,166472:0:0:0:0:
192,192,166472,128,0,166534:0:0:0:0:
448,192,166472,128,0,166657:0:0:0:0:
192,192,167028,128,0,167090:0:0:0:0:
320,192,167213,128,0,167275:0:0:0:0:
192,192,167398,128,0,167460:0:0:0:0:
64,192,167583,128,0,167645:0:0:0:0:
448,192,167769,128,0,167830:0:0:0:0:
320,192,167954,128,0,168417:0:0:0:0:
192,192,168139,128,0,168231:0:0:0:0:
64,192,168139,128,0,168231:0:0:0:0:
448,192,168139,128,0,168231:0:0:0:0:
64,192,168324,128,0,168417:0:0:0:0:
448,192,168324,128,0,168417:0:0:0:0:
192,192,168324,128,0,168602:0:0:0:0:
320,192,168509,128,0,168880:0:0:0:0:
448,192,168694,128,0,168880:0:0:0:0:
192,192,168694,128,0,168880:0:0:0:0:
64,192,168694,128,0,168880:0:0:0:0:
192,192,169065,128,0,169157:0:0:0:0:
64,192,169065,128,0,169528:0:0:0:0:
448,192,169065,128,0,169343:0:0:0:0:
192,192,169250,128,0,169343:0:0:0:0:
320,192,169250,128,0,169343:0:0:0:0:
320,192,169435,128,0,169528:0:0:0:0:
448,192,169435,128,0,169528:0:0:0:0:
64,192,169620,128,0,169713:0:0:0:0:
192,192,169620,128,0,169713:0:0:0:0:
448,192,169620,128,0,170083:0:0:0:0:
192,192,169806,1,0,0:0:0:0:
192,192,169991,128,0,170083:0:0:0:0:
64,192,169991,128,0,170083:0:0:0:0:
320,192,170176,128,0,170269:0:0:0:0:
448,192,170176,128,0,170269:0:0:0:0:
192,192,170176,128,0,170639:0:0:0:0:
320,192,170361,1,0,0:0:0:0:
64,192,170546,128,0,170639:0:0:0:0:
320,192,170546,128,0,170639:0:0:0:0:
192,192,170731,128,0,170824:0:0:0:0:
320,192,170731,128,0,171009:0:0:0:0:
192,192,170917,128,0,171009:0:0:0:0:
448,192,170917,128,0,171009:0:0:0:0:
64,192,171102,128,0,171380:0:0:0:0:
448,192,171102,128,0,171287:0:0:0:0:
320,192,171102,1,0,0:0:0:0:
192,192,171287,128,0,171380:0:0:0:0:
192,192,171472,128,0,171565:0:0:0:0:
448,192,171472,128,0,171750:0:0:0:0:
320,192,171657,128,0,171750:0:0:0:0:
64,192,171657,128,0,171935:0:0:0:0:
192,192,171750,128,0,171935:0:0:0:0:
320,192,171843,128,0,171935:0:0:0:0:
64,192,172028,128,0,172120:0:0:0:0:
320,192,172028,128,0,172120:0:0:0:0:
192,192,172213,1,0,0:0:0:0:
64,192,172213,1,0,0:0:0:0:
192,192,172398,128,0,172491:0:0:0:0:
448,192,172398,128,0,172491:0:0:0:0:
320,192,172491,128,0,172583:0:0:0:0:
64,192,172583,1,0,0:0:0:0:
448,192,172583,128,0,173139:0:0:0:0:
64,192,172769,1,0,0:0:0:0:
64,192,172954,1,0,0:0:0:0:
320,192,172954,128,0,173139:0:0:0:0:
192,192,172954,128,0,173139:0:0:0:0:
64,192,173139,1,0,0:0:0:0:
320,192,173324,1,0,0:0:0:0:
448,192,173324,1,0,0:0:0:0:
192,192,173324,128,0,173972:0:0:0:0:
448,192,173509,1,0,0:0:0:0:
320,192,173509,1,0,0:0:0:0:
64,192,173509,128,0,173972:0:0:0:0:
320,192,173694,1,0,0:0:0:0:
448,192,173694,1,0,0:0:0:0:
320,192,173880,128,0,173972:0:0:0:0:
448,192,173880,128,0,173972:0:0:0:0:
448,192,174065,1,0,0:0:0:0:
320,192,174065,1,0,0:0:0:0:
192,192,174065,1,0,0:0:0:0:
64,192,174065,1,0,0:0:0:0:
320,192,174250,1,0,0:0:0:0:
64,192,174250,1,0,0:0:0:0:
192,192,174343,1,0,0:0:0:0:
320,192,174435,1,0,0:0:0:0:
448,192,174435,1,0,0:0:0:0:
64,192,174528,1,0,0:0:0:0:
192,192,174620,128,0,174713:0:0:0:0:
448,192,174620,128,0,174898:0:0:0:0:
320,192,174620,128,0,174806:0:0:0:0:
64,192,174806,128,0,175269:0:0:0:0:
192,192,174991,128,0,175269:0:0:0:0:
320,192,174991,1,0,0:0:0:0:
448,192,174991,1,0,0:0:0:0:
320,192,175176,128,0,175269:0:0:0:0:
64,192,175361,128,0,175824:0:0:0:0:
320,192,175361,128,0,175824:0:0:0:0:
448,192,175361,128,0,175639:0:0:0:0:
192,192,175361,128,0,175824:0:0:0:0:
448,192,175731,128,0,175824:0:0:0:0:
320,192,175917,128,0,176009:0:0:0:0:
64,192,175917,128,0,176009:0:0:0:0:
192,192,175917,128,0,176009:0:0:0:0:
64,192,176102,128,0,176194:0:0:0:0:
192,192,176102,128,0,176194:0:0:0:0:
192,192,176287,128,0,176380:0:0:0:0:
448,192,176287,128,0,176380:0:0:0:0:
64,192,176380,1,0,0:0:0:0:
320,192,176472,1,0,0:0:0:0:
448,192,176472,1,0,0:0:0:0:
192,192,176565,1,0,0:0:0:0:
64,192,176657,128,0,176750:0:0:0:0:
320,192,176657,128,0,177306:0:0:0:0:
192,192,176843,128,0,177676:0:0:0:0:
448,192,176843,128,0,177120:0:0:0:0:
64,192,176843,128,0,177491:0:0:0:0:
448,192,177213,128,0,177306:0:0:0:0:
320,192,177398,128,0,177491:0:0:0:0:
64,192,177583,128,0,177676:0:0:0:0:
448,192,177583,1,0,0:0:0:0:
192,192,177769,128,0,177861:0:0:0:0:
320,192,177769,1,0,0:0:0:0:
192,192,177954,128,0,178509:0:0:0:0:
448,192,177954,128,0,178046:0:0:0:0:
64,192,178139,1,0,0:0:0:0:
320,192,178139,1,0,0:0:0:0:
448,192,178139,1,0,0:0:0:0:
64,192,178324,128,0,178509:0:0:0:0:
448,192,178324,128,0,178880:0:0:0:0:
320,192,178324,128,0,178509:0:0:0:0:
192,192,178694,1,0,0:0:0:0:
192,192,178880,128,0,178972:0:0:0:0:
64,192,178880,128,0,179157:0:0:0:0:
320,192,178880,128,0,179157:0:0:0:0:
192,192,179065,128,0,179157:0:0:0:0:
192,192,179250,128,0,179898:0:0:0:0:
448,192,179250,128,0,179528:0:0:0:0:
320,192,179250,128,0,179343:0:0:0:0:
320,192,179435,128,0,179528:0:0:0:0:
64,192,179620,128,0,179806:0:0:0:0:
448,192,179620,128,0,179713:0:0:0:0:
320,192,179713,128,0,179991:0:0:0:0:
448,192,179806,128,0,180083:0:0:0:0:
192,192,179991,128,0,180083:0:0:0:0:
64,192,179991,128,0,180083:0:0:0:0:
192,192,180176,128,0,180269:0:0:0:0:
320,192,180176,128,0,180269:0:0:0:0:
320,192,180361,128,0,180454:0:0:0:0:
448,192,180361,128,0,180454:0:0:0:0:
64,192,180361,128,0,180639:0:0:0:0:
192,192,180546,128,0,180639:0:0:0:0:
320,192,180546,128,0,180639:0:0:0:0:
448,192,180546,128,0,180917:0:0:0:0:
192,192,180917,128,0,181380:0:0:0:0:
64,192,180917,128,0,181009:0:0:0:0:
64,192,181102,128,0,181380:0:0:0:0:
448,192,181102,1,0,0:0:0:0:
320,192,181194,1,0,0:0:0:0:
448,192,181287,128,0,181380:0:0:0:0:
320,192,181472,128,0,182398:0:0:0:0:
64,192,181472,128,0,181565:0:0:0:0:
192,192,181472,128,0,181565:0:0:0:0:
192,192,181657,1,0,0:0:0:0:
448,192,181843,1,0,0:0:0:0:
192,192,181843,128,0,182028:0:0:0:0:
64,192,181843,128,0,182398:0:0:0:0:
448,192,182028,128,0,182398:0:0:0:0:
192,192,182213,1,0,0:0:0:0:
192,192,182398,1,0,0:0:0:0:
320,192,182583,128,0,182676:0:0:0:0:
448,192,182583,128,0,182676:0:0:0:0:
64,192,182583,1,0,0:0:0:0:
320,192,182769,128,0,182861:0:0:0:0:
192,192,182769,128,0,182861:0:0:0:0:
448,192,182954,128,0,183046:0:0:0:0:
320,192,182954,128,0,183509:0:0:0:0:
64,192,183139,1,0,0:0:0:0:
192,192,183324,128,0,183509:0:0:0:0:
64,192,183324,128,0,183509:0:0:0:0:
448,192,183324,1,0,0:0:0:0:
448,192,183509,128,0,183880:0:0:0:0:
320,192,183602,128,0,183880:0:0:0:0:
192,192,183694,1,0,0:0:0:0:
64,192,183694,128,0,183880:0:0:0:0:
192,192,183880,1,0,0:0:0:0:
64,192,184065,1,0,0:0:0:0:
320,192,184065,1,0,0:0:0:0:
448,192,184065,1,0,0:0:0:0:
320,192,184250,128,0,184343:0:0:0:0:
192,192,184343,128,0,184435:0:0:0:0:
320,192,184435,128,0,184528:0:0:0:0:
448,192,184435,128,0,184713:0:0:0:0:
64,192,184435,128,0,184713:0:0:0:0:
192,192,184620,128,0,184713:0:0:0:0:
64,192,184806,128,0,185083:0:0:0:0:
320,192,184806,128,0,185083:0:0:0:0:
448,192,184806,128,0,184898:0:0:0:0:
192,192,184991,128,0,185083:0:0:0:0:
192,192,185176,128,0,185269:0:0:0:0:
64,192,185176,128,0,185454:0:0:0:0:
448,192,185176,128,0,185269:0:0:0:0:
448,192,185361,128,0,185731:0:0:0:0:
320,192,185361,128,0,185454:0:0:0:0:
192,192,185546,1,0,0:0:0:0:
320,192,185546,1,0,0:0:0:0:
64,192,185546,1,0,0:0:0:0:
64,192,185731,128,0,186565:0:0:0:0:
448,192,185917,128,0,186009:0:0:0:0:
320,192,185917,128,0,186009:0:0:0:0:
192,192,185917,128,0,186472:0:0:0:0:
320,192,186102,1,0,0:0:0:0:
320,192,186287,1,0,0:0:0:0:
448,192,186287,1,0,0:0:0:0:
448,192,186472,128,0,186565:0:0:0:0:
320,192,186565,128,0,186657:0:0:0:0:
448,192,186657,128,0,186935:0:0:0:0:
192,192,186657,128,0,186935:0:0:0:0:
64,192,186657,1,0,0:0:0:0:
64,192,186843,128,0,186935:0:0:0:0:
192,192,187028,128,0,187306:0:0:0:0:
448,192,187028,128,0,187306:0:0:0:0:
320,192,187028,1,0,0:0:0:0:
320,192,187213,128,0,187306:0:0:0:0:
320,192,187398,128,0,187676:0:0:0:0:
64,192,187398,128,0,187676:0:0:0:0:
192,192,187398,128,0,187491:0:0:0:0:
192,192,187583,128,0,187676:0:0:0:0:
320,192,187769,1,0,0:0:0:0:
192,192,187769,1,0,0:0:0:0:
64,192,187769,1,0,0:0:0:0:
448,192,187954,128,0,188602:0:0:0:0:
320,192,187954,128,0,188231:0:0:0:0:
192,192,187954,128,0,188417:0:0:0:0:
320,192,188324,128,0,188694:0:0:0:0:
192,192,188509,128,0,188602:0:0:0:0:
64,192,188509,1,0,0:0:0:0:
448,192,188694,128,0,188787:0:0:0:0:
64,192,188694,1,0,0:0:0:0:
192,192,188787,1,0,0:0:0:0:
448,192,188880,1,0,0:0:0:0:
320,192,188880,1,0,0:0:0:0:
64,192,188880,128,0,189343:0:0:0:0:
320,192,189065,128,0,189157:0:0:0:0:
448,192,189065,128,0,189157:0:0:0:0:
320,192,189250,128,0,189343:0:0:0:0:
192,192,189250,128,0,189343:0:0:0:0:
448,192,189435,128,0,189806:0:0:0:0:
192,192,189435,128,0,189528:0:0:0:0:
64,192,189435,128,0,189528:0:0:0:0:
192,192,189806,128,0,190176:0:0:0:0:
448,192,189991,128,0,190176:0:0:0:0:
64,192,189991,128,0,190083:0:0:0:0:
320,192,190083,128,0,190269:0:0:0:0:
64,192,190176,128,0,190361:0:0:0:0:
320,192,190361,128,0,190454:0:0:0:0:
448,192,190361,128,0,190824:0:0:0:0:
192,192,190361,128,0,190454:0:0:0:0:
192,192,190546,1,0,0:0:0:0:
192,192,190731,128,0,190824:0:0:0:0:
64,192,190731,128,0,190824:0:0:0:0:
64,192,190917,128,0,191380:0:0:0:0:
320,192,190917,128,0,191009:0:0:0:0:
448,192,190917,128,0,191009:0:0:0:0:
192,192,191102,128,0,191380:0:0:0:0:
320,192,191287,128,0,191380:0:0:0:0:
192,192,191472,128,0,191565:0:0:0:0:
320,192,191472,128,0,191565:0:0:0:0:
448,192,191472,128,0,191565:0:0:0:0:
192,192,191657,128,0,191750:0:0:0:0:
64,192,191657,128,0,191750:0:0:0:0:
320,192,191843,128,0,191935:0:0:0:0:
448,192,191843,128,0,191935:0:0:0:0:
192,192,191843,128,0,192306:0:0:0:0:
64,192,192028,128,0,192306:0:0:0:0:
320,192,192213,128,0,192306:0:0:0:0:
448,192,192213,128,0,192306:0:0:0:0:
320,192,192398,128,0,192491:0:0:0:0:
192,192,192398,128,0,192861:0:0:0:0:
64,192,192583,128,0,192861:0:0:0:0:
320,192,192769,128,0,192861:0:0:0:0:
192,192,192954,1,0,0:0:0:0:
320,192,192954,1,0,0:0:0:0:
448,192,192954,1,0,0:0:0:0:
192,192,193139,128,0,193231:0:0:0:0:
320,192,193231,128,0,193324:0:0:0:0:
448,192,193324,128,0,193417:0:0:0:0:
64,192,193324,128,0,193694:0:0:0:0:
192,192,193417,128,0,193509:0:0:0:0:
448,192,193509,128,0,193602:0:0:0:0:
320,192,193602,128,0,193694:0:0:0:0:
448,192,193694,128,0,194065:0:0:0:0:
192,192,193694,128,0,193787:0:0:0:0:
64,192,193787,128,0,193880:0:0:0:0:
320,192,193880,128,0,193972:0:0:0:0:
64,192,193972,128,0,194065:0:0:0:0:
192,192,194065,128,0,194435:0:0:0:0:
320,192,194065,128,0,194157:0:0:0:0:
448,192,194157,128,0,194250:0:0:0:0:
64,192,194250,128,0,194343:0:0:0:0:
448,192,194343,128,0,194435:0:0:0:0:
320,192,194435,128,0,194713:0:0:0:0:
64,192,194435,128,0,194528:0:0:0:0:
192,192,194528,128,0,194620:0:0:0:0:
448,192,194620,128,0,194713:0:0:0:0:
192,192,194713,128,0,194806:0:0:0:0:
64,192,194806,128,0,194898:0:0:0:0:
320,192,194806,128,0,194898:0:0:0:0:
448,192,194806,128,0,194898:0:0:0:0:
320,192,194991,128,0,195083:0:0:0:0:
448,192,194991,128,0,195083:0:0:0:0:
64,192,194991,128,0,195083:0:0:0:0:
64,192,195176,128,0,195269:0:0:0:0:
320,192,195176,128,0,195269:0:0:0:0:
448,192,195176,128,0,195269:0:0:0:0:
64,192,195361,128,0,195639:0:0:0:0:
192,192,195546,128,0,195824:0:0:0:0:
320,192,195731,128,0,196009:0:0:0:0:
64,192,195917,128,0,196194:0:0:0:0:
192,192,195917,128,0,196194:0:0:0:0:
448,192,196102,128,0,196194:0:0:0:0:
320,192,196102,128,0,196194:0:0:0:0:
64,192,196287,1,0,0:0:0:0:
320,192,196287,128,0,196657:0:0:0:0:
448,192,196287,1,0,0:0:0:0:
192,192,196287,1,0,0:0:0:0:
64,192,196472,1,0,0:0:0:0:
192,192,196657,128,0,196935:0:0:0:0:
320,192,196843,128,0,196935:0:0:0:0:
448,192,196843,128,0,196935:0:0:0:0:
192,192,197028,1,0,0:0:0:0:
448,192,197028,1,0,0:0:0:0:
64,192,197028,1,0,0:0:0:0:
320,192,197213,128,0,197491:0:0:0:0:
192,192,197213,128,0,197306:0:0:0:0:
64,192,197213,128,0,197306:0:0:0:0:
448,192,197398,128,0,197491:0:0:0:0:
64,192,197398,128,0,197491:0:0:0:0:
320,192,197583,128,0,197676:0:0:0:0:
192,192,197583,128,0,198509:0:0:0:0:
448,192,197583,128,0,197676:0:0:0:0:
448,192,197954,5,0,0:0:0:0:
320,192,197954,1,0,0:0:0:0:
320,192,198139,1,0,0:0:0:0:
448,192,198139,1,0,0:0:0:0:
64,192,198231,1,0,0:0:0:0:
448,192,198324,1,0,0:0:0:0:
320,192,198417,1,0,0:0:0:0:
448,192,198509,1,0,0:0:0:0:
64,192,198602,1,0,0:0:0:0:
320,192,198694,1,0,0:0:0:0:
192,192,198787,1,0,0:0:0:0:
448,192,198880,1,0,0:0:0:0:
64,192,198880,1,0,0:0:0:0:
320,192,198941,1,0,0:0:0:0:
192,192,199003,1,0,0:0:0:0:
320,192,199065,1,0,0:0:0:0:
192,192,199127,1,0,0:0:0:0:
64,192,199188,1,0,0:0:0:0:
448,192,199250,1,0,0:0:0:0:
320,192,199250,128,0,199620:0:0:0:0:
192,192,199435,1,0,0:0:0:0:
192,192,199620,128,0,199713:0:0:0:0:
448,192,199620,1,0,0:0:0:0:
64,192,199620,128,0,199713:0:0:0:0:
64,192,199806,128,0,199898:0:0:0:0:
192,192,199806,128,0,199898:0:0:0:0:
320,192,199991,1,0,0:0:0:0:
320,192,200176,128,0,200269:0:0:0:0:
448,192,200176,128,0,200269:0:0:0:0:
192,192,200361,1,0,0:0:0:0:
448,192,200361,1,0,0:0:0:0:
64,192,200361,1,0,0:0:0:0:
192,192,200546,128,0,200824:0:0:0:0:
448,192,200546,128,0,200824:0:0:0:0:
192,192,200917,128,0,201009:0:0:0:0:
448,192,200917,128,0,201009:0:0:0:0:
192,192,201102,1,0,0:0:0:0:
320,192,201102,128,0,201194:0:0:0:0:
64,192,201102,1,0,0:0:0:0:
448,192,201287,128,0,201843:0:0:0:0:
192,192,201287,128,0,201380:0:0:0:0:
64,192,201472,1,0,0:0:0:0:
192,192,201657,1,0,0:0:0:0:
320,192,201843,128,0,202120:0:0:0:0:
192,192,201843,1,0,0:0:0:0:
64,192,201843,1,0,0:0:0:0:
192,192,202028,128,0,202306:0:0:0:0:
448,192,202213,128,0,202583:0:0:0:0:
64,192,202213,128,0,202491:0:0:0:0:
320,192,202398,1,0,0:0:0:0:
320,192,202583,1,0,0:0:0:0:
192,192,202583,128,0,202676:0:0:0:0:
64,192,202583,128,0,202676:0:0:0:0:
448,192,202769,128,0,202861:0:0:0:0:
192,192,202769,128,0,202861:0:0:0:0:
320,192,202954,1,0,0:0:0:0:
320,192,203139,128,0,203231:0:0:0:0:
64,192,203139,128,0,203231:0:0:0:0:
448,192,203324,1,0,0:0:0:0:
320,192,203324,1,0,0:0:0:0:
64,192,203324,1,0,0:0:0:0:
192,192,203509,128,0,204250:0:0:0:0:
64,192,203509,128,0,204250:0:0:0:0:
448,192,203509,1,0,0:0:0:0:
448,192,203880,1,0,0:0:0:0:
448,192,204065,1,0,0:0:0:0:
320,192,204065,1,0,0:0:0:0:
448,192,204250,1,0,0:0:0:0:
64,192,204435,128,0,204713:0:0:0:0:
320,192,204435,128,0,204528:0:0:0:0:
448,192,204620,128,0,204713:0:0:0:0:
320,192,204620,128,0,204713:0:0:0:0:
192,192,204713,128,0,204806:0:0:0:0:
64,192,204806,128,0,204898:0:0:0:0:
448,192,204806,128,0,205083:0:0:0:0:
320,192,204898,128,0,204991:0:0:0:0:
192,192,204991,128,0,205083:0:0:0:0:
64,192,204991,128,0,205083:0:0:0:0:
448,192,205176,128,0,205269:0:0:0:0:
320,192,205176,128,0,205454:0:0:0:0:
64,192,205176,1,0,0:0:0:0:
64,192,205361,128,0,205454:0:0:0:0:
192,192,205361,128,0,205639:0:0:0:0:
320,192,205546,128,0,205639:0:0:0:0:
448,192,205546,128,0,205639:0:0:0:0:
192,192,205731,128,0,206380:0:0:0:0:
320,192,205731,128,0,206009:0:0:0:0:
64,192,205731,128,0,206009:0:0:0:0:
64,192,206102,128,0,206380:0:0:0:0:
320,192,206102,1,0,0:0:0:0:
320,192,206287,128,0,206380:0:0:0:0:
448,192,206287,1,0,0:0:0:0:
448,192,206472,128,0,206750:0:0:0:0:
320,192,206472,128,0,206750:0:0:0:0:
192,192,206472,128,0,206843:0:0:0:0:
448,192,206843,1,0,0:0:0:0:
320,192,206843,1,0,0:0:0:0:
192,192,206935,1,0,0:0:0:0:
64,192,207028,128,0,207306:0:0:0:0:
448,192,207028,1,0,0:0:0:0:
320,192,207028,128,0,207120:0:0:0:0:
448,192,207213,128,0,207306:0:0:0:0:
192,192,207213,128,0,207306:0:0:0:0:
64,192,207398,128,0,207491:0:0:0:0:
448,192,207398,128,0,207491:0:0:0:0:
320,192,207398,128,0,207491:0:0:0:0:
64,192,207583,128,0,207676:0:0:0:0:
448,192,207583,128,0,207676:0:0:0:0:
320,192,207583,128,0,207676:0:0:0:0:
192,192,207954,128,0,208694:0:0:0:0:
64,192,207954,128,0,209435:0:0:0:0:
448,192,207954,128,0,208139:0:0:0:0:
448,192,208324,1,0,0:0:0:0:
320,192,208509,1,0,0:0:0:0:
448,192,208509,1,0,0:0:0:0:
448,192,208694,1,0,0:0:0:0:
320,192,208880,1,0,0:0:0:0:
192,192,209065,1,0,0:0:0:0:
192,192,209250,1,0,0:0:0:0:
448,192,209250,1,0,0:0:0:0:
192,192,209435,1,0,0:0:0:0:
320,192,209620,128,0,209991:0:0:0:0:
448,192,209620,128,0,209991:0:0:0:0:
64,192,209620,1,0,0:0:0:0:
192,192,209806,1,0,0:0:0:0:
64,192,209991,1,0,0:0:0:0:
192,192,209991,1,0,0:0:0:0:
192,192,210176,128,0,210546:0:0:0:0:
448,192,210176,128,0,210546:0:0:0:0:
320,192,210361,1,0,0:0:0:0:
64,192,210546,1,0,0:0:0:0:
448,192,210731,1,0,0:0:0:0:
320,192,210731,128,0,210917:0:0:0:0:
64,192,210731,128,0,210917:0:0:0:0:
192,192,210917,1,0,0:0:0:0:
192,192,211102,128,0,211287:0:0:0:0:
448,192,211102,128,0,211287:0:0:0:0:
64,192,211102,1,0,0:0:0:0:
320,192,211287,1,0,0:0:0:0:
64,192,211380,1,0,0:0:0:0:
448,192,211472,1,0,0:0:0:0:
192,192,211472,1,0,0:0:0:0:
64,192,211565,1,0,0:0:0:0:
320,192,211657,1,0,0:0:0:0:
192,192,211750,1,0,0:0:0:0:
320,192,211843,1,0,0:0:0:0:
448,192,211843,1,0,0:0:0:0:
64,192,211843,1,0,0:0:0:0:
64,192,212028,128,0,212120:0:0:0:0:
192,192,212028,128,0,212120:0:0:0:0:
448,192,212028,128,0,212120:0:0:0:0:
192,192,212213,128,0,212306:0:0:0:0:
64,192,212213,128,0,212306:0:0:0:0:
448,192,212213,128,0,212306:0:0:0:0:
192,192,212398,128,0,212491:0:0:0:0:
64,192,212398,128,0,212491:0:0:0:0:
448,192,212398,128,0,212491:0:0:0:0:
