osu file format v14

[General]
AudioFilename: audio.mp3
AudioLeadIn: 0
PreviewTime: 65338
Countdown: 0
SampleSet: None
StackLeniency: 0.2
Mode: 0
LetterboxInBreaks: 0
WidescreenStoryboard: 0

[Editor]
Bookmarks: 195025
DistanceSpacing: 1
BeatDivisor: 4
GridSize: 8
TimelineZoom: 1.6

[Metadata]
Title:Tell Me You Know
TitleUnicode:Tell Me You Know
Artist:Good Kid
ArtistUnicode:Good Kid
Creator:Axaptice
Version:Extra
Source:
Tags:wtf an english song in my weeb rhythm game?
BeatmapID:1804223
BeatmapSetID:862539

[Difficulty]
HPDrainRate:5
CircleSize:4
OverallDifficulty:9
ApproachRate:9
SliderMultiplier:2
SliderTickRate:1

[Events]
//Background and Video events
0,0,"67528345_p0.jpg",0,0
//Break Periods
//Storyboard Layer 0 (Background)
//Storyboard Layer 1 (Fail)
//Storyboard Layer 2 (Pass)
//Storyboard Layer 3 (Foreground)
//Storyboard Sound Samples

[TimingPoints]
5182,312.5,4,3,0,66,1,0
15182,-125,4,3,0,54,0,0
35182,-100,4,3,0,66,0,0
45182,-125,4,3,0,54,0,0
55182,-100,4,3,0,72,0,0
65494,-62.5,4,1,0,78,0,1
65650,-62.5,4,1,0,5,0,0
65807,-62.5,4,1,0,78,0,1
65963,-62.5,4,1,0,5,0,0
66119,-62.5,4,1,0,78,0,1
66275,-62.5,4,1,0,5,0,0
66432,-62.5,4,1,0,78,0,1
66588,-62.5,4,1,0,5,0,0
66744,-62.5,4,1,0,78,0,1
66900,-62.5,4,1,0,5,0,0
67057,-62.5,4,1,0,78,0,1
67525,-86.9565217391304,4,3,0,78,0,1
75025,-86.9565217391304,4,3,0,78,0,0
75494,-62.5,4,1,0,78,0,1
75650,-62.5,4,1,0,5,0,0
75807,-62.5,4,1,0,78,0,1
75963,-62.5,4,1,0,5,0,0
76119,-62.5,4,1,0,78,0,1
76275,-62.5,4,1,0,5,0,0
76432,-62.5,4,1,0,78,0,1
76588,-62.5,4,1,0,5,0,0
76744,-62.5,4,1,0,78,0,1
76900,-62.5,4,1,0,5,0,0
77057,-62.5,4,1,0,78,0,1
77525,-86.9565217391304,4,3,0,78,0,1
82682,-100,4,3,0,66,0,0
92682,-125,4,3,0,54,0,0
102682,-100,4,3,0,77,0,0
112994,-62.5,4,1,0,78,0,1
113150,-62.5,4,1,0,5,0,0
113307,-62.5,4,1,0,78,0,1
113463,-62.5,4,1,0,5,0,0
113619,-62.5,4,1,0,78,0,1
113775,-62.5,4,1,0,5,0,0
113932,-62.5,4,1,0,78,0,1
114088,-62.5,4,1,0,5,0,0
114244,-62.5,4,1,0,78,0,1
114400,-62.5,4,1,0,5,0,0
114557,-62.5,4,1,0,78,0,1
115025,-86.9565217391304,4,3,0,78,0,1
122525,-86.9565217391304,4,3,0,78,0,0
122994,-62.5,4,1,0,78,0,1
123150,-62.5,4,1,0,5,0,0
123307,-62.5,4,1,0,78,0,1
123463,-62.5,4,1,0,5,0,0
123619,-62.5,4,1,0,78,0,1
123775,-62.5,4,1,0,5,0,0
123932,-62.5,4,1,0,78,0,1
124088,-62.5,4,1,0,5,0,0
124244,-62.5,4,1,0,78,0,1
124400,-62.5,4,1,0,5,0,0
124557,-62.5,4,1,0,78,0,1
125025,-86.9565217391304,4,3,0,78,0,1
130182,-100,4,1,0,100,0,0
150182,-100,4,1,0,100,0,0
190182,-100,4,1,0,100,0,0

[Colours]
Combo1 : 128,0,0
Combo2 : 128,255,255
Combo3 : 0,145,145
Combo4 : 255,134,134

[HitObjects]
144,100,5182,5,0,0:0:0:0:
65,41,5338,1,0,0:0:0:0:
20,203,5494,2,0,P|86:175|150:189,1,100
330,106,5807,2,0,P|238:72|144:100,1,200
165,120,6275,1,0,0:0:0:0:
215,270,6432,6,0,L|236:155,1,100
353,123,6744,2,0,L|374:237,1,100
208,184,7057,2,0,L|189:282,1,100
391,233,7369,2,0,L|372:134,1,100
215,270,7682,5,0,0:0:0:0:
121,224,7838,1,0,0:0:0:0:
35,333,7994,2,0,P|98:314|156:323,1,100
240,374,8307,2,0,P|318:340|440:351,1,200
416,367,8775,1,0,0:0:0:0:
264,221,8932,6,0,P|323:256|368:250,1,100
351,58,9244,2,0,P|301:61|262:91,1,100
355,229,9557,2,0,P|306:225|267:196,1,100
265,66,9869,2,0,P|304:36|354:33,1,100
212,132,10182,6,0,P|162:70|16:31,2,200
206,159,10963,1,0,0:0:0:0:
127,262,11119,1,0,0:0:0:0:
262,42,11275,6,0,B|320:90|410:75|410:75|469:21,1,200
384,156,11744,2,0,B|396:207|396:207|386:372,1,200
365,336,12213,1,0,0:0:0:0:
470,168,12369,2,0,L|458:31,1,100
316,221,12682,6,0,P|229:174|114:185,2,200
296,239,13463,1,0,0:0:0:0:
208,145,13619,1,0,0:0:0:0:
396,17,13775,6,0,B|343:90|376:170|376:170|434:194,1,200
367,365,14244,2,0,L|467:355,1,100
484,328,14557,1,0,0:0:0:0:
293,361,14713,1,0,0:0:0:0:
276,334,14869,2,0,P|200:357|156:343,1,100
19,363,15182,6,0,P|123:354|180:384,2,160
39,334,15963,1,0,0:0:0:0:
64,237,16119,2,0,P|52:179|57:120,1,80
68,51,16432,5,0,0:0:0:0:
190,117,16588,2,0,L|92:110,1,80
257,60,16900,2,0,B|358:44|358:44|441:58,1,160
360,200,17369,1,0,0:0:0:0:
499,110,17525,5,0,0:0:0:0:
488,118,17603,1,0,0:0:0:0:
475,126,17682,2,0,L|459:231,1,80
494,294,17994,1,0,0:0:0:0:
379,364,18150,2,0,P|291:344|199:354,1,160
38,267,18619,1,0,0:0:0:0:
61,343,18775,1,0,0:0:0:0:
258,265,18932,6,0,P|198:240|150:244,2,80
322,193,19400,2,0,B|432:181|432:181|480:201,1,160
455,332,19869,1,0,0:0:0:0:
420,263,20025,1,0,0:0:0:0:
473,100,20182,5,0,0:0:0:0:
465,109,20494,2,0,L|361:100,1,80
242,29,20807,1,0,0:0:0:0:
250,38,21119,2,0,L|354:29,1,80
378,187,21432,6,0,L|298:180,1,80
190,143,21744,1,0,0:0:0:0:
113,162,21900,2,0,P|71:148|16:152,1,80
11,173,22213,1,0,0:0:0:0:
28,28,22369,1,0,0:0:0:0:
86,78,22525,1,0,0:0:0:0:
16,258,22682,5,0,0:0:0:0:
25,250,22994,2,0,P|12:211|16:146,1,80
117,261,23307,2,0,P|104:300|108:365,1,80
209,237,23619,1,0,0:0:0:0:
184,217,23775,1,0,0:0:0:0:
304,256,23932,6,0,L|420:244,1,80
509,365,24244,1,0,0:0:0:0:
431,356,24400,1,0,0:0:0:0:
296,366,24557,2,0,P|350:340|369:312,1,80
262,184,24869,1,0,0:0:0:0:
333,62,25025,1,0,0:0:0:0:
333,85,25103,1,0,0:0:0:0:
340,108,25182,6,0,P|414:135|492:122,2,160
237,104,25963,1,0,0:0:0:0:
314,233,26119,2,0,P|352:223|392:220,1,80
479,256,26432,5,0,0:0:0:0:
405,384,26588,2,0,L|411:286,1,80
297,209,26900,2,0,B|313:310|313:310|299:393,1,160
152,314,27369,1,0,0:0:0:0:
165,149,27525,5,0,0:0:0:0:
181,159,27603,1,0,0:0:0:0:
200,169,27682,2,0,L|215:273,1,80
375,235,27994,1,0,0:0:0:0:
477,284,28150,2,0,P|469:194|492:104,1,160
395,0,28619,1,0,0:0:0:0:
376,76,28775,6,0,P|386:134|410:173,1,80
282,93,29088,2,0,P|271:34|247:-4,1,80
151,192,29400,2,0,B|267:170|267:170|309:184,1,160
304,330,29869,1,0,0:0:0:0:
269,261,30025,1,0,0:0:0:0:
418,155,30182,5,0,0:0:0:0:
410,146,30494,2,0,L|306:155,1,80
211,60,30807,1,0,0:0:0:0:
219,69,31119,2,0,L|323:60,1,80
212,164,31432,6,0,L|108:173,1,80
162,15,31744,1,0,0:0:0:0:
129,89,31900,2,0,P|87:95|45:89,1,80
31,20,32213,1,0,0:0:0:0:
95,177,32369,1,0,0:0:0:0:
17,191,32525,1,0,0:0:0:0:
46,347,32682,5,0,0:0:0:0:
55,339,32994,1,0,0:0:0:0:
139,377,33150,2,0,P|207:361|245:370,1,80
378,340,33463,2,0,P|316:306|277:305,1,80
230,288,33775,1,0,0:0:0:0:
277,143,33932,6,0,L|288:259,1,80
143,267,34244,2,0,B|163:156|163:156|160:106,1,160
129,126,34713,1,0,0:0:0:0:
318,61,34869,2,0,P|384:79|418:72,1,80
444,199,35182,5,0,0:0:0:0:
469,39,35338,1,0,0:0:0:0:
292,83,35494,2,0,P|220:62|187:69,1,100
0,76,35807,2,0,P|111:95|182:159,1,200
144,160,36275,1,0,0:0:0:0:
4,323,36432,6,0,L|25:208,1,100
160,319,36744,2,0,L|77:375,1,100,0|0,3:0|3:0,3:0:0:0:
46,193,37057,2,0,L|29:292,1,100
159,362,37369,2,0,L|241:305,1,100,0|0,3:0|3:0,3:0:0:0:
396,315,37682,5,0,0:0:0:0:
325,351,37838,1,0,0:0:0:0:
290,158,37994,2,0,P|308:229|292:266,1,100
179,190,38307,2,0,P|213:112|202:-10,1,200
186,14,38775,1,0,0:0:0:0:
290,158,38932,6,0,P|327:189|376:196,1,100
512,132,39244,2,0,P|474:100|425:93,1,100
368,234,39557,2,0,P|319:227|281:195,1,100
416,131,39869,2,0,P|464:137|502:169,1,100
327,349,40182,6,0,P|377:287|523:248,2,200
362,351,40963,1,0,0:0:0:0:
373,190,41119,1,0,0:0:0:0:
145,303,41275,6,0,B|220:305|281:237|281:237|295:159,1,200
204,7,41744,2,0,B|216:150|216:150|201:231,1,200
175,183,42213,1,0,0:0:0:0:
288,69,42369,2,0,L|391:78,1,100
512,185,42682,6,0,P|465:98|476:-16,2,200
512,150,43463,1,0,0:0:0:0:
288,183,43619,1,0,0:0:0:0:
387,324,43775,6,0,B|440:251|407:171|407:171|349:147,1,200
209,104,44244,2,0,L|309:94,2,100
141,59,44713,1,0,0:0:0:0:
0,191,44869,2,0,P|69:209|103:253,1,100
170,192,45182,6,0,P|274:183|331:213,2,160
190,204,45963,1,0,0:0:0:0:
340,291,46119,2,0,P|300:293|261:303,1,80
124,326,46432,5,0,0:0:0:0:
190,204,46588,2,0,L|183:302,1,80
32,324,46900,2,0,B|16:223|16:223|30:140,1,160
191,128,47369,1,0,0:0:0:0:
119,259,47525,5,0,0:0:0:0:
106,243,47603,1,0,0:0:0:0:
93,228,47682,2,0,L|109:123,1,80
65,26,47994,1,0,0:0:0:0:
149,56,48150,2,0,P|226:35|306:36,1,160
464,21,48619,1,0,0:0:0:0:
389,75,48775,1,0,0:0:0:0:
455,188,48932,6,0,P|461:94|456:85,2,80
293,261,49400,2,0,B|403:249|403:249|451:269,1,160
512,384,49869,1,0,0:0:0:0:
425,344,50025,1,0,0:0:0:0:
472,172,50182,5,0,0:0:0:0:
464,181,50494,2,0,L|360:172,1,80
389,51,50807,1,0,0:0:0:0:
318,110,50963,2,0,L|153:126,1,160
64,33,51432,6,0,P|74:93|67:118,1,80
179,202,51744,1,0,0:0:0:0:
30,254,51900,2,0,P|20:194|27:169,1,80
158,116,52213,1,0,0:0:0:0:
123,256,52369,1,0,0:0:0:0:
103,184,52525,1,0,0:0:0:0:
245,20,52682,6,0,L|236:114,1,80
344,192,52994,2,0,P|367:255|355:371,1,160
338,326,53463,1,0,0:0:0:0:
493,251,53619,1,0,0:0:0:0:
460,321,53775,1,0,0:0:0:0:
439,193,53932,6,0,L|447:113,1,80
343,13,54244,2,0,L|352:93,1,80
480,7,54557,2,0,L|471:86,1,80
255,159,54869,1,0,0:0:0:0:
255,159,55182,5,0,0:0:0:0:
0,51,55338,2,0,P|90:23|213:50,1,200
297,86,55807,2,0,P|344:71|392:83,1,100
328,262,56119,5,0,0:0:0:0:
379,185,56275,2,0,L|500:194,2,100
316,292,56744,2,0,B|161:304|161:304|116:323,2,200
299,328,57525,1,0,0:0:0:0:
182,134,57682,5,0,0:0:0:0:
43,278,57838,2,0,P|71:212|46:75,1,200
195,3,58307,2,0,P|161:68|162:112,1,100
364,55,58619,5,0,0:0:0:0:
270,131,58775,2,0,P|309:192|347:214,2,100
490,55,59244,2,0,B|467:204|467:204|470:278,2,200
512,89,60025,1,0,0:0:0:0:
256,119,60182,5,0,0:0:0:0:
251,138,60494,1,0,0:0:0:0:
246,157,60807,2,0,L|234:40,1,100
48,28,61119,5,0,0:0:0:0:
134,85,61275,2,0,L|125:185,2,100
17,148,61744,2,0,P|42:232|23:351,1,200
0,315,62213,1,0,0:0:0:0:
205,349,62369,2,0,P|256:326|311:322,1,100
375,338,62682,1,0,0:0:0:0:
505,233,62838,5,0,0:0:0:0:
238,281,62994,2,0,L|249:146,1,100
464,124,63307,2,0,L|473:224,1,100
218,150,63619,1,0,0:0:0:0:
209,50,63775,2,0,P|115:81|17:65,1,200
26,274,64244,5,0,0:0:0:0:
35,174,64400,1,0,0:0:0:0:
224,337,64557,1,0,0:0:0:0:
211,197,64713,1,0,0:0:0:0:
464,124,64869,1,0,0:0:0:0:
448,304,65025,1,0,0:0:0:0:
448,304,65494,6,0,L|288:317,1,160,0|0,3:0|3:0,3:0:0:0:
257,292,65807,2,0,L|416:278,1,160,0|0,3:0|3:0,3:0:0:0:
480,327,66119,2,0,L|320:340,1,160,0|0,3:0|3:0,3:0:0:0:
223,269,66432,2,0,L|382:255,1,160,0|0,3:0|3:0,3:0:0:0:
511,350,66744,2,0,L|351:363,1,160,0|0,3:0|3:0,3:0:0:0:
194,239,67057,6,0,B|310:229|310:229|349:204,2,160,0|0|0,3:0|3:0|3:0,3:0:0:0:
40,135,67525,2,0,P|148:159|169:285,1,230.000004386902
370,128,67994,2,0,P|292:143|265:184,2,115.000002193451
361,163,68463,1,0,0:0:0:0:
321,0,68619,1,0,0:0:0:0:
506,30,68775,6,0,B|485:192|485:192|492:270,1,230.000004386902
262,248,69244,2,0,L|250:371,1,115.000002193451
464,384,69557,2,0,L|453:269,1,115.000002193451
223,259,69869,1,0,0:0:0:0:
339,301,70025,1,0,0:0:0:0:
80,325,70182,6,0,P|71:218|144:109,1,230.000004386902
101,298,70650,1,0,0:0:0:0:
5,169,70807,1,0,0:0:0:0:
68,22,70963,1,0,0:0:0:0:
143,43,71119,2,0,L|269:31,1,115.000002193451
428,129,71432,5,0,0:0:0:0:
314,116,71588,2,0,P|336:199|319:359,1,230.000004386902
296,317,72057,1,0,0:0:0:0:
334,136,72213,2,0,P|374:58|407:36,1,115.000002193451
210,173,72525,6,0,B|192:137|151:100|96:91|53:101|53:101|41:158,1,230.000004386902
128,368,72994,1,0,0:0:0:0:
117,253,73150,1,0,0:0:0:0:
138,169,73307,1,0,0:0:0:0:
286,51,73463,2,0,P|266:130|222:174,2,115.000002193451
188,107,73932,1,0,0:0:0:0:
462,69,74088,5,0,0:0:0:0:
265,184,74244,2,0,L|276:311,1,115.000002193451
449,224,74557,2,0,L|437:351,1,115.000002193451
116,327,74869,1,0,0:0:0:0:
103,174,75025,1,0,0:0:0:0:
103,174,75494,6,0,P|203:198|275:162,1,160
284,153,75807,2,0,P|184:129|112:165,1,160
72,199,76119,2,0,P|172:223|244:187,1,160
317,129,76432,2,0,P|217:105|145:141,1,160
43,225,76744,2,0,P|143:249|215:213,1,160
348,102,77057,6,0,B|321:81|278:69|238:77|225:85|225:85|192:118,2,160
388,372,77525,2,0,B|410:205|410:205|437:138,1,230.000004386902
297,16,77994,2,0,L|323:165,2,115.000002193451
333,31,78463,1,0,0:0:0:0:
115,16,78619,1,0,0:0:0:0:
26,42,78775,6,0,P|32:144|1:281,1,230.000004386902
116,384,79244,2,0,P|108:301|80:243,1,115.000002193451
262,166,79557,2,0,P|244:220|243:278,1,115.000002193451
480,265,79869,1,0,0:0:0:0:
365,254,80025,1,0,0:0:0:0:
257,312,80182,6,0,P|201:211|94:253,1,230.000004386902
0,102,80650,2,0,P|46:135|103:134,1,115.000002193451
87,97,80963,1,0,0:0:0:0:
228,182,81119,2,0,L|217:67,1,115.000002193451,0|0,0:3|0:3,0:3:0:0:
425,25,81432,2,0,L|414:139,1,115.000002193451,0|0,0:3|0:3,0:3:0:0:
462,359,81744,1,0,0:0:0:0:
479,248,81900,2,0,P|400:260|347:245,1,115.000002193451
178,280,82213,5,0,0:0:0:0:
211,275,82291,1,0,0:0:0:0:
245,278,82369,1,0,0:0:0:0:
278,290,82447,1,0,0:0:0:0:
307,309,82525,1,0,0:0:0:0:
330,333,82603,1,0,0:0:0:0:
347,364,82682,6,0,P|410:333|458:332,1,100
355,220,82994,1,0,0:0:0:0:
257,202,83150,1,0,0:0:0:0:
272,384,83307,2,0,P|177:390|65:330,1,200
40,283,83775,1,0,0:0:0:0:
124,146,83932,6,0,L|114:266,1,100
238,119,84244,2,0,L|247:-1,1,100
104,118,84557,2,0,L|-16:108,1,100
260,143,84869,2,0,L|380:152,1,100
488,42,85182,5,0,0:0:0:0:
388,49,85338,1,0,0:0:0:0:
381,267,85494,2,0,P|380:185|362:153,1,100
158,226,85807,2,0,B|155:319|240:353|240:353|295:333,1,200
303,273,86275,1,0,0:0:0:0:
172,306,86432,6,0,P|135:268|51:232,1,100
321,336,86744,2,0,P|357:298|441:262,1,100
159,335,87057,2,0,P|109:321|18:332,1,100
309,363,87369,2,0,P|359:349|450:360,1,100
220,107,87682,6,0,B|233:251|233:251|254:305,2,200
185,119,88463,1,0,0:0:0:0:
369,0,88619,1,0,0:0:0:0:
434,67,88775,6,0,P|339:75|238:22,1,200
22,57,89244,2,0,B|94:18|167:63|167:63|145:114,1,200
112,116,89713,1,0,0:0:0:0:
332,51,89869,2,0,P|403:70|425:92,1,100
291,340,90182,6,0,P|386:309|432:198,2,200
261,328,90963,1,0,0:0:0:0:
510,276,91119,1,0,0:0:0:0:
426,192,91275,6,0,P|405:287|456:371,1,200
326,218,91744,2,0,B|316:79|316:79|274:18,1,200
262,63,92213,1,0,0:0:0:0:
48,46,92369,2,0,P|97:54|140:79,1,100
