osu file format v14

[General]
AudioFilename: audio.mp3
AudioLeadIn: 0
PreviewTime: 43676
Countdown: 0
SampleSet: Soft
StackLeniency: 0.7
Mode: 0
LetterboxInBreaks: 0
WidescreenStoryboard: 0

[Editor]
Bookmarks: 109073
DistanceSpacing: 1.4
BeatDivisor: 4
GridSize: 32
TimelineZoom: 3.199999

[Metadata]
Title:Slingshot
TitleUnicode:Slingshot
Artist:Good Kid
ArtistUnicode:Good Kid
Creator:wafer
Version:Falling Apart
Source:
Tags:english rock indie FA featured artist punk goopert kami no kotoba enneya een persoon crowley
BeatmapID:3697057
BeatmapSetID:1802930

[Difficulty]
HPDrainRate:6
CircleSize:4
OverallDifficulty:8.8
ApproachRate:9.3
SliderMultiplier:1.8
SliderTickRate:1

[Events]
//Background and Video events
0,0,"what.jpg",0,0
//Break Periods
2,56099,65345
2,107010,108519
//Storyboard Layer 0 (Background)
//Storyboard Layer 1 (Fail)
//Storyboard Layer 2 (Pass)
//Storyboard Layer 3 (Foreground)
//Storyboard Layer 4 (Overlay)
//Storyboard Sound Samples

[TimingPoints]
26,317.460317460318,4,2,1,40,1,0
26,-200,4,2,1,40,0,0
2406,-100,4,2,1,70,0,0
12724,-133.333333333333,4,2,1,60,0,0
14152,-166.666666666667,4,2,1,50,0,0
22883,-133.333333333333,4,2,1,60,0,0
33041,-76.9230769230769,4,2,1,80,0,0
36692,-100,4,2,1,80,0,0
38121,-76.9230769230769,4,2,1,80,0,0
41772,-100,4,2,1,80,0,0
43200,-86.9565217391304,4,2,1,80,0,0
55422,-86.9565217391304,4,2,1,60,0,0
55899,-86.9565217391304,4,2,1,50,0,0
66057,-133.333333333333,4,2,1,50,0,0
67486,-166.666666666667,4,2,1,50,0,0
76216,-133.333333333333,4,2,1,60,0,0
86375,-76.9230769230769,4,2,1,80,0,0
90026,-100,4,2,1,80,0,0
91454,-76.9230769230769,4,2,1,80,0,0
95105,-100,4,2,1,80,0,0
96533,-86.9565217391304,4,2,1,80,0,0
109073,-100,4,2,1,70,0,0
118756,-100,4,2,1,80,0,0
119391,-76.9230769230769,4,2,1,80,0,0
123041,-100,4,2,1,80,0,0
124470,-76.9230769230769,4,2,1,80,0,0
128121,-100,4,2,1,80,0,0
129549,-86.9565217391304,4,2,1,80,0,0

[Colours]
Combo1 : 129,173,188
Combo2 : 247,196,89
Combo3 : 147,218,112
Combo4 : 199,146,199

[HitObjects]
75,31,26,6,0,L|26:45,1,45,10|0,1:2|2:0,2:0:0:0:
119,119,343,1,2,2:0:0:0:
84,110,502,1,0,2:0:0:0:
43,177,660,1,2,2:0:0:0:
8,185,819,1,0,2:0:0:0:
52,256,978,2,0,L|101:270,1,45,2|0,2:0|2:0,2:0:0:0:
8,344,1295,1,2,2:0:0:0:
29,337,1454,1,0,2:0:0:0:
51,331,1613,1,2,2:0:0:0:
139,205,1772,6,0,L|130:107,1,90,2|0,2:0|2:0,2:0:0:0:
131,115,2406,6,0,P|223:108|277:199,1,180,6|0,1:2|2:0,2:0:0:0:
392,292,2883,2,0,P|443:279|493:271,1,90,10|0,2:0|2:0,2:0:0:0:
288,256,3200,5,2,1:2:0:0:
426,131,3359,1,2,1:2:0:0:
288,256,3518,2,8,P|237:243|187:235,1,90,10|0,2:0|1:0,2:0:0:0:
252,89,3835,5,2,2:0:0:0:
384,207,3994,1,2,1:2:0:0:
252,89,4152,2,8,P|239:38|231:-12,1,90,10|0,2:0|2:0,2:0:0:0:
388,211,4470,5,2,1:2:0:0:
180,148,4629,1,2,1:2:0:0:
383,64,4787,1,8,0:0:0:0:
320,6,4946,6,0,B|423:29|365:82|495:102,1,180,6|0,1:0|2:0,2:0:0:0:
304,199,5422,2,0,P|291:161|281:113,1,90,10|0,2:0|2:0,2:0:0:0:
145,234,5740,1,2,1:2:0:0:
216,48,5899,1,2,1:2:0:0:
368,135,6057,1,8,2:0:0:0:
57,17,6216,6,2,B|72:61|72:61|52:116|92:220,1,180,2|0,1:0|1:0,2:1:0:0:
298,344,6692,5,10,2:0:0:0:
145,122,6851,5,2,2:0:0:0:
87,346,7010,5,2,1:2:0:0:
256,186,7168,5,2,1:2:0:0:
478,334,7327,5,10,2:0:0:0:
256,186,7486,6,0,P|273:101|371:83,1,180,6|0,1:2|2:0,2:0:0:0:
470,233,7962,2,0,P|419:220|369:212,1,90,10|0,2:0|2:0,2:0:0:0:
170,107,8279,5,2,1:2:0:0:
312,258,8438,1,2,1:2:0:0:
170,107,8597,2,8,P|221:94|271:86,1,90,10|0,2:0|1:0,2:0:0:0:
149,256,8914,5,2,2:0:0:0:
343,151,9073,1,2,1:2:0:0:
149,256,9232,2,8,P|98:243|48:235,1,90,10|0,2:0|2:0,2:0:0:0:
353,149,9549,5,2,1:2:0:0:
207,316,9708,1,2,1:2:0:0:
133,104,9866,1,8,0:0:0:0:
35,96,10026,6,0,B|138:119|80:172|210:192,1,180,6|0,1:0|2:0,2:0:0:0:
345,58,10502,2,0,P|387:72|431:81,1,90,10|0,2:0|2:0,2:0:0:0:
257,224,10819,1,2,1:2:0:0:
161,43,10978,1,2,1:2:0:0:
361,152,11137,1,8,2:0:0:0:
52,201,11295,6,2,B|69:185|67:157|67:157|36:95|87:-2,1,180,2|0,1:0|1:0,2:1:0:0:
256,192,11772,5,10,2:0:0:0:
32,320,11930,5,2,2:0:0:0:
88,107,12089,5,2,1:2:0:0:
256,186,12248,5,2,1:2:0:0:
27,326,12406,5,10,2:0:0:0:
129,357,12565,1,2,1:2:0:0:
332,370,12724,6,0,B|340:323|340:323|360:261,1,101.25,6|0,1:2|2:0,2:0:0:0:
356,272,13041,2,0,L|344:198,1,67.5000000000002,8|0,2:0|2:0,2:0:0:0:
501,93,13359,2,0,P|450:148|374:120,1,135,2|8,2:0|2:0,2:0:0:0:
307,40,13835,1,2,2:0:0:0:
235,5,13994,1,2,2:0:0:0:
307,40,14152,2,0,L|312:114,1,53.9999999999999,2|8,2:0|2:0,2:0:0:0:
246,180,14470,2,0,P|207:141|150:137,1,108,2|2,2:0|2:0,2:0:0:0:
4,171,14946,1,8,2:0:0:0:
49,108,15105,1,2,1:2:0:0:
49,108,15184,1,0,1:2:0:0:
49,108,15264,6,0,L|66:227,1,108,6|8,1:2|2:0,2:0:0:0:
14,302,15740,2,0,L|81:293,1,53.9999999999999,2|0,2:0|2:0,2:0:0:0:
128,346,16057,2,0,L|195:355,1,53.9999999999999,2|8,2:0|2:0,2:0:0:0:
298,273,16375,2,0,P|340:279|400:380,1,162,2|8,2:0|2:0,2:0:0:0:
400,372,17168,6,0,L|485:357,1,80.9999999999998,2|0,2:0|2:0,2:0:0:0:
512,291,17486,2,0,P|510:266|489:227,1,53.9999999999999,10|2,2:0|2:0,2:0:0:0:
364,179,17803,6,0,B|238:202,1,108,6|8,1:2|2:0,2:0:0:0:
81,334,18438,2,0,L|14:325,1,53.9999999999999,2|0,2:0|2:0,2:0:0:0:
1,256,18756,2,0,L|10:189,1,53.9999999999999,10|0,2:0|2:0,2:0:0:0:
95,144,19073,1,2,2:0:0:0:
95,144,19232,2,0,L|90:70,1,53.9999999999999,2|8,2:0|2:0,2:0:0:0:
185,32,19549,2,0,P|229:33|274:92,1,108,2|2,2:0|2:0,2:0:0:0:
369,198,20026,1,8,2:0:0:0:
431,146,20184,1,2,1:2:0:0:
431,146,20264,1,2,1:2:0:0:
431,146,20343,6,0,L|414:27,1,108,6|8,1:2|2:0,2:0:0:0:
342,68,20819,2,0,L|333:135,1,53.9999999999999,2|0,2:0|2:0,2:0:0:0:
241,168,21137,2,0,L|250:235,1,53.9999999999999,2|8,2:0|2:0,2:0:0:0:
369,323,21454,2,0,B|406:331|406:331|417:340|417:340|493:359,1,108,2|2,2:0|2:0,2:0:0:0:
457,243,21930,2,0,L|390:252,1,53.9999999999999,10|0,2:0|2:0,2:0:0:0:
281,365,22248,1,2,2:0:0:0:
210,321,22406,1,2,2:0:0:0:
281,365,22565,2,0,L|287:297,1,53.9999999999999,10|0,2:0|2:0,2:0:0:0:
185,205,22883,6,0,B|101:218|142:236|32:247,1,135,6|8,1:2|2:0,2:0:0:0:
7,188,23359,1,2,2:0:0:0:
113,384,23518,2,0,P|116:316|132:251,1,135,2|8,2:0|2:0,2:0:0:0:
218,72,23994,6,0,L|80:96,1,135,2|0,2:0|2:0,2:0:0:0:
209,188,24470,2,0,L|293:209,1,67.5000000000002,10|0,2:0|2:0,2:0:0:0:
377,118,24787,1,2,2:0:0:0:
377,118,24946,2,0,L|311:134,1,67.5000000000002,2|8,2:0|2:0,2:0:0:0:
118,218,25264,6,0,L|134:152,1,67.5000000000002,2|4,1:2|1:2,2:0:0:0:
2,271,25581,2,0,L|86:292,1,67.5000000000002,2|8,2:0|2:0,2:0:0:0:
167,365,25899,2,0,L|251:344,1,67.5000000000002,2|0,2:0|2:0,2:0:0:0:
331,247,26216,1,2,2:0:0:0:
498,301,26375,1,8,2:0:0:0:
415,121,26533,5,2,2:0:0:0:
162,236,26851,5,2,2:0:0:0:
416,357,27168,5,2,2:0:0:0:
259,103,27486,5,2,2:0:0:0:
316,151,27645,2,0,L|305:226,1,67.5000000000002,10|2,2:0|2:0,2:0:0:0:
459,164,27962,6,0,B|481:127|481:127|441:62,1,101.25,6|0,1:0|2:0,2:0:0:0:
428,43,28279,2,0,L|356:59,1,67.5000000000002,10|0,2:0|2:0,2:0:0:0:
225,134,28597,2,0,L|92:153,1,135,2|8,1:2|2:0,2:0:0:0:
28,108,29073,1,2,2:0:0:0:
172,223,29232,5,2,1:2:0:0:
164,297,29391,2,0,L|185:213,1,67.5000000000002,2|8,2:0|2:0,2:0:0:0:
21,190,29708,2,0,L|47:334,1,135,2|2,2:0|2:0,2:0:0:0:
138,373,30184,1,8,2:0:0:0:
244,299,30343,1,2,2:0:0:0:
390,353,30502,6,0,L|478:334,1,67.5000000000002,6|0,1:2|1:0,2:0:0:0:
298,222,30819,2,0,L|210:203,1,67.5000000000002,10|0,2:0|2:0,2:0:0:0:
397,91,31137,1,2,1:2:0:0:
447,217,31295,1,0,1:0:0:0:
298,139,31454,2,0,L|279:51,1,67.5000000000002,10|0,2:0|2:0,2:0:0:0:
5,198,31772,5,2,1:0:0:0:
187,41,31930,2,0,L|206:129,1,67.5000000000002,2|8,1:2|2:0,2:0:0:0:
111,219,32248,2,0,L|92:307,1,67.5000000000002,2|0,2:0|1:0,2:0:0:0:
96,284,32486,1,8,2:0:0:0:
96,284,32565,1,8,2:0:0:0:
116,312,32645,1,8,2:0:0:0:
154,332,32724,1,8,1:2:0:0:
204,336,32803,1,8,1:2:0:0:
245,306,32883,1,8,1:2:0:0:
292,288,32962,1,8,1:2:0:0:
341,296,33041,6,0,B|436:304|394:336|511:351,1,175.5,6|0,1:2|2:0,2:0:0:0:
509,333,33359,2,0,L|482:205,1,117,10|2,2:0|2:0,2:0:0:0:
259,165,33676,1,2,1:2:0:0:
455,106,33835,1,2,2:1:0:0:
203,244,33994,1,8,2:0:0:0:
304,90,34152,2,0,L|430:109,1,117,2|0,2:0|1:0,2:0:0:0:
366,191,34470,1,2,2:0:0:0:
240,29,34629,2,0,L|114:48,1,117,10|0,2:0|2:0,2:0:0:0:
298,230,34946,1,2,1:2:0:0:
103,293,35105,1,2,2:0:0:0:
242,144,35264,1,8,2:0:0:0:
215,235,35422,1,2,2:0:0:0:
372,379,35581,5,6,1:0:0:0:
292,0,35899,5,10,2:0:0:0:
433,321,36216,5,2,1:0:0:0:
287,198,36375,1,2,2:0:0:0:
233,378,36533,1,10,2:0:0:0:
194,204,36692,6,0,L|185:115,1,90,2|0,2:0|1:0,2:0:0:0:
373,257,37010,6,0,L|386:133,1,90,2|8,2:0|2:0,2:0:0:0:
310,331,37327,1,2,2:0:0:0:
497,177,37486,5,2,1:0:0:0:
179,293,37645,1,2,2:0:0:0:
497,177,37803,2,0,P|444:163|414:88,1,135,10|0,2:0|2:0,2:0:0:0:
351,43,38121,6,0,B|243:58|293:85|183:104,1,175.5,6|0,1:2|2:0,2:0:0:0:
168,108,38438,2,0,B|149:56|149:56|186:-18,1,117,10|2,2:0|2:0,2:0:0:0:
285,164,38756,1,2,1:2:0:0:
124,253,38914,1,2,2:1:0:0:
246,51,39073,1,8,2:0:0:0:
357,219,39232,2,0,L|483:238,1,117,2|0,2:0|1:0,2:0:0:0:
440,151,39549,1,2,2:0:0:0:
323,294,39708,2,0,L|197:313,1,117,10|0,2:0|2:0,2:0:0:0:
28,221,40026,1,2,1:2:0:0:
212,174,40184,1,2,2:0:0:0:
0,76,40343,1,8,2:0:0:0:
133,228,40502,1,2,2:0:0:0:
264,19,40660,5,6,1:0:0:0:
373,356,40978,5,10,2:0:0:0:
201,80,41295,5,2,1:0:0:0:
310,212,41454,1,2,2:0:0:0:
372,56,41613,1,10,2:0:0:0:
297,211,41772,6,0,L|284:335,1,90,2|0,2:0|1:0,2:0:0:0:
370,159,42089,6,0,L|383:35,1,90,2|8,2:0|2:0,2:0:0:0:
464,136,42406,1,2,2:0:0:0:
217,234,42565,5,2,1:0:0:0:
423,331,42724,1,2,2:0:0:0:
217,234,42883,5,8,1:2:0:0:
170,230,42962,1,8,1:2:0:0:
126,245,43041,1,8,1:2:0:0:
90,276,43121,1,8,1:2:0:0:
87,293,43200,6,0,P|33:264|36:104,1,207,6|8,1:2|2:0,2:0:0:0:
142,110,43676,1,2,2:0:0:0:
292,243,43835,2,0,P|310:171|326:24,1,207,2|0,1:0|1:0,2:0:0:0:
504,219,44311,6,0,P|466:144|338:131,1,207,6|2,1:2|2:0,2:0:0:0:
221,284,44787,1,10,2:0:0:0:
403,210,44946,1,2,2:0:0:0:
190,124,45105,1,2,1:2:0:0:
356,296,45264,1,8,2:0:0:0:
356,296,45343,1,8,2:0:0:0:
356,296,45422,1,10,2:0:0:0:
245,363,45581,2,0,L|253:312,1,51.75,8|8,2:0|2:0,0:0:0:0:
232,201,45740,6,0,L|22:237,1,207,6|8,1:2|2:0,2:0:0:0:
86,314,46216,1,2,2:0:0:0:
199,112,46375,2,0,B|264:124|264:124|288:148|288:148|408:175,1,207,2|0,1:0|1:0,2:0:0:0:
195,10,46851,6,0,P|157:85|29:98,1,207,6|2,1:2|2:0,2:0:0:0:
225,248,47327,1,10,2:0:0:0:
286,50,47486,1,2,2:0:0:0:
38,223,47645,1,2,1:2:0:0:
308,336,47803,1,8,2:0:0:0:
308,336,47883,1,8,2:0:0:0:
308,336,47962,1,10,2:0:0:0:
159,179,48121,1,10,2:0:0:0:
419,306,48279,6,0,P|471:292|453:148,1,207,6|8,1:2|2:0,2:0:0:0:
381,192,48756,1,2,2:0:0:0:
245,20,48914,2,0,P|263:92|279:239,1,207,2|0,1:0|1:0,2:0:0:0:
472,19,49391,6,0,P|431:75|291:88,1,207,6|2,1:2|2:0,2:0:0:0:
140,190,49867,1,10,2:0:0:0:
393,187,50026,1,2,2:0:0:0:
170,79,50184,1,2,1:2:0:0:
280,310,50343,1,8,2:0:0:0:
280,310,50422,1,8,2:0:0:0:
280,310,50502,1,10,2:0:0:0:
413,109,50660,2,0,L|464:101,1,51.75,8|8,2:0|2:0,2:0:0:0:
218,199,50819,6,0,B|145:208|145:208|118:248|118:248|26:266,1,207,6|8,1:2|0:0,2:0:0:0:
171,102,51295,1,2,2:0:0:0:
238,348,51454,5,2,1:2:0:0:
56,170,51613,1,2,2:0:0:0:
258,362,51772,5,10,2:0:0:0:
278,49,51930,1,2,2:0:0:0:
30,274,52089,6,0,P|73:335|148:342,1,155.25,6|0,1:2|2:0,2:0:0:0:
201,285,52406,1,10,2:0:0:0:
471,372,52565,1,2,2:0:0:0:
411,104,52724,1,2,1:2:0:0:
266,353,52883,1,8,2:0:0:0:
266,353,52962,1,8,2:0:0:0:
266,353,53041,1,10,2:0:0:0:
408,139,53200,1,10,2:0:0:0:
126,231,53359,5,2,1:0:0:0:
126,231,53676,5,8,1:2:0:0:
512,194,53835,1,2,1:0:0:0:
512,194,54152,5,8,1:2:0:0:
137,57,54311,1,2,1:0:0:0:
137,57,55422,5,8,2:0:0:0:
137,57,55502,1,8,2:0:0:0:
137,57,55581,1,8,2:0:0:0:
256,320,55899,5,4,1:2:0:0:
19,155,65899,5,2,2:0:0:0:
63,5,66057,6,0,B|83:44|83:44|76:111,1,101.25,6|0,1:2|2:0,2:0:0:0:
123,158,66375,2,0,L|197:170,1,67.5000000000002,8|0,2:0|2:0,2:0:0:0:
317,135,66692,2,0,P|332:73|279:21,1,135,2|8,2:0|2:0,2:0:0:0:
210,87,67168,1,2,2:0:0:0:
267,208,67327,1,2,2:0:0:0:
267,208,67486,2,0,L|341:213,1,53.9999999999999,2|8,2:0|2:0,2:0:0:0:
411,153,67803,2,0,L|485:158,1,53.9999999999999,2|0,2:0|2:0,2:0:0:0:
428,266,68121,2,0,L|354:261,1,53.9999999999999,2|8,2:0|2:0,2:0:0:0:
320,211,68438,1,2,1:2:0:0:
320,211,68518,1,0,1:2:0:0:
320,211,68597,6,0,L|201:228,1,108,6|8,1:2|2:0,2:0:0:0:
176,343,69073,1,2,2:0:0:0:
241,298,69232,1,2,2:0:0:0:
176,343,69391,2,0,L|168:283,1,53.9999999999999,2|8,2:0|2:0,2:0:0:0:
81,364,69708,2,0,P|88:327|89:190,1,162,2|8,2:0|2:0,2:0:0:0:
90,203,70502,6,0,L|5:188,1,80.9999999999998,2|0,2:0|2:0,2:0:0:0:
0,118,70819,2,0,P|6:95|43:67,1,53.9999999999999,10|2,2:0|2:0,2:0:0:0:
149,24,71137,6,0,B|275:47,1,108,6|8,1:2|2:0,2:0:0:0:
399,166,71772,2,0,L|466:157,1,53.9999999999999,2|0,2:0|2:0,2:0:0:0:
508,79,72089,2,0,L|499:12,1,53.9999999999999,10|0,2:0|2:0,2:0:0:0:
346,93,72406,1,2,2:0:0:0:
346,93,72565,2,0,L|420:88,1,53.9999999999999,2|8,2:0|2:0,2:0:0:0:
488,235,72883,2,0,P|433:233|379:244,1,108,2|2,2:0|2:0,2:0:0:0:
274,177,73359,1,8,2:0:0:0:
228,242,73518,1,2,1:2:0:0:
228,242,73597,1,2,1:2:0:0:
228,242,73676,6,0,L|211:123,1,108,6|8,1:2|2:0,2:0:0:0:
159,77,74152,2,0,L|168:10,1,53.9999999999999,2|0,2:0|2:0,2:0:0:0:
81,88,74470,2,0,L|14:97,1,53.9999999999999,2|8,2:0|2:0,2:0:0:0:
126,211,74787,2,0,B|159:218|159:218|170:229|170:229|246:245,1,108,2|2,2:0|2:0,2:0:0:0:
321,182,75264,1,8,2:0:0:0:
216,101,75422,2,0,L|210:169,1,53.9999999999999,2|0,2:0|2:0,2:0:0:0:
227,241,75740,1,2,2:0:0:0:
395,211,75899,2,0,L|399:157,1,53.9999999999999,10|0,2:0|2:0,2:0:0:0:
227,241,76216,6,0,B|140:252|182:278|74:283,1,135,6|8,1:2|2:0,2:0:0:0:
25,345,76692,1,2,2:0:0:0:
71,188,76851,2,0,P|141:214|210:220,1,135,2|8,2:0|2:0,2:0:0:0:
307,346,77327,6,0,L|443:331,1,135,2|0,2:0|2:0,2:0:0:0:
487,270,77803,2,0,L|476:187,1,67.5000000000002,10|0,0:2|2:0,2:0:0:0:
344,129,78121,1,2,2:0:0:0:
344,129,78279,2,0,L|333:46,1,67.5000000000002,2|8,1:2|2:0,2:0:0:0:
446,2,78597,6,0,L|425:150,1,135,2|2,1:2|2:0,2:0:0:0:
363,262,79073,1,8,2:0:0:0:
242,192,79232,2,0,L|325:203,1,67.5000000000002,2|0,2:0|2:0,2:0:0:0:
482,86,79549,2,0,L|471:3,1,67.5000000000002,2|8,2:0|2:0,2:0:0:0:
265,105,79867,5,2,2:0:0:0:
490,235,80184,5,2,2:0:0:0:
255,359,80502,5,2,2:0:0:0:
427,135,80819,5,2,2:0:0:0:
361,178,80978,2,0,L|350:253,1,67.5000000000002,10|2,2:0|2:0,2:0:0:0:
171,328,81295,6,0,B|139:285|139:285|63:291,1,101.25,6|0,1:0|2:0,2:0:0:0:
15,294,81613,2,0,L|87:310,1,67.5000000000002,10|0,2:0|2:0,2:0:0:0:
237,258,81930,2,0,L|218:125,1,135,2|8,1:2|2:0,2:0:0:0:
201,28,82406,1,2,2:0:0:0:
118,217,82565,5,2,1:2:0:0:
14,134,82724,2,0,L|141:158,1,67.5000000000002,2|8,2:0|2:0,2:0:0:0:
274,63,83041,2,0,L|418:89,1,135,2|2,2:0|2:0,2:0:0:0:
510,248,83518,1,8,2:0:0:0:
391,179,83676,1,2,2:0:0:0:
288,261,83835,6,0,L|376:242,1,67.5000000000002,6|0,1:2|1:0,2:0:0:0:
472,101,84152,2,0,L|384:82,1,67.5000000000002,10|0,2:0|2:0,2:0:0:0:
271,179,84470,1,2,1:2:0:0:
430,245,84629,1,0,1:0:0:0:
278,88,84787,2,0,L|169:104,1,101.25,10|0,2:0|2:0,2:0:0:0:
105,150,85105,5,2,1:0:0:0:
296,0,85264,2,0,L|277:88,1,67.5000000000002,2|8,1:2|2:0,2:0:0:0:
430,245,85581,2,0,L|518:264,1,67.5000000000002,2|0,2:0|1:0,2:0:0:0:
495,259,85819,1,8,2:0:0:0:
495,259,85899,1,8,2:0:0:0:
475,287,85978,1,8,2:0:0:0:
431,311,86057,1,8,1:2:0:0:
380,308,86137,1,8,1:2:0:0:
340,275,86216,1,8,1:2:0:0:
326,226,86295,1,8,1:2:0:0:
342,177,86375,6,0,P|353:102|359:-10,1,175.5,6|0,1:2|2:0,2:0:0:0:
312,0,86692,2,0,P|273:48|285:128,1,117,10|2,2:0|2:0,2:0:0:0:
490,190,87010,1,2,1:2:0:0:
257,175,87168,1,2,2:1:0:0:
491,89,87327,1,8,2:0:0:0:
344,303,87486,2,0,L|470:284,1,117,2|0,2:0|1:0,2:0:0:0:
341,178,87803,1,2,2:0:0:0:
240,355,87962,2,0,L|114:336,1,117,10|0,2:0|2:0,2:0:0:0:
272,148,88279,1,2,1:2:0:0:
54,227,88438,1,2,2:0:0:0:
272,252,88597,1,8,2:0:0:0:
133,132,88756,1,2,2:0:0:0:
5,345,88914,5,6,1:0:0:0:
502,160,89232,5,10,2:0:0:0:
44,237,89549,5,2,1:0:0:0:
217,366,89708,1,2,2:0:0:0:
272,148,89867,1,10,2:0:0:0:
197,289,90026,6,0,L|210:165,1,90,2|0,2:0|1:0,2:0:0:0:
338,94,90343,6,0,L|325:-30,1,90,2|8,2:0|2:0,2:0:0:0:
205,42,90660,1,2,2:0:0:0:
497,207,90819,5,2,1:0:0:0:
189,116,90978,1,2,2:0:0:0:
497,207,91137,2,0,P|469:147|395:133,1,135,10|0,2:0|2:0,2:0:0:0:
348,197,91454,6,0,B|240:212|290:239|180:258,1,175.5,6|0,1:2|2:0,2:0:0:0:
140,245,91772,2,0,P|114:195|87:110,1,117,10|2,2:0|2:0,2:0:0:0:
331,270,92089,1,2,1:2:0:0:
78,311,92248,1,2,2:1:0:0:
300,125,92406,1,8,2:0:0:0:
159,39,92565,2,0,L|33:20,1,117,2|0,2:0|1:0,2:0:0:0:
207,169,92883,1,2,2:0:0:0:
336,51,93041,2,0,L|462:70,1,117,10|0,2:0|2:0,2:0:0:0:
344,240,93359,1,2,1:2:0:0:
229,87,93518,1,2,2:0:0:0:
479,183,93676,1,8,2:0:0:0:
294,163,93835,1,2,2:0:0:0:
191,364,93994,5,6,1:0:0:0:
284,0,94311,5,10,2:0:0:0:
260,318,94629,5,2,1:0:0:0:
151,166,94787,1,2,2:0:0:0:
104,326,94946,1,10,2:0:0:0:
179,171,95105,6,0,L|192:47,1,90,2|0,2:0|1:0,2:0:0:0:
37,165,95422,6,0,L|50:289,1,90,2|8,2:0|2:0,2:0:0:0:
67,349,95740,1,2,2:0:0:0:
249,218,95899,5,2,1:0:0:0:
37,165,96057,1,2,2:0:0:0:
249,218,96216,5,8,1:2:0:0:
302,222,96295,1,8,1:2:0:0:
352,205,96375,1,8,1:2:0:0:
393,170,96454,1,8,1:2:0:0:
415,117,96533,6,0,P|380:53|246:66,1,207,6|8,1:2|2:0,2:0:0:0:
142,110,97010,1,2,2:0:0:0:
283,297,97168,2,0,P|355:279|502:263,1,207,2|0,1:0|1:0,2:0:0:0:
275,137,97645,6,0,P|237:212|110:238,1,207,6|2,1:2|2:0,2:0:0:0:
23,81,98121,1,10,2:0:0:0:
185,143,98279,1,2,2:0:0:0:
3,266,98438,1,2,1:2:0:0:
117,71,98597,1,8,2:0:0:0:
117,71,98676,1,8,2:0:0:0:
117,71,98756,1,10,2:0:0:0:
206,331,98914,1,8,2:0:0:0:
206,331,98994,1,10,2:0:0:0:
206,331,99073,6,0,L|416:367,1,207,6|8,1:2|2:0,2:0:0:0:
512,278,99549,1,2,2:0:0:0:
333,97,99708,2,0,B|315:200|315:200|377:281,1,207,2|0,1:0|1:0,2:0:0:0:
238,147,100184,6,0,P|177:226|77:230,1,207,6|2,1:2|2:0,2:0:0:0:
101,25,100660,1,10,2:0:0:0:
0,205,100819,1,2,2:0:0:0:
244,56,100978,1,2,1:2:0:0:
131,293,101137,1,8,2:0:0:0:
131,293,101216,1,8,2:0:0:0:
131,293,101295,1,10,2:0:0:0:
304,103,101454,1,10,2:0:0:0:
419,306,101613,6,0,P|471:292|453:148,1,207,6|8,1:2|2:0,2:0:0:0:
360,219,102089,1,2,2:0:0:0:
309,15,102248,2,0,P|381:33|528:49,1,207,2|0,1:0|1:0,2:0:0:0:
274,244,102724,6,0,P|233:188|93:175,1,207,6|2,1:2|2:0,2:0:0:0:
10,334,103200,1,10,2:0:0:0:
217,297,103359,1,2,2:0:0:0:
35,242,103518,1,2,1:2:0:0:
216,108,103676,1,8,2:0:0:0:
216,108,103756,1,8,2:0:0:0:
216,108,103835,1,10,2:0:0:0:
282,339,103994,2,8,L|333:331,1,51.75,8|8,2:0|2:0,2:0:0:0:
118,200,104152,6,0,B|109:127|109:127|69:100|69:100|51:8,1,207,6|8,1:2|0:0,2:0:0:0:
222,127,104629,1,2,2:0:0:0:
26,318,104787,5,2,1:2:0:0:
320,247,104946,1,2,2:0:0:0:
41,294,105105,5,10,2:0:0:0:
419,356,105264,1,2,2:0:0:0:
154,246,105422,6,0,B|103:233|103:233|86:209|86:209|3:195,1,155.25,6|0,1:2|2:0,2:0:0:0:
0,273,105740,1,10,2:0:0:0:
239,122,105899,1,2,2:0:0:0:
255,373,106057,1,2,1:2:0:0:
421,128,106216,1,8,2:0:0:0:
421,128,106295,1,8,2:0:0:0:
421,128,106375,1,10,2:0:0:0:
228,232,106533,1,10,2:0:0:0:
507,371,106692,5,6,1:0:0:0:
91,353,109073,6,2,P|79:294|73:159,1,180,6|2,1:2|2:0,2:0:0:0:
0,290,109549,1,8,2:0:0:0:
149,239,109708,2,0,P|159:186|175:139,1,90,2|0,2:0|1:0,2:0:0:0:
170,151,110026,1,0,1:0:0:0:
16,38,110184,1,8,2:0:0:0:
231,98,110343,5,2,1:2:0:0:
246,96,110422,1,2,2:0:0:0:
261,95,110502,1,2,2:0:0:0:
276,93,110581,1,2,2:0:0:0:
291,92,110660,1,2,1:2:0:0:
444,175,110819,2,0,L|450:122,1,45,10|0,2:0|2:0,2:0:0:0:
396,67,110978,2,0,P|415:191|423:287,1,180,2|2,2:0|1:2,2:0:0:0:
243,349,111454,1,8,2:0:0:0:
485,312,111613,6,0,B|393:298|426:283|298:265,1,180,2|2,1:2|2:0,2:0:0:0:
152,357,112089,1,8,2:0:0:0:
223,246,112248,1,2,2:0:0:0:
42,317,112406,5,2,1:0:0:0:
248,357,112565,1,0,1:0:0:0:
133,240,112724,1,10,2:0:0:0:
290,171,112883,1,0,1:2:0:0:
67,117,113041,5,2,2:0:0:0:
217,236,113200,1,2,1:2:0:0:
50,315,113359,1,10,2:0:0:0:
174,151,113518,1,2,2:0:0:0:
344,283,113676,1,2,1:2:0:0:
171,157,113835,1,2,1:2:0:0:
277,363,113994,1,8,2:0:0:0:
433,245,114152,6,2,P|421:186|415:51,1,180,6|2,1:2|2:0,2:0:0:0:
342,197,114629,1,8,2:0:0:0:
489,113,114787,1,2,2:0:0:0:
491,101,114867,1,2,2:0:0:0:
494,90,114946,1,2,1:2:0:0:
351,10,115105,1,0,1:0:0:0:
455,177,115264,1,8,2:0:0:0:
252,78,115422,5,2,1:2:0:0:
237,80,115502,1,2,2:0:0:0:
222,81,115581,1,2,2:0:0:0:
207,83,115660,1,2,2:0:0:0:
192,84,115740,1,2,1:2:0:0:
50,0,115899,2,0,B|47:18|47:18|55:59,1,45,10|0,2:0|2:0,2:0:0:0:
106,97,116057,2,0,B|108:136|108:136|76:214|79:317,1,180,2|2,2:0|1:2,2:0:0:0:
208,383,116533,1,8,2:0:0:0:
5,314,116692,6,0,B|41:325|41:325|118:287|118:287|193:303,1,180,2|2,1:2|2:0,2:0:0:0:
328,372,117168,1,8,2:0:0:0:
257,263,117327,1,2,2:0:0:0:
470,317,117486,5,2,1:0:0:0:
217,367,117645,1,0,1:0:0:0:
439,233,117803,1,10,2:0:0:0:
275,181,117962,1,0,1:2:0:0:
468,82,118121,5,2,2:0:0:0:
369,280,118279,1,2,1:2:0:0:
456,65,118438,1,10,2:0:0:0:
352,284,118597,1,2,2:0:0:0:
223,28,118756,5,14,1:2:0:0:
223,28,119073,5,14,1:2:0:0:
223,28,119391,6,0,B|128:36|170:68|53:83,1,175.5,6|0,1:2|2:0,2:0:0:0:
31,105,119708,2,0,L|58:233,1,117,10|2,2:0|2:0,2:0:0:0:
253,165,120026,1,2,1:2:0:0:
27,337,120184,1,2,1:2:0:0:
328,261,120343,1,8,2:0:0:0:
105,372,120502,2,0,L|124:246,1,117,2|0,1:2|2:0,2:0:0:0:
215,348,120819,1,2,1:2:0:0:
342,175,120978,2,0,L|468:194,1,117,10|0,2:0|2:0,2:0:0:0:
332,25,121295,1,2,2:0:0:0:
201,180,121454,1,2,1:2:0:0:
368,268,121613,1,8,2:0:0:0:
223,90,121772,1,2,2:0:0:0:
512,142,121930,5,6,1:0:0:0:
10,278,122248,5,10,2:0:0:0:
457,192,122565,5,2,1:0:0:0:
346,0,122724,1,2,2:0:0:0:
274,194,122883,1,10,2:0:0:0:
423,62,123041,6,0,L|547:75,1,90,2|0,1:0|1:0,2:0:0:0:
226,119,123359,6,0,L|102:132,1,90,2|10,1:0|2:0,2:0:0:0:
335,15,123676,1,2,1:2:0:0:
95,61,123835,5,2,1:0:0:0:
362,200,123994,1,2,1:2:0:0:
95,61,124152,2,0,P|42:75|12:150,1,135,10|0,2:0|2:0,2:0:0:0:
84,228,124470,6,0,B|192:243|142:270|252:289,1,175.5,6|0,1:2|2:0,2:0:0:0:
285,263,124787,2,0,P|282:201|267:137,1,117,10|2,2:0|2:0,2:0:0:0:
87,303,125105,1,2,2:0:0:0:
379,266,125264,1,2,1:0:0:0:
92,137,125422,1,8,2:0:0:0:
223,366,125581,2,0,P|278:355|349:347,1,117,2|0,1:2|1:0,2:0:0:0:
51,219,125899,1,2,1:2:0:0:
195,137,126057,2,0,L|214:11,1,117,10|0,2:0|2:0,2:0:0:0:
447,191,126375,1,2,1:2:0:0:
274,92,126533,1,2,1:2:0:0:
492,47,126692,1,8,2:0:0:0:
308,221,126851,1,2,2:0:0:0:
0,107,127010,5,6,1:0:0:0:
512,151,127327,5,10,2:0:0:0:
37,185,127645,5,2,1:0:0:0:
237,66,127803,1,2,2:0:0:0:
29,16,127962,1,10,2:0:0:0:
178,197,128121,6,0,L|191:321,1,90,2|0,1:0|1:0,2:0:0:0:
410,154,128438,6,0,L|423:30,1,90,2|8,1:0|2:0,2:0:0:0:
264,140,128756,1,2,1:2:0:0:
458,240,128914,5,2,1:0:0:0:
326,59,129073,1,2,1:2:0:0:
458,240,129232,5,8,1:2:0:0:
395,234,129311,1,8,1:2:0:0:
336,254,129391,1,8,1:2:0:0:
288,296,129470,1,8,1:2:0:0:
242,336,129549,6,0,P|183:311|191:147,1,207,6|8,1:2|2:0,2:0:0:0:
360,142,130026,1,2,2:0:0:0:
159,13,130184,1,2,1:0:0:0:
208,83,130343,2,0,P|285:67|338:60,1,103.5,2|8,1:2|2:0,0:0:0:0:
1,91,130660,6,0,P|39:166|167:179,1,207,6|2,1:2|1:2,2:0:0:0:
346,314,131137,1,10,2:0:0:0:
85,280,131295,1,2,2:0:0:0:
337,141,131454,1,2,1:2:0:0:
184,267,131613,1,2,1:2:0:0:
292,36,131772,1,10,2:0:0:0:
292,36,132089,6,0,L|502:72,1,207,6|8,1:2|2:0,2:0:0:0:
433,224,132565,1,2,2:0:0:0:
270,117,132724,1,2,1:0:0:0:
410,32,132883,1,2,1:2:0:0:
339,194,133041,1,10,2:0:0:0:
151,13,133200,6,0,P|113:88|-15:101,1,207,6|2,1:2|1:2,2:0:0:0:
176,203,133676,1,10,2:0:0:0:
56,25,133835,1,2,2:0:0:0:
277,78,133994,1,2,1:2:0:0:
0,216,134152,1,2,1:2:0:0:
286,185,134311,1,10,2:0:0:0:
0,95,134470,1,10,2:0:0:0:
70,330,134629,6,0,P|80:249|85:121,1,207,6|8,1:2|2:0,2:0:0:0:
159,283,135105,1,2,2:0:0:0:
368,126,135264,1,2,1:0:0:0:
457,255,135422,2,0,P|380:239|327:232,1,103.5,2|8,1:2|2:0,0:0:0:0:
63,53,135740,6,0,P|104:109|244:122,1,207,6|2,1:2|1:2,2:0:0:0:
443,172,136216,1,10,2:0:0:0:
160,220,136375,1,2,2:0:0:0:
329,61,136533,1,2,1:2:0:0:
185,243,136692,1,2,1:2:0:0:
23,35,136851,1,10,2:0:0:0:
23,35,137168,6,0,B|94:47|94:47|123:84|123:84|215:102,1,207,6|8,1:2|2:0,2:0:0:0:
375,12,137645,1,2,2:0:0:0:
137,164,137803,5,2,1:2:0:0:
456,170,137962,1,2,1:2:0:0:
128,187,138121,5,10,2:0:0:0:
480,82,138279,1,2,1:2:0:0:
262,355,138438,6,0,P|201:312|194:237,1,155.25,6|0,1:2|2:0,2:0:0:0:
255,189,138756,1,10,2:0:0:0:
49,353,138914,1,2,2:0:0:0:
193,95,139073,1,2,1:2:0:0:
0,218,139232,1,0,1:2:0:0:
310,288,139391,1,10,2:0:0:0:
59,140,139549,1,10,2:0:0:0:
327,44,139708,6,0,P|386:69|378:233,1,207,6|8,1:2|2:0,2:0:0:0:
251,170,140184,1,2,2:0:0:0:
432,356,140343,1,2,1:0:0:0:
259,355,140502,2,0,P|275:278|282:225,1,103.5,2|8,1:2|2:0,0:0:0:0:
498,39,140819,6,0,P|456:105|328:118,1,207,6|2,1:2|1:2,2:0:0:0:
168,29,141295,1,10,2:0:0:0:
419,92,141454,1,2,2:0:0:0:
168,134,141613,1,2,1:2:0:0:
362,25,141772,1,2,1:2:0:0:
204,287,141930,1,10,2:0:0:0:
204,287,142248,6,0,L|-6:251,1,207,6|8,1:2|2:0,2:0:0:0:
153,154,142724,1,2,2:0:0:0:
246,364,142883,1,2,1:0:0:0:
342,165,143041,1,2,1:2:0:0:
122,278,143200,1,10,2:0:0:0:
399,369,143359,6,0,P|450:305|436:172,1,207,6|2,1:2|1:2,2:0:0:0:
220,95,143835,1,10,2:0:0:0:
327,314,143994,1,2,2:0:0:0:
372,29,144152,1,2,1:2:0:0:
205,234,144311,1,2,1:2:0:0:
479,111,144470,1,10,2:0:0:0:
215,251,144629,1,10,2:0:0:0:
504,196,144787,6,0,B|383:175|428:164|295:143,1,207,6|8,1:2|2:0,2:0:0:0:
134,225,145264,1,2,2:0:0:0:
240,50,145422,1,2,1:0:0:0:
129,134,145581,2,0,P|120:82|109:32,1,103.5,2|8,1:2|2:0,0:0:0:0:
47,323,145899,6,0,P|88:267|228:254,1,207,6|2,1:2|1:2,2:0:0:0:
417,353,146375,1,10,2:0:0:0:
352,164,146533,1,2,2:0:0:0:
160,321,146692,1,2,1:2:0:0:
437,252,146851,1,2,1:2:0:0:
211,63,147010,1,10,2:0:0:0:
211,63,147327,6,0,B|135:52|82:119|82:119|49:136|19:130,1,207,6|8,1:2|2:0,2:0:0:0:
103,321,147803,1,2,2:0:0:0:
357,193,147962,5,2,1:2:0:0:
86,64,148121,1,2,1:2:0:0:
371,172,148279,5,10,2:0:0:0:
1,243,148438,1,2,1:2:0:0:
258,0,148597,6,0,B|298:51|298:51|305:148,1,155.25,6|0,1:2|2:0,2:0:0:0:
257,195,148914,1,10,2:0:0:0:
429,13,149073,1,2,2:0:0:0:
292,317,149232,1,2,1:2:0:0:
498,143,149391,1,0,1:2:0:0:
189,100,149549,1,10,2:0:0:0:
477,268,149708,1,10,2:0:0:0:
126,231,149867,5,2,1:0:0:0:
126,231,150184,5,8,1:2:0:0:
505,57,150343,1,2,1:0:0:0:
505,57,150660,5,8,1:2:0:0:
264,384,150819,1,6,1:0:0:0:
