osu file format v14

[General]
AudioFilename: audio.mp3
AudioLeadIn: 0
PreviewTime: 32049
Countdown: 0
SampleSet: Soft
StackLeniency: 0.7
Mode: 0
LetterboxInBreaks: 0
WidescreenStoryboard: 1

[Editor]
Bookmarks: 54467,107214,117763,138862
DistanceSpacing: 1.3
BeatDivisor: 4
GridSize: 4
TimelineZoom: 2.22

[Metadata]
Title:Faster
TitleUnicode:Faster
Artist:Good Kid
ArtistUnicode:Good Kid
Creator:Dino99
Version:Collab Hard
Source:
Tags:english rock indie ep extended play featured artist fa mpg mg mappers' guild Garden Pisapou dahkjdas pishifat
BeatmapID:4045815
BeatmapSetID:1952479

[Difficulty]
HPDrainRate:4
CircleSize:3.6
OverallDifficulty:6
ApproachRate:8
SliderMultiplier:1.44
SliderTickRate:1

[Events]
//Background and Video events
0,0,"BG.jpg",0,0
//Break Periods
//Storyboard Layer 0 (Background)
//Storyboard Layer 1 (Fail)
//Storyboard Layer 2 (Pass)
//Storyboard Layer 3 (Foreground)
//Storyboard Layer 4 (Overlay)
//Storyboard Sound Samples

[TimingPoints]
401,329.67032967033,4,2,1,73,1,0
1060,-100,4,2,1,73,0,0
1719,-90.9090909090909,4,2,1,83,0,0
2049,-90.9090909090909,4,2,10,83,0,0
2131,-90.9090909090909,4,2,1,83,0,0
2379,-90.9090909090909,4,2,10,83,0,0
2461,-90.9090909090909,4,2,1,83,0,0
2708,-90.9090909090909,4,2,10,83,0,0
2791,-90.9090909090909,4,2,1,83,0,0
3038,-90.9090909090909,4,2,10,83,0,0
3120,-90.9090909090909,4,2,1,83,0,0
3368,-90.9090909090909,4,2,10,83,0,0
3450,-90.9090909090909,4,2,1,83,0,0
3697,-90.9090909090909,4,2,10,83,0,0
3780,-90.9090909090909,4,2,1,83,0,0
4027,-90.9090909090909,4,2,10,83,0,0
4109,-90.9090909090909,4,2,1,83,0,0
4357,-90.9090909090909,4,2,10,83,0,0
4439,-90.9090909090909,4,2,1,83,0,0
4686,-90.9090909090909,4,2,10,83,0,0
4769,-90.9090909090909,4,2,1,83,0,0
5016,-90.9090909090909,4,2,10,83,0,0
5098,-90.9090909090909,4,2,1,83,0,0
5346,-90.9090909090909,4,2,10,83,0,0
5428,-90.9090909090909,4,2,1,83,0,0
5675,-90.9090909090909,4,2,10,83,0,0
5758,-90.9090909090909,4,2,1,83,0,0
6005,-90.9090909090909,4,2,10,83,0,0
6087,-90.9090909090909,4,2,1,83,0,0
6335,-90.9090909090909,4,2,10,83,0,0
6417,-90.9090909090909,4,2,1,83,0,0
6664,-90.9090909090909,4,2,10,83,0,0
6747,-90.9090909090909,4,2,1,83,0,0
6994,-90.9090909090909,4,2,1,83,0,0
7076,-90.9090909090909,4,2,1,83,0,0
7324,-90.9090909090909,4,2,10,83,0,0
7406,-90.9090909090909,4,2,1,83,0,0
7653,-90.9090909090909,4,2,10,83,0,0
7736,-90.9090909090909,4,2,1,83,0,0
7983,-90.9090909090909,4,2,10,83,0,0
8065,-90.9090909090909,4,2,1,83,0,0
8313,-90.9090909090909,4,2,10,83,0,0
8395,-90.9090909090909,4,2,1,83,0,0
8642,-90.9090909090909,4,2,10,83,0,0
8725,-90.9090909090909,4,2,1,83,0,0
8972,-90.9090909090909,4,2,10,83,0,0
9054,-90.9090909090909,4,2,1,83,0,0
9302,-90.9090909090909,4,2,10,83,0,0
9384,-90.9090909090909,4,2,1,83,0,0
9631,-90.9090909090909,4,2,10,83,0,0
9714,-90.9090909090909,4,2,1,83,0,0
9961,-90.9090909090909,4,2,10,83,0,0
10043,-90.9090909090909,4,2,1,83,0,0
10291,-90.9090909090909,4,2,10,83,0,0
10373,-90.9090909090909,4,2,1,83,0,0
10620,-90.9090909090909,4,2,10,83,0,0
10703,-90.9090909090909,4,2,1,83,0,0
10950,-90.9090909090909,4,2,10,83,0,0
11032,-90.9090909090909,4,2,1,83,0,0
11280,-90.9090909090909,4,2,10,83,0,0
11362,-90.9090909090909,4,2,1,83,0,0
11609,-90.9090909090909,4,2,10,83,0,0
11692,-90.9090909090909,4,2,1,83,0,0
11939,-90.9090909090909,4,2,10,83,0,0
12021,-90.9090909090909,4,2,1,83,0,0
12269,-111.111111111111,4,2,1,73,0,0
15978,-111.111111111111,4,2,1,5,0,0
16060,-111.111111111111,4,2,1,73,0,0
22736,-111.111111111111,4,2,1,5,0,0
22818,-100,4,2,1,83,0,0
23148,-100,4,2,2,83,0,0
23230,-100,4,2,1,83,0,0
23477,-100,4,2,2,83,0,0
23560,-100,4,2,1,83,0,0
23807,-100,4,2,2,83,0,0
23890,-100,4,2,1,83,0,0
24137,-100,4,2,2,83,0,0
24219,-100,4,2,1,83,0,0
24466,-100,4,2,2,83,0,0
24549,-100,4,2,1,83,0,0
24796,-100,4,2,2,83,0,0
24879,-100,4,2,1,83,0,0
25126,-100,4,2,2,83,0,0
25208,-100,4,2,1,83,0,0
25455,-100,4,2,2,83,0,0
25538,-100,4,2,1,83,0,0
25785,-100,4,2,2,83,0,0
25868,-100,4,2,1,83,0,0
26115,-100,4,2,2,83,0,0
26197,-100,4,2,1,83,0,0
26444,-100,4,2,2,83,0,0
26527,-100,4,2,1,83,0,0
26774,-100,4,2,2,83,0,0
26857,-100,4,2,1,83,0,0
27104,-100,4,2,2,83,0,0
27186,-100,4,2,1,83,0,0
27433,-100,4,2,2,83,0,0
27516,-100,4,2,1,83,0,0
27763,-100,4,2,2,83,0,0
27846,-100,4,2,1,83,0,0
28093,-100,4,2,2,83,0,0
28175,-100,4,2,1,83,0,0
28422,-100,4,2,2,83,0,0
28505,-100,4,2,1,83,0,0
28752,-100,4,2,2,83,0,0
28835,-100,4,2,1,83,0,0
29082,-100,4,2,2,83,0,0
29164,-100,4,2,1,83,0,0
29411,-100,4,2,2,83,0,0
29494,-100,4,2,1,83,0,0
29741,-100,4,2,2,83,0,0
29824,-100,4,2,1,83,0,0
30071,-100,4,2,2,83,0,0
30153,-100,4,2,1,83,0,0
30401,-100,4,2,2,83,0,0
30483,-100,4,2,1,83,0,0
30730,-100,4,2,2,83,0,0
30813,-100,4,2,1,83,0,0
31060,-100,4,2,2,83,0,0
31142,-100,4,2,1,83,0,0
31390,-100,4,2,2,83,0,0
31472,-100,4,2,1,83,0,0
31719,-100,4,2,2,83,0,0
31802,-100,4,2,1,83,0,0
32049,-100,4,2,2,83,0,0
32131,-100,4,2,1,83,0,0
32379,-100,4,2,2,83,0,0
32461,-100,4,2,1,83,0,0
32708,-100,4,2,2,83,0,0
32791,-100,4,2,1,83,0,0
33038,-100,4,2,2,83,0,0
33120,-100,4,2,1,83,0,0
33368,-95.2380952380952,4,2,1,73,0,0
38560,-95.2380952380952,4,2,1,5,0,0
38643,-95.2380952380952,4,2,1,73,0,0
39879,-95.2380952380952,4,2,1,5,0,0
39961,-95.2380952380952,4,2,1,73,0,0
49110,-95.2380952380952,4,2,1,5,0,0
49192,-95.2380952380952,4,2,1,73,0,0
50428,-95.2380952380952,4,2,1,5,0,0
50511,-95.2380952380952,4,2,1,73,0,0
54466,-90.9090909090909,4,2,1,83,0,0
54796,-90.9090909090909,4,2,10,83,0,0
54879,-90.9090909090909,4,2,1,83,0,0
55126,-90.9090909090909,4,2,10,83,0,0
55208,-90.9090909090909,4,2,1,83,0,0
55455,-90.9090909090909,4,2,10,83,0,0
55538,-90.9090909090909,4,2,1,83,0,0
55785,-90.9090909090909,4,2,10,83,0,0
55868,-90.9090909090909,4,2,1,83,0,0
56115,-90.9090909090909,4,2,10,83,0,0
56197,-90.9090909090909,4,2,1,83,0,0
56444,-90.9090909090909,4,2,10,83,0,0
56527,-90.9090909090909,4,2,1,83,0,0
56774,-90.9090909090909,4,2,10,83,0,0
56857,-90.9090909090909,4,2,1,83,0,0
57104,-90.9090909090909,4,2,10,83,0,0
57186,-90.9090909090909,4,2,1,83,0,0
57433,-90.9090909090909,4,2,10,83,0,0
57516,-90.9090909090909,4,2,1,83,0,0
57763,-90.9090909090909,4,2,10,83,0,0
57846,-90.9090909090909,4,2,1,83,0,0
58093,-90.9090909090909,4,2,10,83,0,0
58175,-90.9090909090909,4,2,1,83,0,0
58422,-90.9090909090909,4,2,10,83,0,0
58505,-90.9090909090909,4,2,1,83,0,0
58752,-90.9090909090909,4,2,10,83,0,0
58835,-90.9090909090909,4,2,1,83,0,0
59082,-90.9090909090909,4,2,10,83,0,0
59164,-90.9090909090909,4,2,1,83,0,0
59411,-90.9090909090909,4,2,10,83,0,0
59494,-90.9090909090909,4,2,1,83,0,0
59741,-90.9090909090909,4,2,1,83,0,0
59824,-90.9090909090909,4,2,1,83,0,0
60071,-90.9090909090909,4,2,10,83,0,0
60153,-90.9090909090909,4,2,1,83,0,0
60401,-90.9090909090909,4,2,10,83,0,0
60483,-90.9090909090909,4,2,1,83,0,0
60730,-90.9090909090909,4,2,10,83,0,0
60813,-90.9090909090909,4,2,1,83,0,0
61060,-90.9090909090909,4,2,10,83,0,0
61142,-90.9090909090909,4,2,1,83,0,0
61390,-90.9090909090909,4,2,10,83,0,0
61472,-90.9090909090909,4,2,1,83,0,0
61719,-90.9090909090909,4,2,10,83,0,0
61802,-90.9090909090909,4,2,1,83,0,0
62049,-90.9090909090909,4,2,10,83,0,0
62131,-90.9090909090909,4,2,1,83,0,0
62379,-90.9090909090909,4,2,10,83,0,0
62461,-90.9090909090909,4,2,1,83,0,0
62708,-90.9090909090909,4,2,10,83,0,0
62791,-90.9090909090909,4,2,1,83,0,0
63038,-90.9090909090909,4,2,10,83,0,0
63120,-90.9090909090909,4,2,1,83,0,0
63368,-90.9090909090909,4,2,10,83,0,0
63450,-90.9090909090909,4,2,1,83,0,0
63697,-90.9090909090909,4,2,10,83,0,0
63780,-90.9090909090909,4,2,1,83,0,0
64027,-90.9090909090909,4,2,10,83,0,0
64109,-90.9090909090909,4,2,1,83,0,0
64357,-90.9090909090909,4,2,10,83,0,0
64439,-90.9090909090909,4,2,1,83,0,0
64686,-90.9090909090909,4,2,10,83,0,0
64769,-90.9090909090909,4,2,1,83,0,0
65016,-111.111111111111,4,2,1,73,0,0
68725,-111.111111111111,4,2,1,5,0,0
68807,-111.111111111111,4,2,1,73,0,0
75483,-111.111111111111,4,2,1,5,0,0
75566,-100,4,2,1,83,0,0
75895,-100,4,2,2,83,0,0
75977,-100,4,2,1,83,0,0
76225,-100,4,2,2,83,0,0
76307,-100,4,2,1,83,0,0
76554,-100,4,2,2,83,0,0
76637,-100,4,2,1,83,0,0
76884,-100,4,2,2,83,0,0
76966,-100,4,2,1,83,0,0
77214,-100,4,2,2,83,0,0
77296,-100,4,2,1,83,0,0
77543,-100,4,2,2,83,0,0
77626,-100,4,2,1,83,0,0
77873,-100,4,2,2,83,0,0
77955,-100,4,2,1,83,0,0
78203,-100,4,2,2,83,0,0
78285,-100,4,2,1,83,0,0
78532,-100,4,2,2,83,0,0
78615,-100,4,2,1,83,0,0
78862,-100,4,2,2,83,0,0
78944,-100,4,2,1,83,0,0
79192,-100,4,2,2,83,0,0
79274,-100,4,2,1,83,0,0
79521,-100,4,2,2,83,0,0
79604,-100,4,2,1,83,0,0
79851,-100,4,2,2,83,0,0
79933,-100,4,2,1,83,0,0
80181,-100,4,2,2,83,0,0
80263,-100,4,2,1,83,0,0
80510,-100,4,2,2,83,0,0
80593,-100,4,2,1,83,0,0
80840,-100,4,2,2,83,0,0
80922,-100,4,2,1,83,0,0
81170,-100,4,2,2,83,0,0
81252,-100,4,2,1,83,0,0
81499,-100,4,2,2,83,0,0
81582,-100,4,2,1,83,0,0
81829,-100,4,2,2,83,0,0
81911,-100,4,2,1,83,0,0
82159,-100,4,2,2,83,0,0
82241,-100,4,2,1,83,0,0
82488,-100,4,2,2,83,0,0
82571,-100,4,2,1,83,0,0
82818,-100,4,2,2,83,0,0
82901,-100,4,2,1,83,0,0
83148,-100,4,2,2,83,0,0
83230,-100,4,2,1,83,0,0
83477,-100,4,2,2,83,0,0
83560,-100,4,2,1,83,0,0
83807,-100,4,2,2,83,0,0
83890,-100,4,2,1,83,0,0
84137,-100,4,2,2,83,0,0
84219,-100,4,2,1,83,0,0
84466,-100,4,2,2,83,0,0
84549,-100,4,2,1,83,0,0
84796,-100,4,2,2,83,0,0
84879,-100,4,2,1,83,0,0
85126,-100,4,2,2,83,0,0
85208,-100,4,2,1,83,0,0
85455,-100,4,2,2,83,0,0
85538,-100,4,2,1,83,0,0
85785,-100,4,2,2,83,0,0
85868,-100,4,2,1,83,0,0
86115,-95.2380952380952,4,2,1,73,0,0
92626,-95.2380952380952,4,2,1,5,0,0
92709,-95.2380952380952,4,2,1,73,0,0
103176,-95.2380952380952,4,2,1,5,0,0
103258,-95.2380952380952,4,2,1,73,0,0
107214,-86.9565217391304,4,2,1,93,0,1
107543,-86.9565217391304,4,2,10,93,0,1
107626,-86.9565217391304,4,2,1,93,0,1
107873,-86.9565217391304,4,2,10,93,0,1
107955,-86.9565217391304,4,2,1,93,0,1
108203,-86.9565217391304,4,2,10,93,0,1
108285,-86.9565217391304,4,2,1,93,0,1
108532,-86.9565217391304,4,2,10,93,0,1
108615,-86.9565217391304,4,2,1,93,0,1
108862,-86.9565217391304,4,2,10,93,0,1
108944,-86.9565217391304,4,2,1,93,0,1
109192,-86.9565217391304,4,2,10,93,0,1
109274,-86.9565217391304,4,2,1,93,0,1
109521,-86.9565217391304,4,2,10,93,0,1
109604,-86.9565217391304,4,2,1,93,0,1
109851,-86.9565217391304,4,2,10,93,0,1
109933,-86.9565217391304,4,2,1,93,0,1
110181,-86.9565217391304,4,2,10,93,0,1
110263,-86.9565217391304,4,2,1,93,0,1
110510,-86.9565217391304,4,2,10,93,0,1
110593,-86.9565217391304,4,2,1,93,0,1
110840,-86.9565217391304,4,2,10,93,0,1
110922,-86.9565217391304,4,2,1,93,0,1
111170,-86.9565217391304,4,2,10,93,0,1
111252,-86.9565217391304,4,2,1,93,0,1
111499,-86.9565217391304,4,2,10,93,0,1
111582,-86.9565217391304,4,2,1,93,0,1
111829,-86.9565217391304,4,2,10,93,0,1
111911,-86.9565217391304,4,2,1,93,0,1
112159,-86.9565217391304,4,2,10,93,0,1
112241,-86.9565217391304,4,2,1,93,0,1
112488,-86.9565217391304,4,2,1,93,0,1
112571,-86.9565217391304,4,2,1,93,0,1
112818,-86.9565217391304,4,2,10,93,0,1
112901,-86.9565217391304,4,2,1,93,0,1
113148,-86.9565217391304,4,2,10,93,0,1
113230,-86.9565217391304,4,2,1,93,0,1
113477,-86.9565217391304,4,2,10,93,0,1
113560,-86.9565217391304,4,2,1,93,0,1
113807,-86.9565217391304,4,2,10,93,0,1
113890,-86.9565217391304,4,2,1,93,0,1
114137,-86.9565217391304,4,2,10,93,0,1
114219,-86.9565217391304,4,2,1,93,0,1
114466,-86.9565217391304,4,2,10,93,0,1
114549,-86.9565217391304,4,2,1,93,0,1
114796,-86.9565217391304,4,2,10,93,0,1
114879,-86.9565217391304,4,2,1,93,0,1
115126,-86.9565217391304,4,2,10,93,0,1
115208,-86.9565217391304,4,2,1,93,0,1
115455,-86.9565217391304,4,2,10,93,0,1
115538,-86.9565217391304,4,2,1,93,0,1
115785,-86.9565217391304,4,2,10,93,0,1
115868,-86.9565217391304,4,2,1,93,0,1
116115,-86.9565217391304,4,2,10,93,0,1
116197,-86.9565217391304,4,2,1,93,0,1
116444,-86.9565217391304,4,2,10,93,0,1
116527,-86.9565217391304,4,2,1,93,0,1
116774,-86.9565217391304,4,2,10,93,0,1
116857,-86.9565217391304,4,2,1,93,0,1
117104,-86.9565217391304,4,2,10,93,0,1
117186,-86.9565217391304,4,2,1,93,0,1
117763,-86.9565217391304,4,2,1,93,0,1
118093,-86.9565217391304,4,2,2,93,0,1
118175,-86.9565217391304,4,2,1,93,0,1
118422,-86.9565217391304,4,2,2,93,0,1
118505,-86.9565217391304,4,2,1,93,0,1
118752,-86.9565217391304,4,2,2,93,0,1
118835,-86.9565217391304,4,2,1,93,0,1
119082,-86.9565217391304,4,2,2,93,0,1
119164,-86.9565217391304,4,2,1,93,0,1
119411,-86.9565217391304,4,2,2,93,0,1
119494,-86.9565217391304,4,2,1,93,0,1
119741,-86.9565217391304,4,2,2,93,0,1
119824,-86.9565217391304,4,2,1,93,0,1
120071,-86.9565217391304,4,2,2,93,0,1
120153,-86.9565217391304,4,2,1,93,0,1
120730,-86.9565217391304,4,2,2,93,0,1
120813,-86.9565217391304,4,2,1,93,0,1
121060,-86.9565217391304,4,2,2,93,0,1
121142,-86.9565217391304,4,2,1,93,0,1
121390,-86.9565217391304,4,2,2,93,0,1
121472,-86.9565217391304,4,2,1,93,0,1
121719,-86.9565217391304,4,2,2,93,0,1
121802,-86.9565217391304,4,2,1,93,0,1
122049,-86.9565217391304,4,2,2,93,0,1
122131,-86.9565217391304,4,2,1,93,0,1
122379,-86.9565217391304,4,2,2,93,0,1
122461,-86.9565217391304,4,2,1,93,0,1
122708,-86.9565217391304,4,2,2,93,0,1
122791,-86.9565217391304,4,2,1,93,0,1
123368,-86.9565217391304,4,2,2,93,0,1
123450,-86.9565217391304,4,2,1,93,0,1
123697,-86.9565217391304,4,2,2,93,0,1
123780,-86.9565217391304,4,2,1,93,0,1
124027,-86.9565217391304,4,2,2,93,0,1
124109,-86.9565217391304,4,2,1,93,0,1
124357,-86.9565217391304,4,2,2,93,0,1
124439,-86.9565217391304,4,2,1,93,0,1
124686,-86.9565217391304,4,2,2,93,0,1
124769,-86.9565217391304,4,2,1,93,0,1
125016,-86.9565217391304,4,2,2,93,0,1
125098,-86.9565217391304,4,2,1,93,0,1
125346,-86.9565217391304,4,2,2,93,0,1
125428,-86.9565217391304,4,2,1,93,0,1
126005,-86.9565217391304,4,2,2,93,0,1
126087,-86.9565217391304,4,2,1,93,0,1
126335,-86.9565217391304,4,2,2,93,0,1
126417,-86.9565217391304,4,2,1,93,0,1
126664,-86.9565217391304,4,2,2,93,0,1
126747,-86.9565217391304,4,2,1,93,0,1
126994,-86.9565217391304,4,2,1,73,0,1
127077,-86.9565217391304,4,2,1,93,0,1
127654,-86.9565217391304,4,2,1,73,0,1
127736,-86.9565217391304,4,2,1,93,0,1
128313,-95.2380952380952,4,2,1,83,0,0
129879,-95.2380952380952,4,2,1,5,0,0
129961,-95.2380952380952,4,2,1,83,0,0
132187,-95.2380952380952,4,2,1,5,0,0
132269,-95.2380952380952,4,2,1,83,0,0
135154,-95.2380952380952,4,2,1,5,0,0
135236,-95.2380952380952,4,2,1,83,0,0
138368,-86.9565217391304,4,2,1,83,0,0
138862,-90.9090909090909,4,2,1,83,0,0
140099,-90.9090909090909,4,2,1,5,0,0
140181,-90.9090909090909,4,2,1,83,0,0
141417,-90.9090909090909,4,2,1,5,0,0
141500,-90.9090909090909,4,2,1,83,0,0
142736,-90.9090909090909,4,2,1,5,0,0
142818,-90.9090909090909,4,2,1,83,0,0
144055,-90.9090909090909,4,2,1,5,0,0
144137,-90.9090909090909,4,2,1,83,0,0
144384,-90.9090909090909,4,2,1,5,0,0
144467,-90.9090909090909,4,2,1,83,0,0
145044,-90.9090909090909,4,2,1,5,0,0
145126,-90.9090909090909,4,2,1,83,0,0
146198,-90.9090909090909,4,2,1,5,0,0
146280,-90.9090909090909,4,2,1,83,0,0
148835,-90.9090909090909,4,2,1,5,0,0
148917,-90.9090909090909,4,2,1,83,0,0
149412,-100,4,2,1,73,0,0
154192,-100,4,2,1,93,0,0

[Colours]
Combo1 : 174,228,249
Combo2 : 232,233,199
Combo3 : 237,107,107
Combo4 : 245,226,88

[HitObjects]
269,169,1060,5,0,1:2:0:0:
328,97,1225,2,0,P|357:115|394:119,2,72,8|8|8,2:2|2:2|2:2,0:0:0:0:
245,20,1720,5,6,1:2:0:0:
173,81,1884,1,0,0:0:0:0:
77,81,2049,2,0,P|45:128|46:166,1,79.2000024169923,10|0,2:2|0:0,0:0:0:0:
77,238,2379,2,0,P|122:253|169:261,1,79.2000024169923,2|2,2:2|2:2,0:0:0:0:
244,291,2709,1,10,2:2:0:0:
156,374,2873,6,0,P|209:325|286:346,1,158.400004833985,2|2,1:2|1:2,0:0:0:0:
360,288,3368,1,8,2:2:0:0:
360,288,3533,2,0,P|367:255|372:209,1,79.2000024169923,2|0,2:2|0:0,0:0:0:0:
274,187,3862,1,2,2:2:0:0:
274,187,4027,2,0,P|258:154|248:102,1,79.2000024169923,10|8,2:2|2:3,0:0:0:0:
320,27,4357,5,2,1:2:0:0:
320,27,4522,1,0,1:2:0:0:
403,70,4687,2,0,P|418:123|408:142,1,79.2000024169923,10|0,2:2|0:0,0:0:0:0:
335,205,5016,2,0,P|274:187|172:162,1,158.400004833985,2|10,2:2|2:2,0:0:0:0:
96,207,5511,6,0,B|49:253|49:253|118:318,1,158.400004833985,2|2,1:2|1:2,0:0:0:0:
201,358,6005,1,8,2:2:0:0:
263,286,6170,1,2,1:2:0:0:
165,122,6500,2,0,B|129:128|129:128|125:133|125:133|89:140,2,79.2000024169923,2|10|8,1:2|2:2|1:3,0:0:0:0:
243,42,6994,5,6,1:2:0:0:
319,99,7159,1,0,0:0:0:0:
284,187,7324,2,0,P|335:211|364:224,1,79.2000024169923,10|0,2:2|0:0,0:0:0:0:
440,288,7654,1,2,2:2:0:0:
440,288,7818,2,0,P|458:232|471:180,1,79.2000024169923,2|10,2:2|2:2,0:0:0:0:
365,343,8148,6,0,B|280:349|314:279|206:280,1,158.400004833985,2|2,1:2|1:2,0:0:0:0:
154,346,8643,1,8,2:2:0:0:
154,346,8807,2,0,P|141:314|129:262,1,79.2000024169923,2|0,2:2|0:0,0:0:0:0:
39,240,9137,1,2,2:2:0:0:
39,240,9302,2,0,P|54:193|77:150,1,79.2000024169923,10|8,2:2|2:3,0:0:0:0:
142,103,9632,5,2,1:2:0:0:
220,155,9796,1,0,1:2:0:0:
296,98,9961,2,0,P|315:56|311:11,2,79.2000024169923,10|0|2,2:2|0:0|2:2,0:0:0:0:
220,155,10456,1,2,2:2:0:0:
279,229,10621,1,10,2:2:0:0:
209,300,10785,6,0,P|154:316|90:234,1,158.400004833985,2|2,1:2|1:2,0:0:0:0:
89,234,11198,1,0,1:2:0:0:
89,234,11280,2,0,B|39:222|2:205,2,79.2000024169923,8|2|0,2:2|1:2|1:2,0:0:0:0:
58,133,11774,5,10,2:2:0:0:
52,118,11939,1,10,2:2:0:0:
46,103,12104,1,8,2:2:0:0:
117,33,12269,5,6,1:2:0:0:
117,33,12434,2,0,P|162:47|178:64,1,64.799998022461,2|10,2:2|2:2,0:0:0:0:
255,36,12763,2,0,P|302:74|319:152,1,129.599996044922,2|2,2:2|2:2,0:0:0:0:
348,223,13258,1,8,2:2:0:0:
348,223,13423,6,0,P|356:169|418:120,1,129.599996044922,2|0,1:2|1:2,0:0:0:0:
496,104,13917,1,8,2:2:0:0:
496,104,14082,1,0,0:0:0:0:
428,258,14412,2,0,P|400:242|361:233,2,64.799998022461,0|8|2,0:0|2:2|2:2,0:0:0:0:
478,325,14906,6,0,P|414:374|365:358,1,129.599996044922,2|8,1:2|2:2,0:0:0:0:
321,302,15401,1,2,2:2:0:0:
321,302,15566,1,2,2:2:0:0:
248,344,15730,2,0,P|191:343|151:295,1,97.1999970336915,2|0,2:2|0:0,0:0:0:0:
135,285,16060,6,0,B|77:298|77:298|73:306|73:306|13:320,2,129.599996044922,2|2|0,1:2|1:2|1:2,0:0:0:0:
96,201,16884,2,0,P|103:169|108:137,1,64.799998022461,2|0,2:2|1:2,0:0:0:0:
208,95,17214,2,0,P|202:126|196:158,1,64.799998022461,10|0,2:2|1:2,0:0:0:0:
262,240,17544,5,2,1:2:0:0:
262,240,17709,2,0,P|286:259|327:266,1,64.799998022461,0|8,0:0|2:2,0:0:0:0:
396,223,18038,2,0,P|381:173|325:118,1,129.599996044922,2|2,2:2|2:2,0:0:0:0:
251,152,18533,1,8,2:2:0:0:
251,152,18698,6,0,P|181:128|111:140,1,129.599996044922,0|0,1:2|1:2,0:0:0:0:
53,171,19192,1,8,2:2:0:0:
53,171,19357,1,0,0:0:0:0:
148,310,19687,2,0,P|163:337|173:369,2,64.799998022461,0|8|2,0:0|2:2|2:2,0:0:0:0:
206,238,20181,6,0,P|246:232|273:217,1,64.799998022461,2|0,1:2|1:2,0:0:0:0:
343,261,20511,2,0,P|383:267|410:282,1,64.799998022461,10|0,2:2|0:0,0:0:0:0:
477,320,20840,1,2,2:2:0:0:
510,244,21005,1,2,2:2:0:0:
510,244,21170,1,10,2:2:0:0:
470,146,21335,6,0,P|404:138|360:182,1,129.599996044922,2|0,1:2|1:2,0:0:0:0:
276,157,21829,1,10,2:2:0:0:
276,157,21994,2,0,P|261:192|259:227,1,64.799998022461,0|2,1:2|2:2,0:0:0:0:
225,313,22324,1,2,1:2:0:0:
225,313,22406,1,0,1:2:0:0:
225,313,22489,2,0,P|179:315|139:280,1,97.1999970336915,8|0,2:2|0:0,0:0:0:0:
104,294,22818,6,0,P|74:238|49:147,1,144,6|8,1:2|2:2,0:0:0:0:
105,84,23313,1,2,2:2:0:0:
50,8,23478,2,0,P|87:28|202:53,1,144,2|8,2:2|2:2,0:0:0:0:
269,10,23972,1,2,1:2:0:0:
329,88,24137,5,2,2:2:0:0:
329,88,24302,2,0,P|326:138|299:173,1,72,2|8,1:2|2:2,0:0:0:0:
258,230,24631,2,0,P|261:280|288:315,1,72,2|0,2:2|0:0,0:0:0:0:
348,353,24961,2,0,P|379:349|420:315,1,72,2|8,2:2|2:2,0:0:0:0:
491,275,25291,6,0,P|413:269|342:242,1,144,2|0,2:2|1:2,0:0:0:0:
265,210,25785,1,8,2:2:0:0:
88,285,26115,1,2,2:2:0:0:
88,285,26280,2,0,P|71:252|44:218,1,72,2|8,2:2|2:2,0:0:0:0:
172,329,26610,6,0,B|245:329|211:253|292:242,2,144,2|2|0,1:2|1:2|1:2,0:0:0:0:
96,258,27434,2,0,L|124:187,1,72,2|0,2:2|1:2,0:0:0:0:
241,118,27763,2,0,L|209:201,1,72,10|0,2:2|1:2,0:0:0:0:
306,236,28093,6,0,P|362:250|424:319,1,144,2|8,1:2|2:2,0:0:0:0:
474,231,28588,1,2,2:2:0:0:
413,157,28752,2,0,P|354:159|297:90,1,144,2|10,2:2|2:2,0:0:0:0:
253,17,29247,1,2,1:2:0:0:
162,83,29412,5,2,2:2:0:0:
162,83,29577,2,0,L|145:158,1,72,2|8,1:2|2:2,0:0:0:0:
83,242,29906,2,0,P|135:179|205:181,2,144,2|2|2,2:2|2:2|2:2,0:0:0:0:
54,331,30730,6,0,P|20:319|-1:290,2,72,0|0|10,1:2|1:2|2:2,0:0:0:0:
239,359,31390,1,2,2:2:0:0:
258,270,31555,1,2,2:2:0:0:
258,270,31720,1,8,2:2:0:0:
341,334,31884,6,0,B|385:314|385:314|413:222,1,144,2|2,1:2|1:2,0:0:0:0:
412,222,32379,1,10,2:2:0:0:
294,154,32544,2,0,P|301:194|308:232,1,72,2|0,1:2|1:2,0:0:0:0:
215,104,32873,5,10,2:2:0:0:
195,96,33038,1,10,2:2:0:0:
175,88,33203,1,10,2:2:0:0:
70,145,33368,6,0,P|46:113|58:65,2,75.5999976928712,4|2|8,1:2|2:2|2:2,0:0:0:0:
150,201,33862,2,0,P|211:156|298:157,1,151.199995385742,2|8,2:2|2:3,0:0:0:0:
358,82,34357,1,8,2:2:0:0:
455,97,34522,6,0,P|497:166|475:235,1,151.199995385742,0|0,1:2|0:0,0:0:0:0:
434,317,35016,1,8,2:2:0:0:
434,317,35676,2,0,P|396:298|359:304,1,75.5999976928712,10|0,2:2|1:2,0:0:0:0:
287,236,36005,6,0,P|223:204|146:224,2,151.199995385742,2|10|2,1:2|2:2|2:2,0:0:0:0:
253,328,36829,1,8,2:3:0:0:
364,301,36994,2,0,P|378:267|376:227,1,75.5999976928712,10|0,2:2|1:2,0:0:0:0:
473,249,37324,6,0,P|458:177|399:129,1,151.199995385742,2|10,2:2|2:2,0:0:0:0:
477,68,37818,1,2,2:2:0:0:
282,37,38148,1,8,2:3:0:0:
263,133,38313,2,0,P|208:175|144:173,1,113.399996539307,10|0,2:2|0:0,0:0:0:0:
147,194,38642,6,0,P|76:174|53:102,1,151.199995385742,6|10,1:2|2:2,0:0:0:0:
224,9,39302,1,2,2:2:0:0:
302,67,39466,1,8,2:3:0:0:
397,41,39632,2,0,P|426:73|429:153,1,113.399996539307,10|0,2:2|0:0,0:0:0:0:
419,161,39961,5,2,2:2:0:0:
490,229,40126,2,0,P|456:255|415:256,1,75.5999976928712,2|8,2:2|2:2,0:0:0:0:
328,236,40455,1,2,2:2:0:0:
247,54,40785,5,8,2:3:0:0:
160,81,40950,1,10,2:2:0:0:
130,167,41115,1,0,1:2:0:0:
39,199,41280,5,6,1:2:0:0:
39,199,41445,2,0,B|51:249|51:249|156:276,1,151.199995385742,2|2,2:2|2:0,0:0:0:0:
214,345,41939,2,0,B|287:338|287:338|330:245,1,151.199995385742,2|10,2:0|2:2,0:0:0:0:
407,312,42434,1,2,1:2:0:0:
386,128,42763,5,2,1:2:0:0:
386,128,42928,1,10,2:2:0:0:
439,54,43093,2,0,L|514:74,1,75.5999976928712,2|0,1:2|1:2,0:0:0:0:
362,9,43423,5,10,2:2:0:0:
342,17,43588,1,10,2:2:0:0:
322,25,43753,1,10,2:2:0:0:
263,118,43917,6,0,P|218:120|188:93,2,75.5999976928712,4|2|8,1:2|2:2|2:2,0:0:0:0:
151,24,44412,2,0,P|105:90|126:161,1,151.199995385742,2|8,2:2|2:3,0:0:0:0:
180,232,44906,1,8,2:2:0:0:
276,211,45071,2,0,P|326:272|401:270,1,151.199995385742,0|0,1:2|0:0,0:0:0:0:
477,331,45566,1,8,2:2:0:0:
477,331,46225,2,0,P|500:299|490:264,1,75.5999976928712,10|0,2:2|1:2,0:0:0:0:
422,195,46555,6,0,P|344:177|348:90,2,151.199995385742,2|10|2,1:2|2:2|2:2,0:0:0:0:
501,137,47379,1,8,2:3:0:0:
469,21,47544,2,0,P|431:56|420:97,1,75.5999976928712,10|0,2:2|1:2,0:0:0:0:
332,115,47873,6,0,P|273:73|177:72,1,151.199995385742,2|10,2:2|2:2,0:0:0:0:
99,87,48368,1,2,2:2:0:0:
153,276,48698,1,8,2:3:0:0:
88,202,48862,2,0,P|30:215|1:277,1,113.399996539307,10|0,2:2|0:0,0:0:0:0:
0,281,49192,6,0,P|27:335|114:352,1,151.199995385742,6|10,1:2|2:2,0:0:0:0:
321,337,49851,1,2,2:2:0:0:
357,245,50016,1,8,2:3:0:0:
285,176,50181,2,0,P|274:127|324:68,1,113.399996539307,10|0,2:2|0:0,0:0:0:0:
331,66,50511,5,2,2:2:0:0:
412,11,50676,2,0,P|445:14|479:52,1,75.5999976928712,2|8,2:2|2:2,0:0:0:0:
495,138,51005,1,2,2:2:0:0:
339,271,51335,5,8,2:3:0:0:
400,338,51500,1,10,2:2:0:0:
486,308,51665,1,0,1:2:0:0:
498,214,51829,5,6,1:2:0:0:
498,214,51994,2,0,P|424:179|350:162,1,151.199995385742,2|2,2:2|2:2,0:0:0:0:
273,216,52489,2,0,P|207:236|109:287,1,151.199995385742,2|10,2:2|2:2,0:0:0:0:
59,206,52983,1,2,1:2:0:0:
155,28,53313,5,2,1:2:0:0:
155,28,53478,1,10,2:2:0:0:
209,100,53643,2,0,P|194:140|180:188,1,75.5999976928712,2|0,1:2|1:2,0:0:0:0:
89,234,53972,6,0,P|49:219|1:205,2,75.5999976928712,10|10|10,2:2|2:2|2:2,0:0:0:0:
124,322,54467,5,6,1:2:0:0:
222,317,54632,1,0,0:0:0:0:
222,317,54796,2,0,P|233:279|247:242,1,79.2000024169923,10|0,2:2|0:0,0:0:0:0:
316,176,55126,2,0,P|327:138|341:101,2,79.2000024169923,2|2|10,2:2|2:2|2:2,0:0:0:0:
365,295,55621,2,0,P|325:232|254:251,1,158.400004833985,2|2,1:2|1:2,0:0:0:0:
190,322,56115,5,8,2:2:0:0:
190,322,56280,2,0,P|174:285|154:249,1,79.2000024169923,2|0,2:2|0:0,0:0:0:0:
96,182,56610,1,2,2:2:0:0:
96,182,56775,2,0,P|80:145|60:109,1,79.2000024169923,10|8,2:2|2:3,0:0:0:0:
97,29,57104,5,2,1:2:0:0:
172,95,57269,1,0,1:2:0:0:
172,95,57434,2,0,P|209:81|248:73,1,79.2000024169923,10|0,2:2|0:0,0:0:0:0:
320,12,57763,2,0,P|275:40|285:141,1,158.400004833985,2|10,2:2|2:2,0:0:0:0:
367,253,58258,6,0,P|289:268|214:294,1,158.400004833985,2|2,1:2|1:2,0:0:0:0:
123,265,58752,1,8,2:2:0:0:
128,170,58917,1,2,1:2:0:0:
292,73,59247,2,0,P|274:35|265:-3,2,79.2000024169923,2|10|8,1:2|2:2|1:3,0:0:0:0:
383,97,59741,5,6,1:2:0:0:
366,193,59906,1,0,0:0:0:0:
366,193,60071,2,0,P|327:200|289:213,1,79.2000024169923,10|0,2:2|0:0,0:0:0:0:
217,275,60401,1,2,2:2:0:0:
217,275,60566,2,0,P|199:239|177:206,1,79.2000024169923,2|10,2:2|2:2,0:0:0:0:
304,316,60895,6,0,B|355:294|386:341|367:351|389:392|436:369,1,158.400004833985,2|2,1:2|1:2,0:0:0:0:
472,290,61390,1,8,2:2:0:0:
472,290,61555,2,0,P|489:254|511:221,1,79.2000024169923,2|0,2:2|0:0,0:0:0:0:
446,160,61884,1,2,2:2:0:0:
446,160,62049,2,0,P|463:124|485:91,1,79.2000024169923,10|8,2:2|2:3,0:0:0:0:
428,15,62379,5,2,1:2:0:0:
334,34,62544,1,0,1:2:0:0:
318,127,62709,2,0,P|279:134|241:147,1,79.2000024169923,10|0,2:2|0:0,0:0:0:0:
149,146,63038,1,2,2:2:0:0:
149,146,63203,2,0,P|161:183|169:222,1,79.2000024169923,2|10,2:2|2:2,0:0:0:0:
231,357,63533,6,0,P|294:318|262:240,1,158.400004833985,2|2,1:2|1:2,0:0:0:0:
258,241,63945,1,0,1:2:0:0:
256,241,64027,2,0,P|249:202|236:164,2,79.2000024169923,8|2|0,2:2|1:2|1:2,0:0:0:0:
324,319,64522,5,10,2:2:0:0:
339,313,64687,1,10,2:2:0:0:
354,307,64852,1,8,2:2:0:0:
436,353,65016,5,6,1:2:0:0:
436,353,65181,2,0,P|447:322|462:294,1,64.799998022461,2|10,2:2|2:2,0:0:0:0:
511,224,65511,2,0,P|451:237|415:187,1,129.599996044922,2|2,2:2|2:2,0:0:0:0:
458,116,66005,1,8,2:2:0:0:
458,116,66170,6,0,P|397:93|340:61,1,129.599996044922,2|0,1:2|1:2,0:0:0:0:
272,11,66665,1,8,2:2:0:0:
272,11,66829,1,0,0:0:0:0:
331,179,67159,2,0,P|342:148|357:120,2,64.799998022461,0|8|2,0:0|2:2|2:2,0:0:0:0:
311,261,67654,6,0,P|254:229|193:206,1,129.599996044922,2|8,1:2|2:2,0:0:0:0:
128,258,68148,1,2,2:2:0:0:
128,258,68313,1,2,2:2:0:0:
69,197,68478,2,0,P|63:149|102:123,1,97.1999970336915,2|0,2:2|0:0,0:0:0:0:
136,102,68807,6,0,P|171:156|244:132,2,129.599996044922,2|2|0,1:2|1:2|1:2,0:0:0:0:
150,18,69631,2,0,P|119:27|87:35,1,64.799998022461,2|0,2:2|1:2,0:0:0:0:
4,20,69961,2,0,P|13:50|21:82,1,64.799998022461,10|0,2:2|1:2,0:0:0:0:
11,166,70291,5,2,1:2:0:0:
82,210,70456,2,0,P|113:200|144:193,1,64.799998022461,0|8,0:0|2:2,0:0:0:0:
220,155,70785,2,0,P|165:181|173:241,1,129.599996044922,2|2,2:2|2:2,0:0:0:0:
246,293,71280,1,8,2:2:0:0:
246,293,71445,6,0,P|309:274|374:258,1,129.599996044922,0|0,1:2|1:2,0:0:0:0:
441,306,71940,1,8,2:2:0:0:
441,306,72104,1,0,0:0:0:0:
379,111,72434,2,0,P|388:79|396:48,2,64.799998022461,0|8|2,0:0|2:2|2:2,0:0:0:0:
314,164,72928,5,2,1:2:0:0:
314,164,73093,1,0,1:2:0:0:
265,94,73258,2,0,P|233:86|202:77,1,64.799998022461,10|0,2:2|0:0,0:0:0:0:
124,57,73588,1,2,2:2:0:0:
124,57,73752,2,0,P|93:47|61:40,1,64.799998022461,2|10,2:2|2:2,0:0:0:0:
22,144,74082,6,0,P|10:204|58:241,1,129.599996044922,2|0,1:2|1:2,0:0:0:0:
134,283,74577,2,0,P|157:252|192:224,1,64.799998022461,10|0,2:2|1:2,0:0:0:0:
176,234,74906,1,2,2:2:0:0:
298,257,75071,1,2,1:2:0:0:
298,257,75154,1,0,1:2:0:0:
298,257,75236,2,0,P|284:302|250:357,1,97.1999970336915,8|0,2:2|0:0,0:0:0:0:
239,384,75566,6,0,P|306:350|385:340,1,144,6|8,1:2|2:2,0:0:0:0:
461,371,76060,1,2,2:2:0:0:
497,284,76225,2,0,P|506:217|447:184,1,144,2|8,2:2|2:2,0:0:0:0:
375,244,76719,1,2,1:2:0:0:
299,196,76884,5,2,2:2:0:0:
299,196,77049,2,0,P|285:162|267:131,1,72,2|8,1:2|2:2,0:0:0:0:
221,49,77379,2,0,P|256:54|292:53,1,72,2|0,2:2|0:0,0:0:0:0:
386,61,77709,2,0,P|363:89|345:120,1,72,2|8,2:2|2:2,0:0:0:0:
298,235,78038,6,0,P|243:198|166:162,1,144,2|0,2:2|1:2,0:0:0:0:
172,164,78533,1,8,2:2:0:0:
68,282,78862,1,2,2:2:0:0:
68,282,79027,2,0,P|40:263|1:245,1,72,2|8,2:2|2:2,0:0:0:0:
87,166,79357,6,0,P|99:92|42:62,2,144,2|2|0,1:2|1:2|1:2,0:0:0:0:
16,225,80181,2,0,P|48:240|78:260,1,72,2|0,2:2|1:2,0:0:0:0:
90,350,80511,1,10,2:2:0:0:
90,350,80676,1,0,1:2:0:0:
211,343,80840,6,0,P|223:269|306:249,1,144,2|8,1:2|2:2,0:0:0:0:
358,282,81335,1,2,2:2:0:0:
403,208,81500,2,0,P|349:154|387:78,1,144,2|10,2:2|2:2,0:0:0:0:
416,25,81994,1,2,1:2:0:0:
492,84,82159,5,2,2:2:0:0:
492,84,82324,2,0,P|474:117|461:165,1,72,2|8,1:2|2:2,0:0:0:0:
408,240,82654,2,0,B|361:259|333:217|350:208|330:171|288:191,2,144,2|2|2,2:2|2:2|2:2,0:0:0:0:
494,255,83478,6,0,P|476:288|463:336,1,72,0|0,1:2|1:2,0:0:0:0:
465,320,83807,1,10,2:2:0:0:
301,375,84137,1,2,2:2:0:0:
330,286,84302,1,2,2:2:0:0:
285,368,84467,1,8,2:2:0:0:
205,318,84632,6,0,B|193:293|193:293|164:289|164:289|117:188,1,144,2|2,1:2|1:2,0:0:0:0:
127,210,85126,1,10,2:2:0:0:
56,159,85291,2,0,L|110:91,1,72,2|0,1:2|1:2,0:0:0:0:
3,236,85621,5,10,2:2:0:0:
23,244,85786,1,10,2:2:0:0:
43,252,85951,1,10,2:2:0:0:
117,332,86115,6,0,P|85:352|53:379,2,75.5999976928712,4|2|8,1:2|2:2|2:2,0:0:0:0:
205,312,86609,2,0,P|178:250|245:198,1,151.199995385742,2|8,2:2|2:3,0:0:0:0:
299,137,87104,1,8,2:2:0:0:
373,189,87269,6,0,P|430:140|494:99,1,151.199995385742,0|0,1:2|0:0,0:0:0:0:
494,99,87763,1,8,2:2:0:0:
498,103,88423,2,0,B|508:65|508:65|469:51,1,75.5999976928712,10|0,2:2|1:2,0:0:0:0:
403,111,88752,6,0,P|330:79|250:55,2,151.199995385742,2|10|2,1:2|2:2|2:2,0:0:0:0:
490,87,89576,1,8,2:3:0:0:
506,176,89741,2,0,P|490:212|478:252,1,75.5999976928712,10|0,2:2|1:2,0:0:0:0:
481,337,90071,6,0,P|473:264|392:260,1,151.199995385742,2|10,2:2|0:0,0:0:0:0:
322,200,90565,1,2,0:0:0:0:
201,374,90895,1,8,2:3:0:0:
201,374,91060,2,0,P|166:359|129:350,1,75.5999976928712,10|0,2:2|1:2,0:0:0:0:
43,380,91390,6,0,P|98:356|89:263,1,151.199995385742,6|10,1:2|2:2,0:0:0:0:
14,96,92049,2,0,P|50:84|84:69,1,75.5999976928712,2|8,2:2|2:3,0:0:0:0:
167,15,92379,6,0,P|122:44|130:97,1,113.399996539307,10|0,2:2|0:0,0:0:0:0:
148,108,92708,1,2,2:2:0:0:
224,169,92873,2,0,P|208:203|197:239,1,75.5999976928712,2|8,2:2|2:2,0:0:0:0:
241,320,93203,1,2,2:2:0:0:
410,383,93532,5,8,2:3:0:0:
392,293,93697,1,10,2:2:0:0:
458,231,93862,1,0,1:2:0:0:
512,356,94027,5,6,1:2:0:0:
512,356,94192,2,0,P|455:319|369:285,1,151.199995385742,2|2,2:2|2:2,0:0:0:0:
342,203,94687,2,0,P|271:175|208:134,1,151.199995385742,2|10,2:2|2:2,0:0:0:0:
175,49,95181,1,2,1:2:0:0:
330,151,95510,5,2,1:2:0:0:
330,151,95676,1,10,2:2:0:0:
396,212,95840,2,0,P|431:198|462:177,1,75.5999976928712,2|0,1:2|1:2,0:0:0:0:
405,301,96170,5,10,2:2:0:0:
397,321,96335,1,10,2:2:0:0:
389,341,96500,1,10,2:2:0:0:
288,377,96665,6,0,P|259:353|227:333,2,75.5999976928712,4|2|8,1:2|2:2|2:2,0:0:0:0:
311,285,97159,2,0,P|338:223|271:171,1,151.199995385742,2|8,2:2|2:3,0:0:0:0:
204,133,97654,1,8,2:2:0:0:
130,185,97819,6,0,P|73:136|9:95,1,151.199995385742,0|0,1:2|0:0,0:0:0:0:
9,95,98313,1,8,2:2:0:0:
13,99,98972,2,0,B|12:63|12:63|60:47,1,75.5999976928712,10|0,2:2|1:2,0:0:0:0:
100,126,99302,6,0,P|127:193|214:176,2,151.199995385742,2|10|2,1:2|2:2|2:2,0:0:0:0:
131,40,100126,1,8,2:3:0:0:
215,71,100291,2,0,P|254:59|292:43,1,75.5999976928712,10|0,2:2|1:2,0:0:0:0:
364,0,100620,6,0,P|300:42|321:114,1,151.199995385742,2|10,2:2|2:2,0:0:0:0:
392,151,101115,1,2,2:2:0:0:
286,306,101445,1,8,2:3:0:0:
353,366,101610,2,0,P|388:352|429:338,1,75.5999976928712,10|0,2:2|1:2,0:0:0:0:
512,359,101939,6,0,P|460:336|474:248,1,151.199995385742,6|10,1:2|2:2,0:0:0:0:
510,89,102598,1,2,2:2:0:0:
420,72,102763,1,8,2:3:0:0:
379,153,102928,2,0,P|328:132|269:112,1,113.399996539307,10|0,2:2|0:0,0:0:0:0:
250,108,103258,5,2,2:2:0:0:
175,159,103423,2,0,P|144:133|153:87,1,75.5999976928712,2|8,2:2|2:2,0:0:0:0:
205,32,103752,1,2,2:2:0:0:
365,154,104082,5,8,2:3:0:0:
298,215,104247,1,10,2:2:0:0:
327,300,104412,1,0,1:2:0:0:
436,264,104576,5,6,1:2:0:0:
436,264,104741,2,0,P|365:236|302:195,1,151.199995385742,2|2,2:2|2:2,0:0:0:0:
215,224,105236,2,0,P|158:187|72:153,1,151.199995385742,2|10,2:2|2:2,0:0:0:0:
4,203,105730,1,2,1:2:0:0:
50,30,106060,5,2,1:2:0:0:
50,30,106225,1,10,2:2:0:0:
121,85,106390,2,0,P|99:120|85:168,1,75.5999976928712,2|0,1:2|1:2,0:0:0:0:
45,265,106720,6,0,P|25:228|-8:192,2,75.5999976928712,10|10|10,2:2|2:2|2:2,0:0:0:0:
125,349,107214,6,0,P|167:342|254:246,1,165.600003158569,6|8,1:2|2:2,0:0:0:0:
308,349,107708,1,0,0:0:0:0:
367,269,107873,2,0,P|384:243|403:164,1,82.8000015792847,0|8,0:0|2:3,0:0:0:0:
501,223,108203,1,8,2:2:0:0:
501,223,108368,1,0,1:2:0:0:
391,153,108533,6,0,P|345:150|212:202,1,165.600003158569,2|8,2:2|2:2,0:0:0:0:
285,270,109027,1,0,0:0:0:0:
198,318,109192,2,0,P|120:302|42:238,1,165.600003158569,2|8,2:2|2:2,0:0:0:0:
104,166,109686,1,0,0:0:0:0:
30,98,109851,6,0,P|10:67|0:22,2,82.8000015792847,2|0|8,1:2|1:2|2:2,0:0:0:0:
104,166,110346,1,0,0:0:0:0:
194,217,110510,1,0,0:0:0:0:
194,217,110675,2,0,P|158:251|106:261,1,82.8000015792847,8|8,2:3|2:2,0:0:0:0:
209,119,111005,6,0,P|262:142|345:219,1,165.600003158569,2|0,1:2|1:2,0:0:0:0:
388,306,111500,2,0,P|438:291|460:242,1,82.8000015792847,8|0,2:2|1:2,0:0:0:0:
506,172,111829,2,0,P|456:166|415:125,1,82.8000015792847,0|0,0:0|1:2,0:0:0:0:
380,57,112159,1,8,2:2:0:0:
380,57,112324,1,0,1:2:0:0:
260,114,112489,6,0,P|189:125|132:38,1,165.600003158569,6|8,1:2|2:2,0:0:0:0:
37,110,112983,1,0,0:0:0:0:
90,203,113148,2,0,P|111:239|130:289,1,82.8000015792847,0|8,0:0|2:3,0:0:0:0:
162,375,113477,1,8,2:2:0:0:
162,375,113642,1,0,1:2:0:0:
225,287,113807,6,0,P|264:203|310:141,1,165.600003158569,2|8,2:2|2:2,0:0:0:0:
377,73,114302,1,0,0:0:0:0:
475,114,114466,2,0,P|449:187|399:270,1,165.600003158569,2|8,2:2|2:2,0:0:0:0:
324,322,114961,1,0,0:0:0:0:
225,287,115126,6,0,P|178:269|133:244,2,82.8000015792847,2|0|8,1:2|1:2|2:2,0:0:0:0:
324,322,115620,1,0,0:0:0:0:
310,227,115785,1,0,0:0:0:0:
310,227,115950,2,0,P|278:152|255:135,1,82.8000015792847,8|8,2:3|2:2,0:0:0:0:
153,104,116280,6,0,P|188:160|286:144,1,165.600003158569,2|0,1:2|1:2,0:0:0:0:
315,49,116774,2,0,P|276:63|236:75,1,82.8000015792847,8|0,2:2|0:0,0:0:0:0:
236,75,117104,1,0,1:2:0:0:
142,39,117269,1,8,2:2:0:0:
142,39,117351,1,8,2:2:0:0:
142,39,117434,2,0,L|88:54,3,41.4000007896423,8|8|8|8,2:2|2:2|2:2|2:2,0:0:0:0:
72,62,117763,5,6,1:2:0:0:
133,139,117928,2,0,P|119:177|97:213,1,82.8000015792847,2|8,1:2|2:2,0:0:0:0:
27,277,118258,1,2,1:2:0:0:
27,277,118423,2,0,P|65:290|101:312,1,82.8000015792847,2|0,1:2|0:0,0:0:0:0:
172,381,118752,5,10,2:2:0:0:
172,381,118917,2,0,P|185:342|207:306,1,82.8000015792847,2|0,1:2|0:0,0:0:0:0:
285,244,119247,1,2,1:2:0:0:
285,244,119412,2,0,P|246:230|210:208,1,82.8000015792847,10|0,2:2|0:0,0:0:0:0:
77,142,119741,2,0,P|64:233|148:248,1,165.600003158569,2|10,1:2|2:2,0:0:0:0:
278,365,120401,5,4,1:2:0:0:
374,338,120566,2,0,P|384:297|326:279,1,82.8000015792847,0|8,1:2|2:2,0:0:0:0:
381,174,120895,1,2,1:2:0:0:
381,174,121060,2,0,P|340:164|322:222,1,82.8000015792847,2|0,1:2|0:0,0:0:0:0:
217,167,121390,5,10,2:2:0:0:
217,167,121555,2,0,P|207:208|265:226,1,82.8000015792847,2|0,1:2|0:0,0:0:0:0:
210,331,121884,1,2,1:2:0:0:
210,331,122049,2,0,P|251:341|269:283,1,82.8000015792847,10|0,2:2|0:0,0:0:0:0:
361,201,122379,2,0,P|348:110|432:95,1,165.600003158569,2|10,1:2|2:2,0:0:0:0:
507,255,123038,5,6,1:2:0:0:
432,320,123203,2,0,P|393:305|352:298,1,82.8000015792847,2|8,1:2|2:2,0:0:0:0:
258,322,123533,1,2,1:2:0:0:
258,322,123698,2,0,P|272:283|279:242,1,82.8000015792847,2|0,1:2|0:0,0:0:0:0:
261,149,124027,5,10,2:2:0:0:
261,149,124192,2,0,P|299:163|340:170,1,82.8000015792847,2|0,1:2|0:0,0:0:0:0:
441,149,124522,1,2,1:2:0:0:
441,149,124687,2,0,P|426:187|419:228,1,82.8000015792847,10|0,2:2|0:0,0:0:0:0:
362,363,125016,2,0,P|320:298|246:320,1,165.600003158569,2|10,1:2|2:2,0:0:0:0:
49,314,125676,5,6,1:2:0:0:
49,314,125840,2,0,P|38:335|19:362,2,41.4000007896423,8|8|10,2:2|2:2|2:2,0:0:0:0:
126,348,126170,2,0,P|115:369|96:396,2,41.4000007896423,8|8|10,2:2|2:2|1:2,0:0:0:0:
174,279,126499,1,8,2:2:0:0:
174,279,126582,1,8,2:2:0:0:
174,279,126665,2,0,L|146:197,1,82.8000015792847,10|8,2:2|2:2,0:0:0:0:
64,155,126994,5,6,1:2:0:0:
64,155,127159,1,8,2:2:0:0:
80,60,127324,1,2,1:2:0:0:
80,60,127489,1,8,2:2:0:0:
174,29,127654,2,0,L|217:47,3,41.4000007896423,6|0|8|8,1:2|1:2|2:2|2:2,0:0:0:0:
249,28,127983,2,0,L|292:46,3,41.4000007896423,10|8|4|4,1:3|2:3|1:3|2:3,0:0:0:0:
322,58,128313,6,0,P|259:107|294:173,2,151.199995385742,6|10|2,1:2|2:2|2:2,0:0:0:0:
395,5,129137,1,0,0:0:0:0:
454,73,129302,2,0,P|438:109|426:149,1,75.5999976928712,10|0,2:2|1:2,0:0:0:0:
429,234,129632,6,0,P|421:161|342:160,1,151.199995385742,2|10,2:2|0:0,0:0:0:0:
260,123,130126,1,2,0:0:0:0:
196,309,130456,1,8,2:3:0:0:
196,309,130621,2,0,P|160:293|120:281,1,75.5999976928712,10|0,2:2|1:2,0:0:0:0:
68,351,130950,6,0,P|85:283|23:250,1,151.199995385742,2|10,1:2|2:2,0:0:0:0:
93,66,131609,2,0,P|108:100|119:136,1,75.5999976928712,2|0,2:2|0:0,0:0:0:0:
158,227,131939,6,0,P|149:173|194:144,1,113.399996539307,10|0,2:2|0:0,0:0:0:0:
215,153,132269,1,2,2:2:0:0:
281,224,132433,2,0,P|265:258|254:294,1,75.5999976928712,2|8,2:2|0:0,0:0:0:0:
319,368,132763,1,2,2:2:0:0:
447,180,133093,5,8,2:3:0:0:
447,180,133258,2,0,P|431:145|420:109,1,75.5999976928712,10|0,2:2|1:2,0:0:0:0:
471,0,133588,2,0,P|402:30|330:53,1,151.199995385742,6|10,1:2|2:2,0:0:0:0:
244,20,134082,1,0,0:0:0:0:
191,94,134247,2,0,P|206:128|217:164,1,75.5999976928712,2|0,2:2|0:0,0:0:0:0:
296,210,134577,2,0,P|280:244|269:280,1,75.5999976928712,10|0,2:2|1:2,0:0:0:0:
247,362,134907,6,0,P|239:289|156:298,1,151.199995385742,2|10,2:2|0:0,0:0:0:0:
85,326,135401,1,2,0:0:0:0:
147,19,135895,2,0,P|131:55|119:95,1,75.5999976928712,10|0,2:2|1:2,0:0:0:0:
35,123,136225,5,6,1:2:0:0:
75,204,136390,2,0,P|152:216|206:281,1,151.199995385742,2|2,2:2|2:2,0:0:0:0:
287,240,136884,2,0,P|338:293|412:303,1,151.199995385742,2|10,2:2|2:2,0:0:0:0:
452,384,137379,1,2,1:2:0:0:
478,201,137709,5,2,1:2:0:0:
478,201,137873,2,0,P|450:182|392:169,1,75.5999976928712,10|0,2:2|1:2,0:0:0:0:
295,204,138203,5,2,1:2:0:0:
210,151,138368,2,0,P|178:139|128:136,2,82.8000015792847,10|10|8,2:2|2:2|2:2,0:0:0:0:
327,171,138862,6,0,P|353:251|284:302,1,158.400004833985,6|10,1:2|2:2,0:0:0:0:
214,250,139357,1,0,0:0:0:0:
156,335,139522,2,0,P|119:313|109:262,1,79.2000024169923,2|0,2:2|0:0,0:0:0:0:
7,254,139851,2,0,P|42:216|42:129,1,118.800003625488,10|0,2:2|0:0,0:0:0:0:
47,128,140181,6,0,P|81:158|128:154,1,79.2000024169923,2|0,2:2|0:0,0:0:0:0:
137,61,140511,1,10,2:2:0:0:
137,61,140676,1,2,2:2:0:0:
322,160,141005,1,8,2:3:0:0:
322,160,141170,2,0,P|355:122|420:138,1,118.800003625488,10|0,2:2|0:0,0:0:0:0:
436,152,141500,6,0,B|469:53|469:53|410:11,2,158.400004833985,2|10|2,1:2|2:2|2:2,0:0:0:0:
464,250,142324,1,0,0:0:0:0:
400,330,142489,2,0,P|341:332|299:287,1,118.800003625488,10|0,2:2|1:2,0:0:0:0:
294,269,142818,5,2,2:2:0:0:
210,329,142983,2,0,P|189:300|190:250,1,79.2000024169923,2|8,2:2|2:2,0:0:0:0:
226,161,143313,1,2,2:2:0:0:
38,64,143643,1,8,2:3:0:0:
38,64,143807,2,0,B|-1:119|-1:119|34:157,1,118.800003625488,10|0,2:2|0:0,0:0:0:0:
57,172,144137,6,0,B|112:137|112:137|175:148,1,118.800003625488,6|0,1:2|0:0,0:0:0:0:
173,168,144467,2,0,L|194:247,1,79.2000024169923,10|0,2:2|0:0,0:0:0:0:
292,302,144796,2,0,L|320:182,1,118.800003625488,2|0,2:2|0:0,0:0:0:0:
325,163,145126,2,0,B|358:187|358:187|412:179,1,79.2000024169923,10|0,2:2|1:2,0:0:0:0:
464,103,145456,5,2,2:2:0:0:
510,306,145785,1,10,2:2:0:0:
510,306,145950,2,0,P|462:317|416:271,1,118.800003625488,2|0,2:2|0:0,0:0:0:0:
394,259,146280,2,0,L|319:291,2,79.2000024169923,8|10|0,2:3|2:2|0:0,0:0:0:0:
480,196,146774,5,6,1:2:0:0:
441,100,146939,1,10,2:2:0:0:
261,201,147269,1,2,1:2:0:0:
188,128,147434,1,10,2:2:0:0:
105,316,147763,1,2,1:2:0:0:
10,274,147928,1,10,2:2:0:0:
218,218,148258,5,2,1:2:0:0:
296,164,148423,1,10,2:2:0:0:
304,258,148588,2,0,P|363:262|381:189,1,118.800003625488,2|0,1:2|0:0,0:0:0:0:
390,180,148917,5,10,2:2:0:0:
296,164,149082,1,10,2:2:0:0:
218,218,149247,1,10,2:2:0:0:
210,311,149412,6,0,P|236:341|285:347,2,72,4|2|8,1:2|2:2|2:2,0:0:0:0:
218,218,149906,2,0,P|237:148|260:73,1,144,2|2,2:2|2:2,0:0:0:0:
192,21,150401,1,10,2:2:0:0:
131,98,150566,6,0,P|84:81|22:141,1,144,2|0,1:2|0:0,0:0:0:0:
22,139,151060,1,8,2:2:0:0:
282,290,151720,1,10,2:2:0:0:
442,208,152049,5,2,1:2:0:0:
376,264,152214,2,0,P|366:297|357:337,1,72,2|8,1:2|2:2,0:0:0:0:
282,290,152544,1,2,2:2:0:0:
252,371,152709,1,2,2:2:0:0:
165,218,153038,5,10,2:2:0:0:
101,159,153203,2,0,P|131:125|135:96,1,72,2|0,1:2|0:0,0:0:0:0:
135,99,153533,1,0,1:2:0:0:
191,30,153698,2,0,B|242:14|261:56|247:67|275:100|312:89,1,144,10|0,2:2|1:2,0:0:0:0:
387,28,154192,5,10,2:2:0:0:
468,87,154357,1,10,2:2:0:0:
424,178,154522,1,10,2:2:0:0:
