osu file format v14

[General]
AudioFilename: audio.mp3
AudioLeadIn: 0
PreviewTime: 119216
Countdown: 0
SampleSet: Soft
StackLeniency: 0.4
Mode: 0
LetterboxInBreaks: 0
WidescreenStoryboard: 1

[Editor]
Bookmarks: 75472
DistanceSpacing: 1.1
BeatDivisor: 4
GridSize: 8
TimelineZoom: 5.700002

[Metadata]
Title:Drifting
TitleUnicode:Drifting
Artist:Good Kid
ArtistUnicode:Good Kid
Creator:Macuilxochitl
Version:Present Perfect Collab
Source:
Tags:osu! fa featured artist 2 indie rock english ruvari garvanturr cyberia950 big black dt monsieursebas ernua tatemae anishina kodoku sherrycherry loreley allihoppa senseabel entsetzen ent
BeatmapID:3496681
BeatmapSetID:1703768

[Difficulty]
HPDrainRate:5
CircleSize:3.5
OverallDifficulty:7
ApproachRate:8
SliderMultiplier:1.4
SliderTickRate:0.5

[Events]
//Background and Video events
0,0,"icee-dc-IvwVy4zqB3E-unsplash.jpg",0,0
//Break Periods
//Storyboard Layer 0 (Background)
//Storyboard Layer 1 (Fail)
//Storyboard Layer 2 (Pass)
//Storyboard Layer 3 (Foreground)
//Storyboard Layer 4 (Overlay)
//Storyboard Sound Samples

[TimingPoints]
991,295.566502463054,3,2,1,45,1,0
991,-105.263157894737,4,2,1,45,0,0
2764,295.566502463054,4,2,1,65,1,0
2764,-105.263157894737,4,2,1,65,0,0
6902,295.566502463054,4,2,1,65,1,0
6902,-105.263157894737,4,2,1,65,0,0
9266,295.566502463054,3,2,1,65,1,0
9266,-105.263157894737,3,2,1,65,0,0
11040,295.566502463054,4,2,1,65,1,0
11040,-105.263157894737,4,2,1,65,0,0
15178,295.566502463054,4,2,1,65,1,0
15178,-105.263157894737,4,2,1,65,0,0
17542,-90.9090909090909,4,2,1,75,0,0
31729,295.566502463054,3,2,1,75,1,0
31729,-95.2380952380952,4,2,1,75,0,0
33503,295.566502463054,4,2,1,65,1,0
33503,-95.2380952380952,4,2,1,65,0,0
35867,295.566502463054,3,2,1,65,1,0
35867,-95.2380952380952,3,2,1,65,0,0
37641,295.566502463054,4,2,1,65,1,0
37641,-95.2380952380952,4,2,1,65,0,0
40005,-100,4,2,1,65,0,0
41779,295.566502463054,4,2,1,65,1,0
41779,-100,4,2,1,65,0,0
45917,295.566502463054,4,2,1,65,1,0
45917,-100,4,2,1,65,0,0
48281,295.566502463054,3,2,1,65,1,0
48281,-100,3,2,1,65,0,0
50055,295.566502463054,4,2,1,65,1,0
50055,-100,4,2,1,65,0,0
54192,295.566502463054,4,2,1,65,1,0
54192,-100,4,2,1,65,0,0
56556,-90.9090909090909,4,2,1,75,0,0
75472,-135.135135135135,4,2,1,35,0,0
84930,-105.263157894737,4,2,1,45,0,0
86705,295.566502463054,4,2,1,45,1,0
86705,-105.263157894737,4,2,1,45,0,0
89069,-105.263157894737,4,2,1,45,0,0
90843,295.566502463054,4,2,1,45,1,0
90843,-105.263157894737,4,2,1,45,0,0
93207,-105.263157894737,4,2,1,45,0,0
94981,295.566502463054,4,2,1,45,1,0
94981,-105.263157894737,4,2,1,45,0,0
97345,-105.263157894737,4,2,1,45,0,0
99119,295.566502463054,4,2,1,45,1,0
99119,-105.263157894737,4,2,1,45,0,0
101483,-100,4,2,1,70,0,0
120399,-90.9090909090909,4,2,1,75,0,0
139316,-125,4,2,1,75,0,0
139759,-125,4,2,1,45,0,0
141089,-125,4,2,1,35,0,0
141680,-125,4,2,1,25,0,0
142271,-125,4,2,1,15,0,0
142862,-125,4,2,1,5,0,0

[Colours]
Combo1 : 198,223,218
Combo2 : 226,84,84
Combo3 : 223,213,189
Combo4 : 169,190,211

[HitObjects]
320,344,991,6,0,L|452:359,1,132.999996448517,2|2,1:2|1:2,0:0:0:0:
452,359,1877,2,0,L|307:342,1,132.999996448517,2|2,1:2|1:2,0:0:0:0:
319,343,2468,1,10,0:2:0:0:
244,256,2764,6,0,L|260:121,1,132.999996448517,6|8,1:2|0:0,0:0:0:0:
327,60,3207,1,2,0:0:0:0:
252,0,3355,2,0,P|191:-3|160:55,1,132.999996448517,2|10,0:0|0:2,0:0:0:0:
96,124,3798,6,0,P|99:157|104:191,1,66.4999982242585,2|0,1:2|0:0,0:0:0:0:
44,263,4094,2,0,P|40:296|35:330,1,66.4999982242585,2|8,1:2|0:0,0:0:0:0:
116,375,4389,1,0,0:0:0:0:
180,307,4537,2,0,P|213:310|247:315,1,66.4999982242585,2|2,0:2|0:2,0:0:0:0:
312,383,4832,2,0,P|345:379|379:374,1,66.4999982242585,10|10,0:2|0:2,0:0:0:0:
440,304,5128,6,0,P|412:243|348:231,1,132.999996448517,2|10,1:2|0:0,0:0:0:0:
352,230,6015,2,0,P|414:244|440:302,1,132.999996448517,10|2,0:2|1:2,0:0:0:0:
440,303,6606,1,10,0:2:0:0:
240,375,6902,6,0,L|257:236,1,132.999996448517,2|8,1:2|0:0,0:0:0:0:
308,168,7345,1,2,0:2:0:0:
308,168,7493,2,0,P|304:134|299:100,1,66.4999982242585,2|0,0:2|0:0,0:0:0:0:
248,24,7788,1,10,0:2:0:0:
187,100,7936,6,0,P|154:107|122:101,1,66.4999982242585,2|0,1:2|0:0,0:0:0:0:
24,56,8232,2,0,L|41:198,1,132.999996448517,2|0,1:2|0:0,0:0:0:0:
120,248,8675,1,2,0:2:0:0:
120,248,8823,1,2,0:2:0:0:
56,320,8970,1,10,0:2:0:0:
56,320,9118,1,10,0:2:0:0:
150,340,9266,6,0,B|220:323|218:369|288:353,1,132.999996448517,2|2,1:2|1:2,0:0:0:0:
376,296,9857,1,8,0:0:0:0:
279,354,10152,2,0,B|218:369|220:323|150:340,1,132.999996448517,2|2,1:2|1:2,0:0:0:0:
44,384,10743,1,10,0:0:0:0:
152,251,11040,6,0,P|148:217|143:183,1,66.4999982242585,2|0,1:2|0:0,0:0:0:0:
84,116,11335,2,0,P|87:82|92:48,1,66.4999982242585,10|0,0:2|0:0,0:0:0:0:
171,4,11631,2,0,P|235:10|270:64,1,132.999996448517,2|10,0:2|0:2,0:0:0:0:
332,152,12074,6,0,P|296:152|263:168,1,66.4999982242585,2|0,1:2|0:0,0:0:0:0:
236,255,12370,2,0,P|271:255|304:271,1,66.4999982242585,2|8,1:2|0:0,0:0:0:0:
359,343,12665,1,0,0:0:0:0:
432,280,12813,2,0,P|439:243|432:211,1,66.4999982242585,2|2,0:2|0:2,0:0:0:0:
504,152,13108,2,0,P|495:116|504:84,1,66.4999982242585,10|10,0:2|0:2,0:0:0:0:
444,12,13404,6,0,B|400:6|400:6|358:17|358:17|307:11,1,132.999996448517,2|10,1:2|0:2,0:0:0:0:
313,11,14291,2,0,B|358:17|358:17|400:6|400:6|444:12,1,132.999996448517,10|2,0:2|1:2,0:0:0:0:
444,12,14882,1,10,0:2:0:0:
400,124,15178,6,0,B|316:113|316:113|273:136,1,132.999996448517,2|8,1:2|0:0,0:0:0:0:
200,196,15621,1,2,0:2:0:0:
292,232,15769,2,0,L|275:364,1,132.999996448517,2|10,0:2|0:2,0:0:0:0:
176,384,16212,6,0,P|172:350|167:316,1,66.4999982242585,2|0,1:2|0:0,0:0:0:0:
96,260,16508,1,2,1:2:0:0:
96,260,16655,2,0,P|99:226|104:192,1,66.4999982242585,8|0,0:0|0:0,0:0:0:0:
112,100,16951,2,0,P|148:92|180:100,1,66.4999982242585,0|0,0:0|1:0,0:0:0:0:
244,160,17246,2,0,P|280:167|312:160,1,66.4999982242585,8|0,0:0|0:0,0:0:0:0:
436,104,17542,6,0,L|416:258,2,154.000004699707,6|8|0,1:2|0:0|0:0,0:0:0:0:
392,20,18281,1,0,1:0:0:0:
392,20,18429,1,10,0:2:0:0:
324,100,18577,1,2,1:2:0:0:
280,16,18724,6,0,P|245:3|200:6,1,77.0000023498536,2|2,0:0|1:2,0:0:0:0:
140,76,19020,1,8,0:0:0:0:
140,76,19168,2,0,P|103:79|60:66,1,77.0000023498536,2|0,0:0|0:0,0:0:0:0:
0,136,19463,2,0,P|12:172|11:210,1,77.0000023498536,2|8,1:2|0:0,0:0:0:0:
72,268,19759,1,0,0:0:0:0:
80,274,19833,1,0,0:0:0:0:
88,280,19907,6,0,P|136:220|208:224,2,154.000004699707,2|8|0,1:2|0:0|0:0,0:0:0:0:
144,360,20645,1,0,1:0:0:0:
144,360,20793,1,10,0:2:0:0:
232,312,20941,6,0,P|270:318|311:321,1,77.0000023498536,2|2,1:2|0:0,0:0:0:0:
376,384,21237,2,0,P|414:377|455:374,1,77.0000023498536,2|8,1:2|0:0,0:0:0:0:
512,304,21532,2,0,P|505:265|502:224,1,77.0000023498536,2|0,0:0|0:0,0:0:0:0:
436,164,21828,2,0,L|451:8,1,154.000004699707,2|0,1:2|0:0,0:0:0:0:
356,0,22271,6,0,L|340:155,2,154.000004699707,2|8|0,1:2|0:0|0:0,0:0:0:0:
188,16,23158,2,0,P|150:9|109:6,1,77.0000023498536,10|2,0:2|1:2,0:0:0:0:
68,76,23453,5,2,0:0:0:0:
68,76,23601,2,0,P|80:112|79:150,1,77.0000023498536,2|8,1:2|0:0,0:0:0:0:
152,212,23897,2,0,P|140:248|141:286,1,77.0000023498536,2|0,0:0|0:0,0:0:0:0:
204,356,24192,1,2,1:2:0:0:
204,356,24340,2,0,P|240:344|278:345,1,77.0000023498536,8|0,0:0|0:0,0:0:0:0:
336,264,24636,6,0,P|312:194|236:187,2,154.000004699707,2|8|0,1:2|0:0|0:0,0:0:0:0:
488,368,25522,1,8,0:0:0:0:
488,368,25670,6,0,P|486:329|479:288,1,77.0000023498536,0|0,1:0|0:0,0:0:0:0:
424,216,25966,2,0,P|426:177|433:139,1,77.0000023498536,0|8,1:0|0:0,0:0:0:0:
456,52,26261,2,0,P|417:49|376:42,1,77.0000023498536
292,96,26557,1,0,1:0:0:0:
292,96,26705,1,8,0:0:0:0:
188,48,26852,1,0,0:0:0:0:
196,52,26926,1,0,0:0:0:0:
204,56,27000,6,0,B|252:68|252:68|228:176,2,154.000004699707,6|8|0,1:2|0:0|0:0,0:0:0:0:
96,56,27739,1,0,1:0:0:0:
96,56,27887,2,0,P|98:94|104:132,1,77.0000023498536,10|0,0:0|1:0,0:0:0:0:
64,228,28182,6,0,P|101:225|138:235,1,77.0000023498536,2|2,0:0|1:2,0:0:0:0:
212,292,28478,1,8,0:0:0:0:
212,292,28626,2,0,P|249:294|286:284,1,77.0000023498536,2|0,0:0|0:0,0:0:0:0:
356,220,28921,2,0,P|358:182|348:145,1,77.0000023498536,2|8,1:2|0:0,0:0:0:0:
276,80,29217,1,0,0:0:0:0:
352,24,29365,6,0,P|424:36|440:108,2,154.000004699707,2|8|0,1:2|0:0|0:0,0:0:0:0:
276,80,30104,1,0,1:0:0:0:
276,80,30251,1,10,0:2:0:0:
208,8,30399,6,0,P|169:10|131:16,1,77.0000023498536,2|2,1:2|0:0,0:0:0:0:
76,96,30695,2,0,P|115:98|153:104,1,77.0000023498536,2|8,1:2|0:0,0:0:0:0:
216,176,30990,2,0,P|156:204|148:284,1,154.000004699707,2|0,0:0|1:0,0:0:0:0:
236,339,31434,2,0,P|238:300|228:264,1,77.0000023498536,10|2,0:0|0:0,0:0:0:0:
328,204,31729,6,0,B|402:186|398:241|476:223,2,146.999995513916,2|2|8,1:2|1:2|0:2,0:0:0:0:
272,128,32467,1,0,1:2:0:0:
272,128,32615,2,0,P|275:89|281:52,1,73.4999977569581,2|0,1:2|0:0,0:0:0:0:
200,8,32911,2,0,P|136:20|120:92,1,146.999995513916,2|8,1:2|0:2,0:0:0:0:
13,265,33503,6,0,B|112:252|112:252|152:288,1,146.999995513916,6|8,1:2|0:2,0:0:0:0:
204,360,33946,1,2,0:2:0:0:
204,360,34094,2,0,P|242:356|279:350,1,73.4999977569581,2|0,0:2|0:0,0:0:0:0:
344,284,34389,1,10,0:2:0:0:
272,224,34537,6,0,P|268:187|281:148,1,73.4999977569581,2|0,1:2|0:0,0:0:0:0:
344,88,34833,2,0,P|347:51|334:12,1,73.4999977569581,2|10,1:2|0:2,0:0:0:0:
248,0,35128,2,0,P|211:-3|172:9,1,73.4999977569581,2|0,0:2|0:0,0:0:0:0:
132,88,35424,1,2,0:2:0:0:
132,88,35571,2,0,P|168:84|207:97,1,73.4999977569581,10|0,0:2|0:0,0:0:0:0:
280,152,35867,6,0,L|426:133,2,146.999995513916,2|2|8,1:2|1:2|0:2,0:0:0:0:
208,216,36605,1,0,1:2:0:0:
208,216,36753,2,0,P|204:254|198:291,1,73.4999977569581,2|0,1:2|0:0,0:0:0:0:
128,352,37049,2,0,P|60:360|24:288,1,146.999995513916,2|8,1:2|0:2,0:0:0:0:
0,104,37641,6,0,B|77:86|67:129|145:111,1,146.999995513916,6|8,1:2|0:2,0:0:0:0:
232,80,38084,1,2,0:2:0:0:
232,80,38232,2,0,P|228:118|222:155,1,73.4999977569581,2|0,0:2|0:0,0:0:0:0:
156,224,38527,1,10,0:2:0:0:
232,276,38675,6,0,P|270:272|307:266,1,73.4999977569581,2|0,1:2|0:0,0:0:0:0:
360,192,38971,2,0,P|398:195|435:201,1,73.4999977569581,0|10,1:2|0:2,0:0:0:0:
500,136,39266,2,0,P|464:68|400:64,1,146.999995513916,2|2,0:0|1:2,0:0:0:0:
320,100,39709,1,10,0:2:0:0:
320,100,39857,1,2,0:0:0:0:
248,32,40005,6,0,L|105:49,1,140,2|10,1:2|0:2,0:0:0:0:
109,49,40892,2,0,L|248:32,1,140,10|2,0:2|1:2,0:0:0:0:
247,32,41483,1,10,0:2:0:0:
252,152,41779,6,0,L|238:291,1,140,2|8,1:2|0:0,0:0:0:0:
288,368,42222,1,2,0:0:0:0:
336,288,42370,2,0,P|400:304|424:368,1,140,2|10,0:0|0:2,0:0:0:0:
504,316,42813,6,0,P|497:279|495:244,1,70,2|0,1:2|0:0,0:0:0:0:
432,176,43109,2,0,P|438:139|440:104,1,70,2|8,1:2|0:0,0:0:0:0:
388,28,43404,1,0,0:0:0:0:
388,28,43552,2,0,P|351:21|316:19,1,70,2|2,0:2|0:2,0:0:0:0:
252,84,43847,2,0,P|215:90|180:92,1,70,10|10,0:2|0:2,0:0:0:0:
112,180,44143,6,0,P|156:232|220:220,1,140,2|10,1:2|0:0,0:0:0:0:
220,219,45030,2,0,P|154:231|112:180,1,140,10|2,0:2|1:2,0:0:0:0:
111,179,45621,1,10,0:2:0:0:
0,104,45917,6,0,L|17:246,1,140,2|8,1:2|0:0,0:0:0:0:
40,336,46360,1,2,0:2:0:0:
40,336,46508,2,0,P|76:335|111:327,1,70,2|0,0:2|0:0,0:0:0:0:
168,256,46803,1,10,0:2:0:0:
112,180,46951,6,0,P|111:143|103:108,1,70,2|0,1:2|0:0,0:0:0:0:
160,36,47247,1,2,1:2:0:0:
160,36,47394,2,0,P|196:36|231:44,1,70,8|0,0:0|0:0,0:0:0:0:
296,108,47690,1,2,0:2:0:0:
296,108,47838,1,2,0:2:0:0:
240,184,47985,1,10,0:2:0:0:
240,184,48133,1,10,0:2:0:0:
328,224,48281,6,0,B|402:206|391:250|465:233,1,140,2|2,1:2|1:2,0:0:0:0:
512,132,48872,1,8,0:0:0:0:
464,233,49167,2,0,B|390:250|401:206|327:224,1,140,2|2,1:2|1:2,0:0:0:0:
256,312,49758,1,10,0:0:0:0:
204,208,50055,6,0,L|221:69,1,140,2|10,1:2|0:2,0:0:0:0:
152,4,50498,1,2,0:0:0:0:
152,4,50646,2,0,P|85:5|55:65,1,140,2|10,0:2|0:2,0:0:0:0:
24,164,51089,6,0,P|61:158|96:156,1,70,2|0,1:2|0:0,0:0:0:0:
141,259,51385,2,0,P|106:253|71:251,1,70,2|8,1:2|0:0,0:0:0:0:
56,340,51680,1,0,0:0:0:0:
56,340,51828,2,0,P|90:342|125:347,1,70,2|2,0:2|0:2,0:0:0:0:
216,320,52123,2,0,P|250:317|285:312,1,70,10|10,0:2|0:2,0:0:0:0:
340,236,52419,6,0,B|346:184|346:184|362:150|362:150|369:94,1,140,2|10,1:2|0:2,0:0:0:0:
368,100,53306,2,0,B|362:150|362:150|346:184|346:184|340:236,1,140,10|2,0:2|1:2,0:0:0:0:
340,236,53897,1,10,0:2:0:0:
312,359,54192,6,0,P|245:353|215:293,1,140,2|8,1:2|0:0,0:0:0:0:
120,184,54635,1,2,0:2:0:0:
120,184,54783,2,0,B|160:216|160:216|248:192,1,140,2|10,0:2|0:2,0:0:0:0:
292,112,55226,6,0,P|291:76|283:41,1,70,2|0,1:2|0:0,0:0:0:0:
376,36,55522,1,2,1:2:0:0:
376,36,55669,2,0,P|383:71|384:107,1,70,8|0,0:0|0:0,0:0:0:0:
452,172,55965,2,0,P|444:207|443:243,1,70,0|0,0:0|1:0,0:0:0:0:
416,340,56260,1,8,0:0:0:0:
416,340,56408,1,0,0:0:0:0:
352,260,56556,6,0,L|197:279,2,154.000004699707,6|8|0,1:2|0:0|0:0,0:0:0:0:
432,196,57295,1,0,1:0:0:0:
432,196,57443,1,10,0:2:0:0:
364,124,57591,1,2,1:2:0:0:
280,168,57738,6,0,P|241:162|203:158,1,77.0000023498536,2|2,0:0|1:2,0:0:0:0:
104,128,58034,1,8,0:0:0:0:
104,128,58182,2,0,P|107:166|113:204,1,77.0000023498536,2|0,0:0|0:0,0:0:0:0:
188,260,58477,2,0,P|184:298|178:336,1,77.0000023498536,2|8,1:2|0:0,0:0:0:0:
280,364,58773,1,0,0:0:0:0:
280,364,58847,1,0,0:0:0:0:
280,364,58921,6,0,P|344:356|372:272,2,154.000004699707,2|8|0,1:2|0:0|0:0,0:0:0:0:
178,336,59659,1,0,1:0:0:0:
178,336,59807,1,10,0:2:0:0:
260,264,59955,1,2,1:2:0:0:
260,264,60103,6,0,P|256:225|250:187,1,77.0000023498536,2|2,0:0|1:2,0:0:0:0:
180,120,60398,1,8,0:0:0:0:
180,120,60546,2,0,P|183:81|189:43,1,77.0000023498536,2|0,0:0|0:0,0:0:0:0:
288,11,60842,2,0,P|361:14|400:77,1,154.000004699707,2|0,1:2|0:0,0:0:0:0:
412,189,61285,6,0,B|314:177|314:177|269:212,2,154.000004699707,2|8|0,1:2|0:0|0:0,0:0:0:0:
504,360,62172,1,10,0:2:0:0:
504,360,62320,6,0,P|468:352|424:360,1,77.0000023498536,2|2,1:2|0:0,0:0:0:0:
356,300,62615,2,0,P|320:308|276:300,1,77.0000023498536,2|8,1:2|0:0,0:0:0:0:
188,304,62911,2,0,P|180:268|188:224,1,77.0000023498536,2|0,0:0|0:0,0:0:0:0:
260,176,63206,1,2,1:2:0:0:
260,176,63354,2,0,P|268:140|260:96,1,77.0000023498536,8|0,0:0|0:0,0:0:0:0:
196,28,63650,6,0,P|128:36|112:112,2,154.000004699707,2|8|0,1:2|0:0|0:0,0:0:0:0:
288,168,64536,1,8,0:0:0:0:
288,168,64684,6,0,P|326:164|364:158,1,77.0000023498536,0|0,1:0|0:0,0:0:0:0:
468,104,64980,2,0,P|464:142|458:180,1,77.0000023498536,0|8,1:0|0:0,0:0:0:0:
388,244,65275,2,0,P|391:282|397:320,1,77.0000023498536,0|0,0:0|1:0,0:0:0:0:
320,376,65571,1,0,1:0:0:0:
320,376,65719,1,8,0:0:0:0:
245,299,65866,1,0,0:0:0:0:
245,299,65940,1,0,0:0:0:0:
245,299,66014,6,0,L|91:319,2,154.000004699707,6|8|0,1:2|0:0|0:0,0:0:0:0:
178,225,66753,1,0,1:0:0:0:
178,225,66901,2,0,P|174:188|187:145,1,77.0000023498536,10|0,0:0|1:0,0:0:0:0:
131,75,67196,5,2,0:0:0:0:
131,75,67344,2,0,P|134:38|121:-5,1,77.0000023498536,2|8,1:2|0:0,0:0:0:0:
227,0,67640,2,0,P|266:-3|302:7,1,77.0000023498536,2|0,0:0|0:0,0:0:0:0:
404,92,67935,2,0,P|367:88|324:101,1,77.0000023498536,2|8,1:2|0:0,0:0:0:0:
256,168,68231,1,0,0:0:0:0:
336,224,68379,6,0,P|396:260|396:340,2,154.000004699707,2|8|0,1:2|0:0|0:0,0:0:0:0:
260,284,69118,1,0,1:0:0:0:
260,284,69265,1,10,0:2:0:0:
188,212,69413,1,2,1:2:0:0:
188,212,69561,6,0,P|149:215|111:221,1,77.0000023498536,2|2,0:0|1:2,0:0:0:0:
32,272,69857,1,8,0:0:0:0:
28,176,70004,2,0,L|43:20,1,154.000004699707,2|0,0:0|1:0,0:0:0:0:
136,0,70448,1,10,0:0:0:0:
136,0,70595,1,2,0:0:0:0:
184,84,70743,6,0,P|222:80|260:74,1,77.0000023498536,0|0,1:0|0:0,0:0:0:0:
320,4,71039,2,0,P|358:7|396:13,1,77.0000023498536,8|0,0:0|0:0,0:0:0:0:
464,80,71334,2,0,P|460:118|454:156,1,77.0000023498536,0|0,0:0|1:0,0:0:0:0:
440,252,71630,1,10,0:2:0:0:
440,252,71778,1,2,1:2:0:0:
368,184,71925,6,0,P|331:180|288:193,1,77.0000023498536,2|2,0:0|1:2,0:0:0:0:
232,260,72221,1,8,0:0:0:0:
232,260,72369,2,0,P|195:263|152:250,1,77.0000023498536,2|0,0:0|0:0,0:0:0:0:
88,184,72664,2,0,P|112:120|192:124,1,154.000004699707,2|0,1:2|0:0,0:0:0:0:
272,76,73108,6,0,P|275:39|262:-3,1,77.0000023498536,2|0,1:2|0:0,0:0:0:0:
360,0,73403,2,0,P|370:36|367:74,1,77.0000023498536,8|0,0:0|0:0,0:0:0:0:
332,156,73699,2,0,P|330:194|343:230,1,77.0000023498536,0|0,0:0|1:0,0:0:0:0:
416,296,73994,1,8,0:0:0:0:
336,348,74142,6,0,P|297:344|259:338,1,77.0000023498536,0|0,1:0|0:0,0:0:0:0:
200,264,74438,2,0,P|161:267|123:273,1,77.0000023498536,0|8,1:0|0:0,0:0:0:0:
56,208,74733,2,0,L|75:53,1,154.000004699707,0|0,0:0|1:0,0:0:0:0:
152,4,75177,1,8,0:0:0:0:
152,4,75325,1,0,0:0:0:0:
232,112,75472,6,0,B|326:136|326:136|391:95,2,155.400003793945,4|0|2,1:2|0:0|0:0,0:0:0:0:
190,45,76507,1,2,0:0:0:0:
190,45,76655,1,2,0:0:0:0:
84,109,76950,1,2,0:0:0:0:
186,180,77246,2,0,L|241:196,2,51.8000012646485,2|2|2,0:0|0:0|0:0,0:0:0:0:
75,237,77837,6,0,B|129:254|129:254|152:296|152:296|213:317,2,155.400003793945,4|0|2,1:2|0:0|0:0,0:0:0:0:
21,300,78871,1,2,0:0:0:0:
21,300,79019,1,2,0:0:0:0:
127,364,79315,1,2,0:0:0:0:
181,252,79610,1,2,0:0:0:0:
343,344,80054,1,0,0:0:0:0:
343,344,80127,1,0,0:0:0:0:
343,344,80201,6,0,B|303:322|303:322|302:205,2,155.400003793945,4|0|2,1:2|0:0|0:0,0:0:0:0:
400,283,81236,1,2,0:0:0:0:
400,283,81384,1,2,0:0:0:0:
482,190,81679,1,2,0:0:0:0:
359,165,81975,2,0,L|286:170,2,51.8000012646485,2|2|2,0:0|0:0|0:0,0:0:0:0:
438,69,82566,6,0,P|364:58|292:19,1,155.400003793945,4|0,1:2|0:0,0:0:0:0:
106,26,83453,5,0,0:0:0:0:
106,26,83600,1,0,0:0:0:0:
106,26,83748,2,0,L|120:85,1,51.8000012646485
192,113,84044,2,0,P|176:142|170:167,1,51.8000012646485,2|2,0:0|0:0,0:0:0:0:
100,203,84339,2,0,B|121:221|121:221|124:263,1,51.8000012646485,2|2,0:0|0:0,0:0:0:0:
173,311,84635,1,10,0:0:0:0:
309,324,84930,6,0,L|176:314,1,132.999996448517,2|10,1:2|0:2,0:0:0:0:
176,314,85817,2,0,L|309:324,1,132.999996448517,10|2,0:2|0:0,0:0:0:0:
308,323,86408,1,8,0:0:0:0:
403,230,86705,6,0,B|416:160|416:160|390:92,1,132.999996448517,0|8,0:0|0:0,0:0:0:0:
260,105,87296,2,0,B|237:162|237:162|250:232,1,132.999996448517,0|8,0:0|0:0,0:0:0:0:
160,330,87887,1,0,0:0:0:0:
160,330,88182,1,8,0:0:0:0:
78,225,88478,2,0,B|69:186|69:186|91:147,1,66.4999982242585,2|2,0:2|0:2,0:0:0:0:
161,113,88773,2,0,B|170:74|170:74|148:35,1,66.4999982242585,10|2,0:2|0:2,0:0:0:0:
246,24,89069,6,0,L|381:30,1,132.999996448517,2|10,1:2|0:0,0:0:0:0:
378,29,89956,2,0,L|246:24,1,132.999996448517,10|2,0:0|0:0,0:0:0:0:
245,23,90547,1,8,0:0:0:0:
138,102,90843,6,0,B|179:139|179:139|177:223,1,132.999996448517,0|8,0:0|0:0,0:0:0:0:
334,255,91434,2,0,B|293:218|293:218|295:134,1,132.999996448517,0|8,0:0|0:0,0:0:0:0:
390,44,92025,1,0,0:0:0:0:
390,44,92320,1,8,0:0:0:0:
473,147,92616,2,0,B|468:189|468:189|482:240,1,66.4999982242585,2|2,0:0|0:0,0:0:0:0:
406,277,92911,2,0,B|422:299|422:299|408:350,1,66.4999982242585,10|2,0:2|0:0,0:0:0:0:
284,362,93207,6,0,B|232:348|232:348|209:358|209:358|134:337,1,132.999996448517,2|10,1:2|0:0,0:0:0:0:
156,343,94094,2,0,B|209:358|209:358|232:348|232:348|284:362,1,132.999996448517,10|2,0:2|1:2,0:0:0:0:
283,361,94685,1,8,0:0:0:0:
353,218,94981,6,0,L|215:178,1,132.999996448517,0|8,1:0|0:0,0:0:0:0:
114,65,95572,2,0,L|241:102,1,132.999996448517,0|8,0:0|0:0,0:0:0:0:
370,52,96163,1,0,0:0:0:0:
370,52,96458,1,8,0:0:0:0:
410,178,96754,2,0,L|382:251,1,66.4999982242585,2|2,0:0|0:0,0:0:0:0:
294,261,97049,2,0,L|266:334,1,66.4999982242585,10|2,0:2|0:0,0:0:0:0:
182,355,97345,6,0,P|149:324|50:337,1,132.999996448517,2|10,1:2|0:0,0:0:0:0:
65,325,98232,2,0,P|129:316|182:355,1,132.999996448517,10|2,0:2|1:2,0:0:0:0:
181,354,98823,1,8,0:0:0:0:
227,229,99119,6,0,L|198:71,1,132.999996448517,0|8,1:0|0:0,0:0:0:0:
334,74,99710,2,0,L|358:204,1,132.999996448517,0|8,0:0|0:0,0:0:0:0:
375,296,100153,2,0,L|295:310,2,66.4999982242585,0|0|0,1:0|0:0|1:0,0:0:0:0:
464,269,100596,1,8,0:0:0:0:
464,269,100744,1,0,1:0:0:0:
440,178,100892,1,8,0:0:0:0:
440,178,101483,6,0,P|378:172|321:100,2,140,6|10|2,1:2|0:2|0:2,0:0:0:0:
486,91,102222,1,0,0:0:0:0:
486,91,102370,1,10,0:2:0:0:
405,35,102518,2,0,L|317:45,1,70,2|0,1:2|0:0,0:0:0:0:
296,132,102813,2,0,L|208:142,1,70,2|8,1:2|0:0,0:0:0:0:
120,69,103109,2,0,L|189:61,2,70,2|0|2,0:0|0:0|1:2,0:0:0:0:
23,80,103552,2,0,L|37:161,1,70,10|0,0:2|0:0,0:0:0:0:
102,228,103848,5,2,1:2:0:0:
102,228,103995,1,2,0:2:0:0:
9,248,104143,1,10,0:2:0:0:
9,248,104291,1,2,0:2:0:0:
33,342,104439,2,0,L|130:321,1,70,2|2,0:2|0:2,0:0:0:0:
201,312,104734,1,10,0:2:0:0:
201,312,104882,6,0,P|227:354|310:340,1,140,2|2,1:2|1:2,0:0:0:0:
367,264,105325,1,10,0:2:0:0:
310,184,105473,2,0,B|233:154|249:223|159:190,1,140,2|2,0:2|0:2,0:0:0:0:
116,108,105917,1,10,0:2:0:0:
116,108,106064,1,2,0:2:0:0:
192,46,106212,6,0,P|256:25|328:52,2,140,2|10|2,1:2|0:2|0:2,0:0:0:0:
116,108,106951,1,0,0:0:0:0:
116,108,107099,1,10,0:2:0:0:
176,186,107247,2,0,L|165:262,1,70,2|0,1:2|0:0,0:0:0:0:
75,294,107542,2,0,L|86:370,1,70,2|8,1:2|0:0,0:0:0:0:
183,375,107838,2,0,L|276:362,1,70,2|0,0:0|0:0,0:0:0:0:
314,289,108133,1,2,1:2:0:0:
314,289,108281,2,0,L|407:276,1,70,10|0,0:2|0:0,0:0:0:0:
458,343,108577,5,2,1:2:0:0:
458,343,108724,1,2,0:0:0:0:
483,249,108872,1,10,0:0:0:0:
483,249,109020,1,2,0:0:0:0:
407,186,109168,2,0,P|369:187|341:164,1,70,2|2,0:0|0:0,0:0:0:0:
302,79,109463,1,10,0:0:0:0:
210,114,109611,6,0,P|237:167|258:257,1,140,2|2,1:2|1:2,0:0:0:0:
203,327,110054,1,10,0:2:0:0:
203,327,110202,2,0,B|125:290|145:370|48:331,1,140,2|2,0:2|0:2,0:0:0:0:
24,250,110646,1,10,0:2:0:0:
24,250,110793,1,2,0:2:0:0:
98,185,110941,6,0,L|115:42,2,140,2|10|2,1:2|0:0|0:0,0:0:0:0:
164,257,111680,1,0,1:0:0:0:
164,257,111828,1,10,0:0:0:0:
224,179,111976,2,0,L|306:190,1,70,2|0,1:2|0:0,0:0:0:0:
359,115,112271,2,0,L|441:126,1,70,2|8,1:2|0:0,0:0:0:0:
494,224,112567,2,0,L|424:214,2,70,2|0|2,0:0|0:0|1:2,0:0:0:0:
483,314,113010,2,0,L|471:392,1,70,10|0,0:2|0:0,0:0:0:0:
381,371,113306,6,0,B|314:354|314:354|229:345,2,140,2|10|2,1:2|0:2|0:0,0:0:0:0:
453,294,114045,1,0,1:0:0:0:
453,294,114192,1,10,0:2:0:0:
378,220,114340,2,0,B|345:213|345:213|294:206,1,70,2|0,1:2|0:0,0:0:0:0:
214,256,114636,2,0,B|181:253|181:253|130:242,1,70,2|8,1:2|0:0,0:0:0:0:
69,171,114931,2,0,B|34:162|34:162|-15:157,1,70,2|0,0:0|0:0,0:0:0:0:
18,55,115227,1,2,1:2:0:0:
18,55,115375,2,0,B|52:58|52:58|87:66,1,70,10|0,0:2|0:0,0:0:0:0:
186,98,115670,6,0,B|253:114|253:114|338:93,2,140,2|10|2,1:2|0:2|0:0,0:0:0:0:
86,65,116409,1,0,1:0:0:0:
86,65,116557,1,10,0:2:0:0:
61,167,116705,2,0,B|77:206|77:206|74:248,1,70,2|0,1:2|0:0,0:0:0:0:
180,231,117000,2,0,B|178:258|178:258|194:297,1,70,2|8,1:2|0:0,0:0:0:0:
296,289,117296,2,0,B|280:328|280:328|281:355,1,70,2|0,0:0|0:0,0:0:0:0:
387,350,117591,1,2,1:2:0:0:
387,350,117739,2,0,B|386:323|386:323|402:284,1,70,10|0,0:2|0:0,0:0:0:0:
345,192,118035,6,0,B|332:122|332:122|328:38,2,140,2|10|2,1:2|0:2|0:0,0:0:0:0:
257,250,118774,1,0,1:0:0:0:
257,250,118921,1,10,0:2:0:0:
177,182,119069,2,0,B|170:143|170:143|159:107,1,70,2|0,1:2|0:0,0:0:0:0:
218,37,119365,1,0,1:0:0:0:
328,53,119513,6,0,P|360:68|415:63,1,70,10|2,0:0|0:0,0:0:0:0:
442,154,119808,1,2,0:0:0:0:
442,154,119956,1,2,1:2:0:0:
374,225,120104,2,0,P|359:257|363:312,1,70,10|2,0:2|0:0,0:0:0:0:
279,376,120399,6,0,L|194:354,1,77.0000023498536,6|0,1:2|0:0,0:0:0:0:
111,347,120695,2,0,P|181:327|190:253,1,154.000004699707,10|0,0:0|0:0,0:0:0:0:
139,165,121138,1,0,1:0:0:0:
139,165,121286,2,0,P|179:147|226:161,1,77.0000023498536,10|2,0:2|1:2,0:0:0:0:
312,113,121582,6,0,P|238:111|202:31,1,154.000004699707,2|8,0:0|0:0,0:0:0:0:
94,30,122025,2,0,P|78:73|80:112,1,77.0000023498536,2|0,0:0|0:0,0:0:0:0:
130,185,122320,1,0,1:0:0:0:
130,185,122468,2,0,P|145:221|146:259,1,77.0000023498536,8|0,0:0|0:0,0:0:0:0:
66,330,122764,6,0,P|104:343|149:372,1,77.0000023498536,2|0,1:2|0:0,0:0:0:0:
229,307,123059,1,10,0:2:0:0:
229,307,123207,1,0,0:0:0:0:
320,364,123355,2,0,P|353:344|389:332,1,77.0000023498536,0|0,0:0|1:0,0:0:0:0:
480,273,123651,1,8,0:0:0:0:
482,380,123798,2,0,P|464:312|445:217,1,154.000004699707,0|0,1:0|1:0,0:0:0:0:
346,188,124242,1,8,0:0:0:0:
413,103,124389,2,0,P|336:93|291:25,1,154.000004699707,2|2,0:0|1:2,0:0:0:0:
191,13,124833,1,10,0:2:0:0:
191,13,124981,1,2,0:0:0:0:
117,90,125128,6,0,P|131:129|144:179,1,77.0000023498536,6|0,1:2|0:0,0:0:0:0:
242,201,125424,2,0,P|222:255|199:349,1,154.000004699707,10|0,0:0|0:0,0:0:0:0:
96,373,125867,1,0,1:0:0:0:
96,373,126015,2,0,P|46:354|18:350,1,77.0000023498536,10|0,0:0|1:0,0:0:0:0:
5,243,126311,6,0,P|85:238|161:210,1,154.000004699707,2|8,0:0|0:0,0:0:0:0:
229,136,126754,2,0,P|165:133|139:124,1,77.0000023498536,2|0,0:0|0:0,0:0:0:0:
81,47,127050,1,0,1:0:0:0:
81,47,127197,2,0,P|145:44|171:35,1,77.0000023498536,8|0,0:0|0:0,0:0:0:0:
265,30,127493,6,0,P|302:15|348:21,1,77.0000023498536,2|0,1:2|0:0,0:0:0:0:
422,86,127788,1,10,0:2:0:0:
422,86,127936,1,0,0:0:0:0:
340,156,128084,2,0,P|325:193|331:239,1,77.0000023498536,0|0,0:0|1:0,0:0:0:0:
402,308,128380,1,8,0:0:0:0:
303,349,128527,2,0,B|220:320|243:398|131:360,1,154.000004699707,0|0,1:0|1:0,0:0:0:0:
69,285,128971,1,8,0:0:0:0:
69,285,129118,2,0,P|145:279|203:229,1,154.000004699707,2|2,0:0|1:2,0:0:0:0:
220,123,129562,1,10,0:2:0:0:
220,123,129710,1,10,0:2:0:0:
298,197,129857,6,0,P|341:218|364:239,1,77.0000023498536,6|0,1:2|0:0,0:0:0:0:
417,329,130153,2,0,P|401:262|436:170,1,154.000004699707,10|0,0:0|0:0,0:0:0:0:
497,101,130596,1,0,1:0:0:0:
497,101,130744,2,0,P|449:93|406:64,1,77.0000023498536,10|0,0:0|1:0,0:0:0:0:
332,22,131040,6,0,B|247:0|268:78|169:45,1,154.000004699707,2|8,0:0|0:0,0:0:0:0:
82,25,131483,2,0,P|106:57|123:115,1,77.0000023498536,2|0,0:0|0:0,0:0:0:0:
200,171,131779,1,0,1:0:0:0:
200,171,131926,2,0,P|176:203|159:261,1,77.0000023498536,8|0,0:0|0:0,0:0:0:0:
113,334,132222,6,0,P|142:348|208:334,1,77.0000023498536,2|0,1:2|0:0,0:0:0:0:
268,275,132518,1,10,0:2:0:0:
268,275,132665,1,0,0:0:0:0:
340,355,132813,2,0,P|369:341|435:355,1,77.0000023498536,0|0,0:0|1:0,0:0:0:0:
470,251,133109,1,8,0:0:0:0:
369,211,133256,2,0,P|451:209|493:138,1,154.000004699707,0|0,1:0|1:0,0:0:0:0:
466,50,133700,1,8,0:0:0:0:
360,74,133848,2,0,P|301:82|224:27,1,154.000004699707,2|2,0:0|1:2,0:0:0:0:
161,116,134291,1,10,0:2:0:0:
161,116,134439,1,10,0:2:0:0:
62,72,134586,6,0,P|73:103|88:168,1,77.0000023498536,6|0,1:2|0:0,0:0:0:0:
173,206,134882,2,0,P|100:207|58:294,1,154.000004699707,10|0,0:2|0:0,0:0:0:0:
116,361,135325,1,0,1:0:0:0:
116,361,135473,2,0,P|162:366|203:345,1,77.0000023498536,10|0,0:0|1:0,0:0:0:0:
258,270,135769,6,0,B|350:247|319:324|426:290,1,154.000004699707,2|8,0:0|0:0,0:0:0:0:
470,211,136212,2,0,P|430:210|385:190,1,77.0000023498536,2|0,0:0|0:0,0:0:0:0:
310,126,136508,1,0,1:0:0:0:
310,126,136655,2,0,P|350:125|395:105,1,77.0000023498536,8|0,0:0|0:0,0:0:0:0:
330,18,136951,5,2,1:2:0:0:
223,35,137099,2,0,L|131:52,1,77.0000023498536,8|2,0:0|0:0,0:0:0:0:
40,63,137394,5,0,1:0:0:0:
57,170,137542,2,0,L|74:262,1,77.0000023498536,8|0,0:0|0:0,0:0:0:0:
151,319,137838,5,0,1:0:0:0:
151,319,137985,2,0,L|164:243,2,77.0000023498536,8|0|2,0:0|0:0|1:2,0:0:0:0:
252,356,138429,2,0,L|239:280,1,77.0000023498536,10|2,0:2|1:2,0:0:0:0:
290,184,138724,1,10,0:2:0:0:
290,184,138872,1,2,1:2:0:0:
359,266,139020,2,0,P|400:268|436:242,1,77.0000023498536,10|2,0:2|1:2,0:0:0:0:
460,145,139316,6,0,P|378:137|330:49,1,168,4|2,1:2|0:0,0:0:0:0:
256,192,139907,12,0,142862,0:0:0:0:
