osu file format v14

[General]
AudioFilename: audio.mp3
AudioLeadIn: 0
PreviewTime:119216
Countdown: 0
SampleSet: Soft
StackLeniency: 0.4
Mode: 0
LetterboxInBreaks: 0
WidescreenStoryboard: 1

[Editor]
Bookmarks:75472
DistanceSpacing: 1.1
BeatDivisor: 4
GridSize: 16
TimelineZoom: 2.000006

[Metadata]
Title:Drifting
TitleUnicode:Drifting
Artist:Good Kid
ArtistUnicode:Good Kid
Creator:Macuilxochitl
Version:Past Simple Collab
Source:
Tags:osu! fa featured artist 2 indie rock english ruvari garvanturr cyberia950 big black dt monsieursebas ernua tatemae anishina kodoku sherrycherry loreley allihoppa senseabel entsetzen ent
BeatmapID:3494708
BeatmapSetID:1703768

[Difficulty]
HPDrainRate:3
CircleSize:3.2
OverallDifficulty:4.5
ApproachRate:6.5
SliderMultiplier:0.899999999999999
SliderTickRate:0.5

[Events]
//Background and Video events
0,0,"icee-dc-IvwVy4zqB3E-unsplash.jpg",0,0
//Break Periods
2,85130,92232
//Storyboard Layer 0 (Background)
//Storyboard Layer 1 (Fail)
//Storyboard Layer 2 (Pass)
//Storyboard Layer 3 (Foreground)
//Storyboard Layer 4 (Overlay)
//Storyboard Sound Samples

[TimingPoints]
991,295.566502463054,3,2,1,45,1,0
991,-100,4,2,1,45,0,0
2764,295.566502463054,4,2,1,65,1,0
2764,-100,4,2,1,65,0,0
6902,295.566502463054,4,2,1,65,1,0
6902,-100,4,2,1,65,0,0
9266,295.566502463054,3,2,1,65,1,0
9266,-100,3,2,1,65,0,0
11040,295.566502463054,4,2,1,65,1,0
11040,-100,4,2,1,65,0,0
15178,295.566502463054,4,2,1,65,1,0
15178,-100,4,2,1,65,0,0
17542,-95.2380952380952,4,2,1,75,0,0
31729,295.566502463054,3,2,1,75,1,0
31729,-100,4,2,1,75,0,0
33503,295.566502463054,4,2,1,65,1,0
33503,-100,4,2,1,65,0,0
35867,295.566502463054,3,2,1,65,1,0
35867,-100,3,2,1,65,0,0
37641,295.566502463054,4,2,1,65,1,0
37641,-100,4,2,1,65,0,0
40005,-100,4,2,1,65,0,0
41779,295.566502463054,4,2,1,65,1,0
41779,-100,4,2,1,65,0,0
45917,295.566502463054,4,2,1,65,1,0
45917,-100,4,2,1,65,0,0
48281,295.566502463054,3,2,1,65,1,0
48281,-100,3,2,1,65,0,0
50055,295.566502463054,4,2,1,65,1,0
50055,-100,4,2,1,65,0,0
54192,295.566502463054,4,2,1,65,1,0
54192,-100,4,2,1,65,0,0
56556,-95.2380952380952,4,2,1,75,0,0
75472,-111.111111111111,4,2,1,35,0,0
84930,-111.111111111111,4,2,1,45,0,0
86705,295.566502463054,4,2,1,45,1,0
89069,-100,4,2,1,45,0,0
90843,295.566502463054,4,2,1,45,1,0
93207,-100,4,2,1,45,0,0
94389,-111.111111111111,4,2,1,45,0,0
94981,295.566502463054,4,2,1,45,1,0
94981,-111.111111111111,4,2,1,45,0,0
97345,-100,4,2,1,45,0,0
98527,-111.111111111111,4,2,1,45,0,0
99119,295.566502463054,4,2,1,45,1,0
99119,-111.111111111111,4,2,1,45,0,0
101483,-95.2380952380952,4,2,1,70,0,0
102370,-95.2380952380952,4,2,1,70,0,0
120399,-95.2380952380952,4,2,1,75,0,0
139316,-111.111111111111,4,2,1,75,0,0
139759,-111.111111111111,4,2,1,45,0,0
142862,-111.111111111111,4,2,1,5,0,0

[Colours]
Combo1 : 198,223,218
Combo2 : 226,84,84
Combo3 : 223,213,189
Combo4 : 169,190,211

[HitObjects]
219,72,991,5,2,1:2:0:0:
219,72,1286,1,2,1:2:0:0:
51,138,1877,1,2,1:2:0:0:
51,138,2173,2,0,L|56:228,1,89.9999999999999,2|10,1:2|0:2,0:0:0:0:
76,309,2764,6,0,P|140:327|199:297,1,135,6|2,1:2|0:0,0:0:0:0:
237,275,3355,2,0,L|336:283,1,89.9999999999999,2|10,0:0|0:2,0:0:0:0:
348,321,3798,1,2,1:2:0:0:
437,330,4094,1,2,1:2:0:0:
500,211,4537,6,0,P|504:189|502:167,1,45,2|2,0:2|0:2,0:0:0:0:
471,133,4832,2,0,P|467:111|469:89,1,45,10|10,0:2|0:2,0:0:0:0:
491,51,5128,2,0,P|454:12|381:6,1,89.9999999999999,2|10,1:2|0:0,0:0:0:0:
252,11,6015,1,10,0:2:0:0:
252,11,6310,2,0,L|259:102,1,89.9999999999999,2|10,1:2|0:2,0:0:0:0:
277,183,6902,6,0,P|213:200|154:170,1,135,2|2,1:2|0:2,0:0:0:0:
129,132,7493,2,0,P|81:118|37:141,1,89.9999999999999,2|10,0:2|0:2,0:0:0:0:
12,164,7936,1,2,1:2:0:0:
3,253,8232,1,2,1:2:0:0:
106,349,8675,6,0,L|150:351,1,45,2|2,0:2|0:2,0:0:0:0:
187,328,8970,2,0,L|231:326,1,45,10|10,0:2|0:2,0:0:0:0:
277,341,9266,2,0,L|269:246,2,89.9999999999999,2|2|8,1:2|1:2|0:0,0:0:0:0:
365,326,10152,1,2,1:2:0:0:
365,326,10448,2,0,L|357:231,1,89.9999999999999,2|10,1:2|0:0,0:0:0:0:
428,181,11040,5,2,1:2:0:0:
414,91,11335,1,10,0:2:0:0:
367,12,11631,2,0,P|323:12|279:23,1,89.9999999999999,2|10,0:2|0:2,0:0:0:0:
256,62,12074,1,2,1:2:0:0:
270,152,12370,1,2,1:2:0:0:
149,126,12813,6,0,L|153:169,1,45,2|2,0:2|0:2,0:0:0:0:
112,190,13108,2,0,L|107:234,1,45,10|10,0:2|0:2,0:0:0:0:
142,271,13404,2,0,L|149:375,1,89.9999999999999,2|10,1:2|0:2,0:0:0:0:
326,377,14291,1,10,0:2:0:0:
326,377,14586,2,0,L|421:369,1,89.9999999999999,2|10,1:2|0:2,0:0:0:0:
486,313,15178,6,0,P|462:252|399:238,1,135,2|2,1:2|0:2,0:0:0:0:
354,234,15769,2,0,L|346:139,1,89.9999999999999,2|10,0:2|0:2,0:0:0:0:
340,99,16212,1,2,1:2:0:0:
327,9,16508,2,0,P|223:43|186:145,1,225,2|8,1:2|0:0,0:0:0:0:
213,244,17542,6,0,L|308:252,2,94.4999971160888,6|8|0,1:2|0:0|0:0,0:0:0:0:
182,286,18281,2,0,L|178:334,1,47.2499985580444,0|10,1:0|0:2,0:0:0:0:
146,374,18577,1,2,1:2:0:0:
43,355,18872,1,2,1:2:0:0:
31,251,19168,2,0,P|30:203|42:158,1,94.4999971160888,2|2,0:0|1:2,0:0:0:0:
84,129,19611,1,8,0:0:0:0:
91,25,19907,6,0,P|45:13|-2:14,2,94.4999971160888,2|8|0,1:2|0:0|0:0,0:0:0:0:
129,59,20645,2,0,L|176:55,1,47.2499985580444,0|10,1:0|0:2,0:0:0:0:
228,50,20941,1,2,1:2:0:0:
331,41,21237,1,2,1:2:0:0:
434,33,21532,2,0,P|474:70|495:109,1,94.4999971160888,2|2,0:0|1:2,0:0:0:0:
489,157,21976,1,8,0:0:0:0:
445,250,22271,6,0,P|409:295|285:304,1,188.999994232178,2|0,1:2|0:0,0:0:0:0:
268,254,23010,2,0,L|264:207,1,47.2499985580444,0|10,1:0|0:2,0:0:0:0:
256,155,23306,1,2,1:2:0:0:
240,52,23601,1,2,1:2:0:0:
140,22,23897,2,0,P|89:16|28:32,1,94.4999971160888,2|2,0:0|1:2,0:0:0:0:
22,69,24340,1,8,0:0:0:0:
5,171,24636,5,2,1:2:0:0:
5,171,24931,1,8,0:0:0:0:
37,270,25227,2,0,P|88:276|149:260,1,94.4999971160888,0|8,0:0|0:0,0:0:0:0:
166,230,25670,1,0,1:0:0:0:
259,184,25966,1,0,1:0:0:0:
353,232,26261,2,0,L|361:138,1,94.4999971160888,0|0,0:0|1:0,0:0:0:0:
404,109,26705,1,8,0:0:0:0:
419,6,27000,6,0,B|321:-11|346:78|241:66,1,188.999994232178,6|0,1:2|0:0,0:0:0:0:
202,44,27739,2,0,L|155:40,1,47.2499985580444,0|10,1:0|0:0,0:0:0:0:
107,62,28035,1,0,1:0:0:0:
69,158,28330,1,2,1:2:0:0:
143,230,28626,2,0,L|151:324,1,94.4999971160888,2|2,0:0|1:2,0:0:0:0:
185,362,29069,1,8,0:0:0:0:
275,315,29365,6,0,P|354:303|400:200,1,188.999994232178,2|0,1:2|0:0,0:0:0:0:
372,169,30104,2,0,L|322:174,1,47.2499985580444,0|10,1:0|0:2,0:0:0:0:
272,179,30399,1,2,1:2:0:0:
174,143,30695,1,2,1:2:0:0:
165,39,30990,2,0,P|208:10|260:3,1,94.4999971160888,2|0,0:0|1:0,0:0:0:0:
299,16,31434,1,10,0:0:0:0:
406,56,31729,5,2,1:2:0:0:
406,56,32024,1,2,1:2:0:0:
437,237,32615,1,2,1:2:0:0:
437,237,32911,2,0,P|433:282|415:323,1,89.9999999999999,2|8,1:2|0:2,0:0:0:0:
333,362,33503,6,0,L|190:349,1,135,6|2,1:2|0:2,0:0:0:0:
157,331,34094,2,0,L|149:240,1,89.9999999999999,2|10,0:2|0:2,0:0:0:0:
143,196,34537,1,2,1:2:0:0:
49,162,34833,1,2,1:2:0:0:
44,63,35128,2,0,P|88:19|129:12,1,89.9999999999999,2|2,0:2|0:2,0:0:0:0:
162,6,35571,1,10,0:2:0:0:
253,57,35867,5,2,1:2:0:0:
253,57,36162,1,2,1:2:0:0:
302,229,36753,1,2,1:2:0:0:
302,229,37049,1,2,1:2:0:0:
436,348,37641,6,0,P|466:310|461:219,1,135,6|2,1:2|0:2,0:0:0:0:
434,193,38232,2,0,L|426:103,1,89.9999999999999,2|10,0:2|0:2,0:0:0:0:
427,58,38675,1,2,1:2:0:0:
339,34,38971,1,0,1:2:0:0:
251,56,39266,2,0,L|161:48,1,89.9999999999999,2|2,0:0|1:2,0:0:0:0:
124,22,39709,1,10,0:2:0:0:
71,95,40005,5,2,1:2:0:0:
71,95,40301,1,10,0:2:0:0:
0,257,40892,1,10,0:2:0:0:
0,257,41187,2,0,L|8:347,1,89.9999999999999,2|10,1:2|0:2,0:0:0:0:
91,380,41779,6,0,P|135:344|162:266,1,135,2|2,1:2|0:0,0:0:0:0:
154,228,42370,2,0,L|244:220,1,89.9999999999999,2|10,0:0|0:2,0:0:0:0:
275,187,42813,1,2,1:2:0:0:
268,97,43109,1,2,1:2:0:0:
366,5,43552,6,0,P|399:7|417:16,1,45,2|2,0:2|0:2,0:0:0:0:
452,44,43847,2,0,P|466:73|467:93,1,45,10|10,0:2|0:2,0:0:0:0:
447,131,44143,2,0,P|446:183|484:217,1,89.9999999999999,2|10,1:2|0:0,0:0:0:0:
429,371,45030,1,10,0:2:0:0:
429,371,45325,2,0,L|341:347,1,89.9999999999999,2|10,1:2|0:2,0:0:0:0:
277,288,45917,6,0,P|252:249|276:164,1,135,2|2,1:2|0:2,0:0:0:0:
315,152,46508,2,0,L|323:62,1,89.9999999999999,2|10,0:2|0:2,0:0:0:0:
327,17,46951,1,2,1:2:0:0:
237,10,47247,1,2,1:2:0:0:
103,31,47690,6,0,P|75:49|64:66,1,45,2|2,0:2|0:2,0:0:0:0:
47,107,47985,2,0,P|49:139|59:156,1,45,10|10,0:2|0:2,0:0:0:0:
93,181,48281,2,0,P|113:226|111:278,1,89.9999999999999,2|2,1:2|1:2,0:0:0:0:
5,376,49167,1,2,1:2:0:0:
94,367,49463,1,2,1:2:0:0:
183,359,49758,1,10,0:0:0:0:
272,351,50055,6,0,L|260:217,1,135,2|2,1:2|0:0,0:0:0:0:
269,172,50646,2,0,P|314:148|364:151,1,89.9999999999999,2|10,0:2|0:2,0:0:0:0:
386,176,51089,1,2,1:2:0:0:
475,188,51385,1,2,1:2:0:0:
467,53,51828,2,0,P|441:29|423:21,1,45,2|2,0:2|0:2,0:0:0:0:
380,12,52123,2,0,P|346:22|330:34,1,45,10|10,0:2|0:2,0:0:0:0:
307,84,52419,5,2,1:2:0:0:
307,84,52715,1,10,0:2:0:0:
179,179,53306,1,10,0:2:0:0:
179,179,53601,1,2,1:2:0:0:
118,112,53897,1,10,0:2:0:0:
32,140,54192,6,0,L|20:274,1,135,2|2,1:2|0:2,0:0:0:0:
36,321,54783,2,0,P|78:334|122:329,1,89.9999999999999,2|10,0:2|0:2,0:0:0:0:
158,295,55226,1,2,1:2:0:0:
254,271,55522,2,0,B|388:229|362:346|474:336,1,225,2|8,1:2|0:0,0:0:0:0:
510,249,56556,6,0,L|502:153,2,94.4999971160888,6|8|0,1:2|0:0|0:0,0:0:0:0:
459,260,57295,2,0,P|434:255|413:244,1,47.2499985580444,0|10,1:0|0:2,0:0:0:0:
381,205,57591,1,2,1:2:0:0:
348,106,57886,1,2,1:2:0:0:
266,41,58182,2,0,P|216:60|191:99,1,94.4999971160888,2|2,0:0|1:2,0:0:0:0:
193,144,58625,1,8,0:0:0:0:
186,263,58921,6,0,L|282:255,2,94.4999971160888,2|8|0,1:2|0:0|0:0,0:0:0:0:
151,308,59659,2,0,P|130:319|107:321,1,47.2499985580444,0|10,1:0|0:2,0:0:0:0:
56,307,59955,1,2,1:2:0:0:
2,217,60251,1,2,1:2:0:0:
69,138,60546,2,0,L|76:43,1,94.4999971160888,2|2,0:0|1:2,0:0:0:0:
126,28,60990,1,8,0:0:0:0:
230,27,61285,6,0,P|321:56|369:144,1,188.999994232178,2|0,1:2|0:0,0:0:0:0:
353,182,62024,2,0,L|348:228,1,47.2499985580444,0|10,1:0|0:2,0:0:0:0:
374,274,62320,1,2,1:2:0:0:
329,367,62615,1,2,1:2:0:0:
226,383,62911,2,0,L|132:372,1,94.4999971160888,2|2,0:0|1:2,0:0:0:0:
90,341,63354,1,8,0:0:0:0:
19,264,63650,5,2,1:2:0:0:
54,166,63945,1,8,0:0:0:0:
0,78,64241,2,0,P|15:31|59:12,1,94.4999971160888,0|8,0:0|0:0,0:0:0:0:
104,21,64684,1,0,1:0:0:0:
206,3,64980,1,0,1:0:0:0:
299,48,65275,2,0,L|309:141,1,94.4999971160888,0|0,0:0|1:0,0:0:0:0:
285,183,65719,1,8,0:0:0:0:
220,265,66014,6,0,L|126:274,2,94.4999971160888,6|8|0,1:2|0:0|0:0,0:0:0:0:
243,311,66753,2,0,L|289:316,1,47.2499985580444,0|10,1:0|0:0,0:0:0:0:
341,323,67049,1,0,1:0:0:0:
444,323,67344,1,2,1:2:0:0:
506,237,67640,2,0,P|496:189|457:139,1,94.4999971160888,2|2,0:0|1:2,0:0:0:0:
421,135,68083,1,8,0:0:0:0:
412,30,68379,6,0,L|506:21,2,94.4999971160888,2|8|0,1:2|0:0|0:0,0:0:0:0:
373,65,69118,2,0,L|327:70,1,47.2499985580444,0|10,1:0|0:2,0:0:0:0:
273,76,69413,1,2,1:2:0:0:
185,19,69709,1,2,1:2:0:0:
94,70,70004,2,0,P|64:113|55:154,1,94.4999971160888,2|0,0:0|1:0,0:0:0:0:
87,194,70448,2,0,L|82:240,1,47.2499985580444,10|2,0:0|0:0,0:0:0:0:
80,283,70743,6,0,L|267:303,1,188.999994232178,0|0,1:0|0:0,0:0:0:0:
341,243,71630,2,0,L|387:238,1,47.2499985580444,10|2,0:2|1:2,0:0:0:0:
481,252,72073,1,2,1:2:0:0:
478,157,72369,2,0,P|440:114|388:97,1,94.4999971160888,2|2,0:0|1:2,0:0:0:0:
360,84,72812,1,8,0:0:0:0:
275,41,73108,6,0,L|181:30,1,94.4999971160888,2|8,1:2|0:0,0:0:0:0:
126,107,73699,2,0,L|32:117,1,94.4999971160888,0|8,0:0|0:0,0:0:0:0:
17,162,74142,1,0,1:0:0:0:
48,251,74438,1,0,1:0:0:0:
128,300,74733,2,0,L|221:289,1,94.4999971160888,0|0,0:0|1:0,0:0:0:0:
245,248,75177,1,8,0:0:0:0:
331,290,75472,6,0,P|329:221|341:159,1,121.499996292114,4|0,1:2|0:0,0:0:0:0:
459,175,76359,2,0,P|461:244|449:306,1,121.499996292114
331,290,77246,1,0,0:0:0:0:
270,236,77541,1,0,0:0:0:0:
189,246,77837,6,0,B|162:277|162:277|66:270,1,121.499996292114,4|0,1:2|0:0,0:0:0:0:
71,148,78724,2,0,B|98:117|98:117|194:124,1,121.499996292114
189,246,79610,1,0,0:0:0:0:
269,232,79906,1,0,0:0:0:0:
337,187,80201,6,0,P|397:195|462:164,1,121.499996292114,4|0,1:2|0:0,0:0:0:0:
434,51,81088,2,0,P|366:42|315:70,1,121.499996292114
337,187,81975,1,0,0:0:0:0:
283,247,82270,1,0,0:0:0:0:
215,202,82566,6,0,B|174:195|174:195|133:217|133:217|84:208,1,121.499996292114,4|0,1:2|0:0,0:0:0:0:
98,332,83453,2,0,B|139:325|139:325|180:347|180:347|229:338,1,121.499996292114
253,338,84044,6,0,L|301:350,2,40.4999987640381,2|2|2,0:0|0:0|0:0,0:0:0:0:
253,256,84635,1,10,0:0:0:0:
255,175,84930,1,2,1:2:0:0:
80,317,93207,5,2,1:2:0:0:
80,317,93503,1,10,0:0:0:0:
59,160,94094,1,10,0:2:0:0:
59,160,94389,2,0,P|89:129|132:124,1,80.9999975280762,2|8,1:2|0:0,0:0:0:0:
191,169,94981,6,0,P|251:173|305:95,2,161.999995056152,0|0|0,1:0|0:0|0:0,0:0:0:0:
154,241,96458,1,8,0:0:0:0:
175,318,96754,2,0,P|204:339|228:336,1,40.4999987640381,2|2,0:0|0:0,0:0:0:0:
248,339,97049,2,0,P|278:332|296:310,1,40.4999987640381,10|2,0:2|0:0,0:0:0:0:
313,297,97345,5,2,1:2:0:0:
313,297,97641,1,10,0:0:0:0:
473,317,98232,1,10,0:2:0:0:
473,317,98527,2,0,P|484:280|472:236,1,80.9999975280762,2|8,1:2|0:0,0:0:0:0:
406,194,99119,6,0,P|366:146|418:57,2,161.999995056152,0|0|0,1:0|0:0|0:0,0:0:0:0:
348,277,100596,2,0,P|313:284|281:259,1,40.4999987640381,8|0,0:0|1:0,0:0:0:0:
270,271,100892,1,8,0:0:0:0:
270,271,101483,6,0,P|214:271|169:320,2,94.4999971160888,6|10|2,1:2|0:2|0:2,0:0:0:0:
308,184,102370,2,0,L|364:206,1,47.2499985580444,10|2,0:2|1:2,0:0:0:0:
432,146,102813,2,0,P|426:88|462:47,2,94.4999971160888,2|2|2,1:2|0:0|1:2,0:0:0:0:
465,179,103552,1,10,0:2:0:0:
425,264,103848,6,0,P|407:272|368:277,2,47.2499985580444,2|2|10,1:2|0:2|0:2,0:0:0:0:
404,356,104439,2,0,P|422:348|461:343,2,47.2499985580444,2|2|10,0:2|0:2|0:2,0:0:0:0:
356,360,104882,2,0,P|301:360|248:338,1,94.4999971160888,2|2,1:2|1:2,0:0:0:0:
190,288,105473,2,0,B|173:244|173:244|190:177,1,94.4999971160888,2|2,0:2|0:2,0:0:0:0:
200,153,105917,1,10,0:2:0:0:
114,112,106212,6,0,P|100:58|100:16,2,94.4999971160888,2|10|2,1:2|0:2|0:2,0:0:0:0:
49,181,107099,2,0,P|43:203|43:226,1,47.2499985580444,10|2,0:2|1:2,0:0:0:0:
118,286,107542,2,0,P|117:340|63:372,2,94.4999971160888,2|2|2,1:2|0:0|1:2,0:0:0:0:
140,244,108281,1,10,0:2:0:0:
220,293,108577,6,0,P|247:277|271:274,2,47.2499985580444,2|2|10,1:2|0:0|0:0,0:0:0:0:
296,349,109168,2,0,P|269:365|245:368,2,47.2499985580444,2|2|10,0:0|0:0|0:0,0:0:0:0:
336,325,109611,2,0,P|390:298|429:288,1,94.4999971160888,2|2,1:2|1:2,0:0:0:0:
434,195,110202,2,0,P|417:148|398:104,1,94.4999971160888,2|2,0:2|0:2,0:0:0:0:
374,66,110646,1,10,0:2:0:0:
280,74,110941,6,0,P|233:87|165:111,2,94.4999971160888,2|10|2,1:2|0:0|0:0,0:0:0:0:
295,167,111828,2,0,P|284:192|279:214,1,47.2499985580444,10|2,0:0|1:2,0:0:0:0:
337,286,112271,2,0,P|383:293|445:296,2,94.4999971160888,2|2|2,1:2|0:0|1:2,0:0:0:0:
294,306,113010,1,10,0:2:0:0:
209,347,113306,6,0,B|171:321|171:321|102:328,2,94.4999971160888,2|10|2,1:2|0:2|0:0,0:0:0:0:
296,306,114192,1,10,0:2:0:0:
332,275,114340,2,0,B|359:238|359:238|349:182,2,94.4999971160888,2|2|2,1:2|1:2|0:0,0:0:0:0:
260,213,115227,1,2,1:2:0:0:
214,199,115375,2,0,L|152:209,1,47.2499985580444,10|0,0:2|0:0,0:0:0:0:
124,226,115670,6,0,B|53:210|53:210|42:181,2,94.4999971160888,2|10|2,1:2|0:2|0:0,0:0:0:0:
141,132,116557,1,10,0:2:0:0:
127,86,116705,2,0,B|116:69|116:69|25:84,2,94.4999971160888,2|2|2,1:2|1:2|0:0,0:0:0:0:
211,43,117591,1,2,1:2:0:0:
230,85,117739,2,0,L|284:93,1,47.2499985580444,10|0,0:2|0:0,0:0:0:0:
315,119,118035,6,0,B|364:118|364:118|410:71,2,94.4999971160888,2|10|2,1:2|0:2|0:0,0:0:0:0:
260,196,118921,1,10,0:2:0:0:
238,237,119069,2,0,B|229:253|229:253|240:329,1,94.4999971160888,2|0,1:2|1:0,0:0:0:0:
285,340,119513,5,10,0:0:0:0:
354,276,119808,2,0,P|381:267|404:266,1,47.2499985580444,2|2,0:0|1:2,0:0:0:0:
441,288,120104,2,0,P|471:282|490:271,1,47.2499985580444,10|2,0:2|0:0,0:0:0:0:
504,233,120399,5,6,1:2:0:0:
504,233,120695,1,10,0:0:0:0:
419,69,121286,1,10,0:2:0:0:
419,69,121582,2,0,P|364:98|354:141,1,94.4999971160888,2|8,0:0|0:0,0:0:0:0:
333,168,122025,2,0,B|303:166|284:133|284:133|157:144,1,188.999994232178,2|0,0:0|0:0,0:0:0:0:
112,154,122764,6,0,P|113:186|123:252,1,94.4999971160888,2|10,1:2|0:2,0:0:0:0:
29,269,123355,2,0,P|28:237|20:211,2,47.2499985580444,0|0|8,0:0|1:0|0:0,0:0:0:0:
41,314,123798,2,0,P|74:343|153:339,1,94.4999971160888,0|0,1:0|1:0,0:0:0:0:
216,329,124389,2,0,B|242:318|242:318|235:220,1,94.4999971160888,2|2,0:0|1:2,0:0:0:0:
232,204,124833,1,10,0:2:0:0:
325,238,125128,5,6,1:2:0:0:
325,238,125424,1,10,0:0:0:0:
444,92,126015,1,10,0:0:0:0:
444,92,126311,2,0,P|407:123|344:114,1,94.4999971160888,2|8,0:0|0:0,0:0:0:0:
330,88,126754,2,0,B|257:66|211:134|211:134|239:152|244:183,1,188.999994232178,2|0,0:0|0:0,0:0:0:0:
245,219,127493,6,0,P|240:243|227:318,1,94.4999971160888,2|10,1:2|0:2,0:0:0:0:
319,280,128084,2,0,P|324:256|330:230,2,47.2499985580444,0|0|8,0:0|1:0|0:0,0:0:0:0:
326,326,128527,2,0,P|371:324|413:254,1,94.4999971160888,0|0,1:0|1:0,0:0:0:0:
476,228,129118,2,0,P|431:196|377:169,1,94.4999971160888,2|2,0:0|1:2,0:0:0:0:
354,155,129562,1,10,0:2:0:0:
349,64,129857,5,6,1:2:0:0:
349,64,130153,1,10,0:0:0:0:
173,128,130744,1,10,0:0:0:0:
173,128,131040,2,0,P|165:176|163:247,1,94.4999971160888,2|8,0:0|0:0,0:0:0:0:
157,268,131483,2,0,B|199:301|271:288|220:257|298:243|342:274,1,188.999994232178,2|0,0:0|0:0,0:0:0:0:
359,229,132222,6,0,P|358:204|345:130,1,94.4999971160888,2|10,1:2|0:2,0:0:0:0:
434,170,132813,2,0,P|435:195|447:252,2,47.2499985580444,0|0|8,0:0|1:0|0:0,0:0:0:0:
437,122,133256,2,0,P|421:77|390:42,1,94.4999971160888,0|0,1:0|1:0,0:0:0:0:
324,109,133848,2,0,B|283:135|283:135|239:120,1,94.4999971160888,2|2,0:0|1:2,0:0:0:0:
198,98,134291,1,10,0:2:0:0:
186,8,134586,5,6,1:2:0:0:
186,8,134882,1,10,0:2:0:0:
52,141,135473,2,0,P|61:166|86:179,1,47.2499985580444,10|0,0:0|1:0,0:0:0:0:
125,184,135769,2,0,P|170:190|236:209,1,94.4999971160888,2|8,0:0|0:0,0:0:0:0:
262,218,136212,2,0,P|335:223|375:333,1,188.999994232178,2|0,0:0|0:0,0:0:0:0:
423,335,136951,6,0,P|446:310|447:293,1,47.2499985580444,2|8,1:2|0:0,0:0:0:0:
468,205,137394,2,0,P|470:172|457:139,1,47.2499985580444,0|8,1:0|0:0,0:0:0:0:
436,68,137838,2,0,P|424:40|398:17,1,47.2499985580444,0|8,1:0|0:0,0:0:0:0:
319,39,138281,1,2,1:2:0:0:
275,54,138429,2,0,L|216:52,1,47.2499985580444,10|2,0:2|1:2,0:0:0:0:
184,69,138724,1,10,0:2:0:0:
129,145,139020,1,10,0:2:0:0:
99,234,139316,6,0,B|105:299|118:376,1,121.499996292114,4|2,1:2|0:0,0:0:0:0:
