osu file format v14

[General]
AudioFilename: audio.mp3
AudioLeadIn: 0
PreviewTime: 119216
Countdown: 0
SampleSet: Soft
StackLeniency: 0.4
Mode: 0
LetterboxInBreaks: 0
WidescreenStoryboard: 0

[Editor]
Bookmarks: 2764,17542,27000,31729,40005,56556,66014,75472,84930,93207,101483,110941,120399,139316
DistanceSpacing: 1.1
BeatDivisor: 4
GridSize: 16
TimelineZoom: 2.000006

[Metadata]
Title:Drifting
TitleUnicode:Drifting
Artist:Good Kid
ArtistUnicode:Good Kid
Creator:Macuilxochitl
Version:Future Continuous
Source:
Tags:osu! fa featured artist 2 indie rock english ruvari garvanturr cyberia950 big black dt monsieursebas ernua tatemae anishina kodoku sherrycherry loreley allihoppa senseabel entsetzen ent
BeatmapID:3481342
BeatmapSetID:1703768

[Difficulty]
HPDrainRate:5
CircleSize:4.5
OverallDifficulty:8
ApproachRate:9
SliderMultiplier:1.8
SliderTickRate:0.5

[Events]
//Background and Video events
0,0,"icee-dc-IvwVy4zqB3E-unsplash.jpg",0,0
//Break Periods
2,86556,92468
//Storyboard Layer 0 (Background)
//Storyboard Layer 1 (Fail)
//Storyboard Layer 2 (Pass)
//Storyboard Layer 3 (Foreground)
//Storyboard Layer 4 (Overlay)
//Storyboard Sound Samples

[TimingPoints]
991,295.566502463054,3,2,1,45,1,0
991,-66.6666666666667,4,2,1,45,0,0
2468,-66.6666666666667,4,2,1,45,0,0
2764,295.566502463054,4,2,1,65,1,0
2764,-90.9090909090909,4,2,1,65,0,0
3207,-90.9090909090909,4,2,1,65,0,0
3355,-200,4,2,1,65,0,0
3650,-200,4,2,1,65,0,0
3798,-100,4,2,1,65,0,0
6902,295.566502463054,4,2,1,65,1,0
6902,-100,4,2,1,65,0,0
9266,295.566502463054,3,2,1,65,1,0
9266,-100,3,2,1,65,0,0
11040,295.566502463054,4,2,1,65,1,0
11040,-100,4,2,1,65,0,0
15178,295.566502463054,4,2,1,65,1,0
15178,-133.333333333333,4,2,1,65,0,0
15196,-66.6666666666667,4,2,1,25,0,0
15473,-100,4,2,1,65,0,0
17542,-83.3333333333333,4,2,1,75,0,0
18133,-100,4,2,1,75,0,0
26705,-100,4,2,1,75,0,0
26926,-100,4,2,1,75,0,0
27000,-90.9090909090909,4,2,1,75,0,0
27591,-100,4,2,1,75,0,0
31729,295.566502463054,3,2,1,75,1,0
31729,-100,3,2,1,75,0,0
33503,295.566502463054,4,2,1,65,1,0
33503,-100,4,2,1,65,0,0
33946,-100,4,2,1,65,0,0
35867,295.566502463054,3,2,1,65,1,0
35867,-100,3,2,1,65,0,0
37641,295.566502463054,4,2,1,65,1,0
37641,-100,4,2,1,65,0,0
39118,-100,4,2,1,65,0,0
40005,-111.111111111111,4,2,1,65,0,0
41779,295.566502463054,4,2,1,65,1,0
41779,-111.111111111111,4,2,1,65,0,0
42370,-111.111111111111,4,2,1,65,0,0
45917,295.566502463054,4,2,1,65,1,0
45917,-111.111111111111,4,2,1,65,0,0
46508,-111.111111111111,4,2,1,65,0,0
48281,295.566502463054,3,2,1,65,1,0
48281,-100,4,2,1,65,0,0
48872,-100,4,2,1,65,0,0
49167,-100,4,2,1,65,0,0
49758,-100,4,2,1,65,0,0
50055,295.566502463054,4,2,1,65,1,0
50055,-100,4,2,1,65,0,0
54192,295.566502463054,4,2,1,65,1,0
54192,-100,4,2,1,65,0,0
56556,-83.3333333333333,4,2,1,75,0,0
57147,-100,4,2,1,75,0,0
65866,-57.1428571428571,4,2,1,75,0,0
65940,-57.1428571428571,4,2,1,75,0,0
66014,-90.9090909090909,4,2,1,75,0,0
66605,-100,4,2,1,75,0,0
75472,-200,4,2,1,35,0,1
76359,-200,4,2,1,35,0,0
77837,-200,4,2,1,35,0,1
78724,-200,4,2,1,35,0,0
80201,-200,4,2,1,35,0,1
81088,-200,4,2,1,35,0,0
82566,-200,4,2,1,35,0,1
83600,-200,4,2,1,35,0,0
84930,-200,4,2,1,45,0,1
86556,-200,4,2,1,45,0,0
86705,295.566502463054,4,2,1,45,1,0
89069,-100,4,2,1,45,0,0
90843,295.566502463054,4,2,1,45,1,0
93207,-200,4,2,1,45,0,0
94981,295.566502463054,4,2,1,45,1,0
94981,-200,4,2,1,45,0,0
97345,-200,4,2,1,45,0,0
99119,295.566502463054,4,2,1,45,1,0
99119,-200,4,2,1,45,0,0
101483,-76.9230769230769,4,2,1,70,0,1
102074,-86.9565217391304,4,2,1,70,0,1
110941,-76.9230769230769,4,2,1,70,0,1
111237,-86.9565217391304,4,2,1,70,0,1
119513,-86.9565217391304,4,2,1,70,0,0
119660,-86.9565217391304,4,2,1,70,0,1
120252,-86.9565217391304,4,2,1,70,0,0
120399,-80,4,2,1,75,0,1
121286,-86.9565217391304,4,2,1,75,0,0
122764,-86.9565217391304,4,2,1,75,0,1
123651,-86.9565217391304,4,2,1,75,0,0
125128,-86.9565217391304,4,2,1,75,0,1
126015,-86.9565217391304,4,2,1,75,0,0
127493,-86.9565217391304,4,2,1,75,0,1
128380,-86.9565217391304,4,2,1,75,0,0
129857,-83.3333333333333,4,2,1,75,0,1
130744,-86.9565217391304,4,2,1,75,0,0
132222,-86.9565217391304,4,2,1,75,0,1
133109,-86.9565217391304,4,2,1,75,0,0
134586,-86.9565217391304,4,2,1,75,0,1
135473,-86.9565217391304,4,2,1,75,0,0
136951,-86.9565217391304,4,2,1,75,0,1
137838,-86.9565217391304,4,2,1,75,0,0
139316,-10,4,2,1,75,0,1
139759,-10,4,2,1,45,0,0
141089,-10,4,2,1,35,0,0
141680,-10,4,2,1,25,0,0
142271,-10,4,2,1,15,0,0
142862,-10,4,2,0,5,0,0

[Colours]
Combo1 : 198,223,218
Combo2 : 226,84,84
Combo3 : 223,213,189
Combo4 : 169,190,211

[HitObjects]
120,269,991,6,0,L|143:0,1,270.000010299683,2|2,1:2|1:2,0:0:0:0:
143,0,1877,6,0,L|120:269,1,270.000010299683,2|2,1:2|1:2,0:0:0:0:
120,269,2468,5,10,0:2:0:0:
120,269,2764,6,0,B|173:296|211:264|204:254|258:224|305:259,1,198.000006042481,6|8,1:2|0:0,0:0:0:0:
305,259,3133,1,0,0:0:0:0:
305,259,3207,1,2,0:0:0:0:
399,384,3355,6,0,L|411:295,1,90,2|10,0:0|0:2,0:0:0:0:
511,299,3798,6,0,P|495:234|442:194,1,135,2|0,1:2|0:0,0:0:0:0:
374,197,4094,1,2,1:2:0:0:
406,136,4241,1,8,0:0:0:0:
254,177,4389,1,0,0:0:0:0:
254,177,4537,6,0,L|241:82,1,90,2|2,0:2|0:2,0:0:0:0:
129,0,4832,2,0,L|176:6,1,45,10|0,0:2|0:0,0:0:0:0:
65,84,4980,2,0,L|18:90,1,45,10|0,0:2|0:0,0:0:0:0:
0,188,5128,6,0,P|92:201|175:139,2,180,2|10|0,1:2|0:0|0:0,0:0:0:0:
0,187,5867,1,0,0:0:0:0:
10,365,6015,6,0,P|43:330|136:320,1,135,10|0,0:2|0:0,0:0:0:0:
190,338,6310,2,0,P|257:345|304:284,1,135,2|0,1:2|0:0,0:0:0:0:
321,235,6606,1,10,0:2:0:0:
321,235,6902,6,0,P|377:233|464:321,1,180,2|8,1:2|0:0,0:0:0:0:
462,313,7345,1,2,0:2:0:0:
512,217,7493,2,0,L|507:93,1,90,2|0,0:2|0:0,0:0:0:0:
508,127,7788,1,10,0:2:0:0:
419,154,7936,2,0,P|344:141|241:171,1,180,2|2,1:2|1:2,0:0:0:0:
220,323,8379,2,0,L|202:224,1,90,8|0,0:0|0:0,0:0:0:0:
148,60,8675,5,2,0:2:0:0:
109,123,8823,1,2,0:2:0:0:
172,162,8970,1,10,0:2:0:0:
211,99,9118,1,10,0:2:0:0:
148,60,9266,6,0,P|83:52|40:148,1,180,2|2,1:2|1:2,0:0:0:0:
211,99,9857,1,8,0:0:0:0:
223,334,10152,6,0,P|229:276|287:219,1,135,2|0,1:2|0:0,0:0:0:0:
342,193,10448,2,0,P|380:158|383:73,1,135,2|0,1:2|0:0,0:0:0:0:
365,13,10743,1,10,0:0:0:0:
365,13,11040,6,0,L|458:5,1,90,2|0,1:2|0:0,0:0:0:0:
512,53,11335,1,10,0:2:0:0:
449,329,11631,2,0,P|437:256|465:148,1,180,2|10,0:2|0:2,0:0:0:0:
364,225,12074,2,0,P|286:228|217:148,1,180,2|2,1:2|1:2,0:0:0:0:
322,126,12517,1,8,0:0:0:0:
280,313,12813,6,0,L|372:335,1,90,2|2,0:2|0:2,0:0:0:0:
168,351,13108,2,0,L|174:307,1,45,10|0,0:2|0:0,0:0:0:0:
108,237,13256,2,0,L|102:193,1,45,10|0,0:2|0:0,0:0:0:0:
22,137,13404,6,0,P|30:59|103:-9,2,180,2|10|0,1:2|0:2|0:0,0:0:0:0:
22,137,14143,1,0,0:0:0:0:
156,116,14291,6,0,P|217:109|271:164,1,135,10|0,0:2|0:0,0:0:0:0:
294,220,14586,2,0,P|339:257|422:237,1,135,2|0,1:2|0:0,0:0:0:0:
461,200,14882,1,10,0:2:0:0:
461,200,15178,6,0,L|462:173,8,16.8750006437302,2|2|2|2|2|2|2|2|10,1:2|0:0|0:0|0:0|0:0|0:0|0:0|0:0|0:0,0:0:0:0:
464,97,15621,1,2,0:2:0:0:
464,97,15769,2,0,P|382:87|339:171,1,180,2|10,0:2|0:2,0:0:0:0:
299,50,16212,1,2,1:2:0:0:
256,338,16508,2,0,P|260:344|356:366,1,90,2|8,1:2|0:0,0:0:0:0:
313,249,16803,2,0,P|226:234|157:289,1,180,0|0,0:0|1:0,0:0:0:0:
113,384,17246,2,0,L|16:376,1,90,8|0,0:0|0:0,0:0:0:0:
85,254,17542,6,0,L|105:17,2,215.999993408203,6|8|0,1:2|0:0|0:0,0:0:0:0:
85,254,18281,1,0,1:0:0:0:
17,184,18429,1,10,0:2:0:0:
173,108,18577,1,2,1:2:0:0:
272,281,18724,1,2,0:0:0:0:
272,281,18872,2,0,L|281:162,1,90,2|8,1:2|0:0,0:0:0:0:
394,179,19168,2,0,L|375:-40,1,180,2|2,0:0|1:2,0:0:0:0:
378,0,19611,1,8,0:0:0:0:
479,343,19907,6,0,L|498:132,2,180,2|8|0,1:2|0:0|0:0,0:0:0:0:
354,384,20645,1,0,1:0:0:0:
354,384,20793,2,0,L|344:278,1,90,10|2,0:2|1:2,0:0:0:0:
234,294,21089,1,2,0:0:0:0:
234,294,21237,2,0,L|243:188,1,90,2|8,1:2|0:0,0:0:0:0:
383,199,21532,2,0,L|373:93,1,90,2|0,0:0|0:0,0:0:0:0:
206,94,21828,1,2,1:2:0:0:
206,94,21976,2,0,L|215:-11,1,90,8|0,0:0|0:0,0:0:0:0:
102,208,22271,6,0,L|88:10,2,180,2|8|0,1:2|0:0|0:0,0:0:0:0:
102,208,23010,1,0,1:0:0:0:
212,343,23158,1,10,0:2:0:0:
212,343,23306,2,0,L|230:155,1,180,2|2,1:2|1:2,0:0:0:0:
330,147,23749,2,0,L|344:24,1,90,8|2,0:0|0:0,0:0:0:0:
185,89,24044,1,0,0:0:0:0:
185,89,24192,2,0,L|171:-34,1,90,2|8,1:2|0:0,0:0:0:0:
495,336,24636,6,0,L|513:152,2,180,2|8|0,1:2|0:0|0:0,0:0:0:0:
372,384,25375,1,0,1:0:0:0:
372,384,25522,2,0,L|363:291,1,90,8|0,0:0|1:0,0:0:0:0:
216,155,25966,1,0,1:0:0:0:
216,155,26113,2,0,L|225:63,2,90,8|0|0,0:0|0:0|0:0,0:0:0:0:
186,296,26557,1,0,1:0:0:0:
186,296,26705,6,0,L|174:237,1,45,8|0,0:0|0:0,0:0:0:0:
126,177,26852,2,0,L|67:189,1,45
17,125,27000,6,0,L|-2:335,2,198.000006042481,6|8|0,1:2|0:0|0:0,0:0:0:0:
17,125,27739,1,0,1:0:0:0:
166,24,27887,2,0,L|175:129,1,90,10|0,0:0|1:0,0:0:0:0:
314,72,28182,1,2,0:0:0:0:
314,72,28330,2,0,L|304:177,1,90,2|8,1:2|0:0,0:0:0:0:
219,205,28626,2,0,L|236:396,1,180,2|2,0:0|1:2,0:0:0:0:
235,384,29069,1,8,0:0:0:0:
509,62,29365,6,0,L|495:246,2,180,2|8|0,1:2|0:0|0:0,0:0:0:0:
509,62,30104,1,0,1:0:0:0:
388,0,30251,2,0,L|391:46,1,45,10|0,0:2|0:0,0:0:0:0:
394,114,30399,2,0,L|380:298,1,180,2|2,1:2|1:2,0:0:0:0:
280,277,30843,1,8,0:0:0:0:
280,277,30990,2,0,L|286:369,1,90,2|0,0:0|0:0,0:0:0:0:
200,150,31286,1,0,1:0:0:0:
200,150,31434,2,0,L|185:324,1,135,10|0,0:0|0:0,0:0:0:0:
181,353,31729,6,0,L|2:372,1,180,2|2,1:2|1:2,0:0:0:0:
21,194,32320,1,8,0:2:0:0:
11,283,32467,1,0,1:2:0:0:
2,372,32615,6,0,L|181:353,1,180,2|2,1:2|1:2,0:0:0:0:
181,353,33206,5,8,0:2:0:0:
181,353,33503,6,0,B|227:338|278:354|267:360|318:375|369:354,1,180,6|8,1:2|0:2,0:0:0:0:
414,222,33946,1,2,0:2:0:0:
414,222,34094,2,0,L|423:317,1,90,2|0,0:2|0:0,0:0:0:0:
490,155,34389,1,10,0:2:0:0:
490,155,34537,2,0,P|406:124|319:163,1,180,2|2,1:2|1:2,0:0:0:0:
325,156,34980,1,10,0:2:0:0:
191,112,35128,2,0,P|254:183|227:269,1,180,2|2,0:2|0:2,0:0:0:0:
73,190,35571,2,0,L|180:203,1,90,10|0,0:2|0:0,0:0:0:0:
26,384,35867,6,0,L|-2:198,1,180,2|2,1:2|1:2,0:0:0:0:
276,27,36458,1,8,0:2:0:0:
187,13,36605,1,0,1:2:0:0:
98,0,36753,6,0,L|284:28,1,180,2|2,1:2|1:2,0:0:0:0:
276,27,37344,5,8,0:2:0:0:
276,27,37641,6,0,P|227:85|262:192,1,180,6|8,1:2|0:2,0:0:0:0:
335,306,38084,1,2,0:2:0:0:
335,306,38232,2,0,P|387:235|487:245,1,180,2|10,0:2|0:2,0:0:0:0:
408,132,38675,2,0,L|320:114,1,90,2|0,1:2|0:0,0:0:0:0:
270,262,38971,1,0,1:2:0:0:
270,262,39118,5,10,0:2:0:0:
178,303,39266,1,2,0:0:0:0:
110,228,39414,1,2,0:0:0:0:
160,140,39562,1,2,1:2:0:0:
259,160,39709,1,10,0:2:0:0:
270,262,39857,1,2,0:0:0:0:
110,228,40005,6,0,P|70:162|107:53,1,161.999995056153,2|10,1:2|0:2,0:0:0:0:
43,347,40596,1,0,0:0:0:0:
43,347,40744,1,0,0:0:0:0:
43,347,40892,6,0,P|108:328|176:348,1,121.499996292114,10|0,0:2|0:0,0:0:0:0:
217,373,41187,2,0,P|291:387|347:356,1,121.499996292114,2|0,1:2|0:0,0:0:0:0:
384,328,41483,1,10,0:2:0:0:
384,328,41779,6,0,P|367:254|426:193,1,161.999995056153,2|8,1:2|0:0,0:0:0:0:
420,194,42148,1,0,0:0:0:0:
420,194,42222,1,2,0:0:0:0:
374,121,42370,2,0,P|422:107|505:172,1,161.999995056153,2|10,0:0|0:2,0:0:0:0:
308,202,42813,2,0,L|283:28,1,161.999995056153,2|2,1:2|1:2,0:0:0:0:
124,36,43256,2,0,L|215:66,1,80.9999975280763,8|0,0:0|0:0,0:0:0:0:
164,203,43552,5,2,0:2:0:0:
90,229,43700,1,2,0:2:0:0:
64,155,43847,1,10,0:2:0:0:
138,129,43995,1,10,0:2:0:0:
164,203,44143,6,0,P|160:268|77:308,1,161.999995056153,2|10,1:2|0:0,0:0:0:0:
256,384,44734,1,0,0:0:0:0:
256,384,44882,1,0,0:0:0:0:
256,384,45030,6,0,P|237:320|256:272,1,121.499996292114,10|0,0:2|0:0,0:0:0:0:
297,217,45325,2,0,P|315:153|288:92,1,121.499996292114,2|0,1:2|0:0,0:0:0:0:
256,49,45621,1,10,0:2:0:0:
256,49,45917,6,0,P|339:10|425:12,1,161.999995056153,2|8,1:2|0:0,0:0:0:0:
512,126,46360,1,2,0:2:0:0:
512,126,46508,2,0,L|422:113,1,80.9999975280763,2|0,0:2|0:0,0:0:0:0:
406,225,46803,1,10,0:2:0:0:
406,225,46951,2,0,L|440:402,1,161.999995056153,2|2,1:2|1:2,0:0:0:0:
284,321,47394,2,0,L|310:156,1,161.999995056153,8|2,0:0|0:2,0:0:0:0:
144,143,47838,1,2,0:2:0:0:
144,143,47985,2,0,P|155:193|195:214,1,80.9999975280763,10|10,0:2|0:2,0:0:0:0:
330,78,48281,6,0,L|125:56,1,180,2|2,1:2|1:2,0:0:0:0:
151,59,48872,1,8,0:0:0:0:
7,210,49167,6,0,P|28:256|109:269,1,135,2|0,1:2|0:0,0:0:0:0:
169,251,49463,2,0,P|221:248|295:319,1,135,2|0,1:2|0:0,0:0:0:0:
329,352,49758,2,0,P|397:381|460:335,1,135,10|0,0:0|0:0,0:0:0:0:
486,301,50055,6,0,B|508:247|489:209|481:220|455:164|493:111,1,180,2|10,1:2|0:2,0:0:0:0:
415,258,50498,1,2,0:0:0:0:
415,258,50646,5,2,0:2:0:0:
313,240,50793,1,0,0:0:0:0:
277,142,50941,1,10,0:2:0:0:
343,61,51089,2,0,P|293:19|198:23,1,135,2|0,1:2|0:0,0:0:0:0:
165,43,51385,1,2,1:2:0:0:
58,0,51532,1,8,0:0:0:0:
58,0,51680,2,0,P|55:84|120:152,1,180,0|2,0:0|0:2,0:0:0:0:
220,222,52123,2,0,L|134:247,1,90,10|10,0:2|0:2,0:0:0:0:
193,347,52419,6,0,L|14:326,1,180,2|10,1:2|0:2,0:0:0:0:
367,328,53010,1,0,0:0:0:0:
367,328,53158,1,0,0:0:0:0:
367,328,53306,6,0,P|388:266|346:200,1,135,10|0,0:2|0:0,0:0:0:0:
299,170,53601,2,0,P|258:124|272:48,1,135,2|0,1:2|0:0,0:0:0:0:
311,1,53897,2,0,P|391:-3|430:39,1,135,10|0,0:2|0:0,0:0:0:0:
440,100,54192,6,0,B|434:159|465:182|489:173|521:210|512:258,1,180,2|8,1:2|0:0,0:0:0:0:
419,263,54635,1,2,0:2:0:0:
419,263,54783,2,0,L|243:302,1,180,2|10,0:2|0:2,0:0:0:0:
164,384,55226,2,0,L|148:283,1,90,2|0,1:2|0:0,0:0:0:0:
203,184,55522,1,2,1:2:0:0:
70,261,55669,1,8,0:0:0:0:
70,261,55817,2,0,P|58:209|79:141,1,90
203,184,56113,1,0,1:0:0:0:
96,79,56260,1,8,0:0:0:0:
96,79,56334,1,0,0:0:0:0:
96,79,56408,1,0,0:0:0:0:
160,0,56556,6,0,L|387:23,2,215.999993408203,6|8|0,1:2|0:0|0:0,0:0:0:0:
160,0,57295,1,0,1:0:0:0:
248,111,57443,1,10,0:2:0:0:
248,111,57591,2,0,L|361:99,1,90,2|2,1:2|0:0,0:0:0:0:
337,101,57886,1,2,1:2:0:0:
333,217,58034,1,8,0:0:0:0:
333,217,58182,2,0,L|512:235,1,180,2|2,0:0|1:2,0:0:0:0:
512,235,58625,1,8,0:0:0:0:
164,384,58921,6,0,L|358:363,2,180,2|8|0,1:2|0:0|0:0,0:0:0:0:
164,384,59659,1,0,1:0:0:0:
0,308,59807,2,0,L|67:315,1,45,10|0,0:2|0:0,0:0:0:0:
114,315,59955,2,0,L|308:294,1,180,2|2,1:2|1:2,0:0:0:0:
423,366,60398,2,0,L|539:378,1,90,8|2,0:0|0:0,0:0:0:0:
375,280,60694,1,0,0:0:0:0:
375,280,60842,2,0,L|491:267,1,90,2|8,1:2|0:0,0:0:0:0:
464,270,61137,1,0,0:0:0:0:
334,163,61285,6,0,L|529:186,2,180,2|8|0,1:2|0:0|0:0,0:0:0:0:
165,174,62024,2,0,L|262:162,1,90,0|10,1:0|0:2,0:0:0:0:
334,87,62320,2,0,L|529:110,1,180,2|2,1:2|1:2,0:0:0:0:
303,11,62763,2,0,L|400:0,1,90,8|2,0:0|0:0,0:0:0:0:
392,0,63058,1,0,0:0:0:0:
149,74,63206,2,0,L|246:85,1,90,2|8,1:2|0:0,0:0:0:0:
97,280,63650,6,0,L|285:254,2,180,2|8|0,1:2|0:0|0:0,0:0:0:0:
228,348,64389,1,0,1:0:0:0:
228,348,64536,2,0,L|321:335,2,90,8|0|0,0:0|1:0|0:0,0:0:0:0:
423,318,64980,2,0,L|516:331,1,90,0|8,1:0|0:0,0:0:0:0:
347,238,65275,2,0,L|436:225,2,90,0|0|0,0:0|1:0|1:0,0:0:0:0:
412,142,65719,1,8,0:0:0:0:
412,142,65866,6,0,P|392:121|418:133,1,78.7500007510185
418,132,66014,6,0,L|209:144,2,198.000006042481,6|8|0,1:2|0:0|0:0,0:0:0:0:
418,132,66753,1,0,1:0:0:0:
512,35,66901,1,10,0:0:0:0:
512,35,67049,2,0,L|407:28,1,90,0|2,1:0|0:0,0:0:0:0:
289,53,67344,1,2,1:2:0:0:
289,53,67492,2,0,L|80:65,1,180,8|0,0:0|0:0,0:0:0:0:
106,181,67935,1,2,1:2:0:0:
106,181,68083,2,0,L|1:175,1,90,8|0,0:0|0:0,0:0:0:0:
236,269,68379,6,0,L|45:308,2,180,2|8|0,1:2|0:0|0:0,0:0:0:0:
410,345,69118,1,0,1:0:0:0:
410,345,69265,2,0,L|314:325,2,90,10|2|2,0:2|1:2|0:0,0:0:0:0:
512,263,69709,1,2,1:2:0:0:
512,263,69857,2,0,L|321:224,1,180,8|0,0:0|0:0,0:0:0:0:
335,226,70300,1,0,1:0:0:0:
282,148,70448,2,0,L|186:167,1,90,10|2,0:0|0:0,0:0:0:0:
178,37,70743,6,0,L|-17:8,2,180,0|8|0,1:0|0:0|0:0,0:0:0:0:
345,69,71482,2,0,L|247:83,1,90,0|10,1:0|0:2,0:0:0:0:
139,115,71778,2,0,L|41:100,2,90,2|2|2,1:2|0:0|1:2,0:0:0:0:
263,225,72221,2,0,L|68:254,1,180,8|0,0:0|0:0,0:0:0:0:
84,251,72664,1,2,1:2:0:0:
89,369,72812,2,0,L|-8:354,1,90,8|0,0:0|0:0,0:0:0:0:
221,384,73108,6,0,L|346:379,1,90,2|0,1:2|0:0,0:0:0:0:
217,308,73403,2,0,L|342:303,1,90,8|0,0:0|0:0,0:0:0:0:
491,273,73699,6,0,L|366:268,1,90,0|0,0:0|1:0,0:0:0:0:
495,197,73994,1,8,0:0:0:0:
495,197,74142,2,0,L|370:192,1,90,0|0,1:0|0:0,0:0:0:0:
499,121,74438,2,0,L|374:116,1,90,0|8,1:0|0:0,0:0:0:0:
190,79,74733,6,0,L|315:74,1,90
186,3,75029,1,0,1:0:0:0:
186,3,75177,2,0,L|311:-2,1,90,8|0,0:0|0:0,0:0:0:0:
256,192,75472,5,4,1:2:0:0:
400,128,76359,5,2,0:0:0:0:
432,192,76507,1,2,0:0:0:0:
400,256,76655,1,2,0:0:0:0:
400,256,76950,5,2,0:0:0:0:
400,256,77246,5,2,0:0:0:0:
432,192,77393,1,2,0:0:0:0:
400,128,77541,1,2,0:0:0:0:
256,192,77763,1,0,0:0:0:0:
256,192,77837,5,4,1:2:0:0:
112,128,78724,5,2,0:0:0:0:
80,192,78871,1,2,0:0:0:0:
112,256,79019,1,2,0:0:0:0:
80,192,79315,5,2,0:0:0:0:
112,128,79610,5,2,0:0:0:0:
256,192,80127,1,0,0:0:0:0:
256,192,80201,5,4,1:2:0:0:
400,128,81088,5,2,0:0:0:0:
432,192,81236,1,2,0:0:0:0:
400,256,81384,1,2,0:0:0:0:
400,256,81679,5,2,0:0:0:0:
400,256,81975,5,2,0:0:0:0:
432,192,82123,1,2,0:0:0:0:
400,128,82270,1,2,0:0:0:0:
256,192,82492,1,0,0:0:0:0:
256,192,82566,5,4,1:2:0:0:
131,150,83600,5,0,0:0:0:0:
131,150,83748,1,0,0:0:0:0:
54,160,83896,1,0,0:0:0:0:
21,86,84044,1,2,0:0:0:0:
82,33,84191,1,2,0:0:0:0:
149,74,84339,1,2,0:0:0:0:
202,133,84635,5,10,0:0:0:0:
256,192,84930,5,2,1:2:0:0:
256,192,93207,6,0,P|316:196|355:202,1,90,2|10,1:2|0:0,0:0:0:0:
406,297,93798,1,0,0:0:0:0:
406,297,93946,1,0,0:0:0:0:
406,297,94094,2,0,P|346:293|307:287,2,90,10|2|8,0:2|1:2|0:0,0:0:0:0:
498,244,94981,6,0,P|504:192|502:151,1,90,0|8,1:0|0:0,0:0:0:0:
494,50,95572,1,0,0:0:0:0:
494,50,95719,1,0,0:0:0:0:
417,39,95867,1,8,0:0:0:0:
417,39,96015,2,0,P|359:33|315:36,1,90
274,89,96458,2,0,P|230:94|185:93,1,90,8|2,0:0|0:0,0:0:0:0:
146,37,96902,5,2,0:0:0:0:
80,54,97049,1,10,0:2:0:0:
78,123,97197,1,2,0:0:0:0:
143,147,97345,6,0,P|161:203|164:241,1,90,2|10,1:2|0:0,0:0:0:0:
53,259,97936,1,0,0:0:0:0:
53,259,98084,1,0,0:0:0:0:
53,259,98232,2,0,P|49:310|54:353,2,90,10|2|8,0:2|1:2|0:0,0:0:0:0:
137,330,99119,6,0,P|180:334|227:328,1,90,0|8,1:0|0:0,0:0:0:0:
281,233,99710,1,0,0:0:0:0:
281,233,99857,1,0,0:0:0:0:
333,292,100005,1,8,0:0:0:0:
333,292,100153,2,0,P|342:356|341:383,1,90,0|0,1:0|1:0,0:0:0:0:
484,275,100596,1,8,0:0:0:0:
502,349,100744,1,0,1:0:0:0:
427,326,100892,6,0,L|423:316,1,11.25,8|0,0:0|0:0,0:0:0:0:
427,326,101483,6,0,B|383:256|430:209|431:227|470:159|420:97,1,233.999989288331,6|10,1:2|0:2,0:0:0:0:
425,105,101852,1,0,0:0:0:0:
425,105,101926,1,0,0:0:0:0:
351,166,102074,2,0,P|299:161|268:109,1,103.500001974106,2|0,0:2|0:0,0:0:0:0:
289,27,102370,1,10,0:2:0:0:
289,27,102518,6,0,P|190:45|144:133,1,207.000003948212,2|2,1:2|1:2,0:0:0:0:
172,223,102961,1,8,0:0:0:0:
144,133,103109,2,0,P|190:45|289:27,1,207.000003948212,2|2,0:0|1:2,0:0:0:0:
256,130,103552,2,0,P|257:198|310:239,1,103.500001974106,10|0,0:2|0:0,0:0:0:0:
426,252,103848,5,2,1:2:0:0:
445,264,103995,1,2,0:2:0:0:
457,294,104143,1,10,0:2:0:0:
419,356,104291,1,2,0:2:0:0:
312,322,104439,5,2,0:2:0:0:
212,371,104586,1,2,0:2:0:0:
107,341,104734,2,0,P|111:312|134:289,1,51.7500009870529,10|0,0:2|0:0,0:0:0:0:
204,250,104882,2,0,P|210:185|144:107,1,155.250002961159,2|0,1:2|0:0,0:0:0:0:
99,86,105178,1,2,1:2:0:0:
287,172,105325,5,10,0:2:0:0:
287,172,105473,2,0,P|377:157|408:54,1,207.000003948212,2|2,0:2|0:2,0:0:0:0:
319,82,105917,1,10,0:2:0:0:
447,208,106064,1,2,0:2:0:0:
447,208,106212,6,0,P|419:326|492:386,2,207.000003948212,2|10|2,1:2|0:2|0:2,0:0:0:0:
512,286,106951,1,0,0:0:0:0:
355,354,107099,1,10,0:2:0:0:
355,354,107247,6,0,P|257:337|223:245,1,207.000003948212,2|2,1:2|1:2,0:0:0:0:
267,156,107690,1,8,0:0:0:0:
223,245,107838,2,0,P|257:337|355:354,1,207.000003948212,2|2,0:0|1:2,0:0:0:0:
322,258,108281,2,0,P|327:207|399:149,1,103.500001974106,10|0,0:2|0:0,0:0:0:0:
480,129,108577,5,2,1:2:0:0:
495,111,108724,1,2,0:0:0:0:
494,74,108872,1,10,0:0:0:0:
445,29,109020,1,2,0:0:0:0:
350,85,109168,5,2,0:0:0:0:
257,57,109316,1,2,0:0:0:0:
165,103,109463,2,0,P|134:102|108:83,1,51.7500009870529,10|0,0:0|0:0,0:0:0:0:
54,16,109611,2,0,P|19:110|80:183,1,155.250002961159,2|0,1:2|0:0,0:0:0:0:
94,198,109907,1,2,1:2:0:0:
0,326,110054,5,10,0:2:0:0:
0,326,110202,2,0,P|56:293|155:386,1,207.000003948212,2|2,0:2|0:2,0:0:0:0:
256,270,110646,1,10,0:2:0:0:
256,270,110793,1,2,0:2:0:0:
256,270,110941,6,0,B|316:228|377:278|367:290|431:320|487:259,1,233.999989288331,2|10,1:2|0:0,0:0:0:0:
474,270,111311,1,0,0:0:0:0:
474,270,111385,1,0,0:0:0:0:
419,181,111532,2,0,P|383:144|333:130,1,103.500001974106,2|0,0:0|1:0,0:0:0:0:
245,196,111828,1,10,0:0:0:0:
245,196,111976,2,0,P|226:107|316:23,2,207.000003948212,2|2|2,1:2|1:2|0:0,0:0:0:0:
334,130,112715,1,0,0:0:0:0:
209,67,112862,1,2,1:2:0:0:
209,67,113010,2,0,P|138:75|103:173,1,155.250002961159,10|0,0:2|0:0,0:0:0:0:
108,209,113306,6,0,P|94:305|0:318,2,207.000003948212,2|10|2,1:2|0:2|0:0,0:0:0:0:
108,209,114045,1,0,1:0:0:0:
166,340,114192,1,10,0:2:0:0:
166,340,114340,2,0,P|217:370|349:308,2,207.000003948212,2|2|2,1:2|1:2|0:0,0:0:0:0:
109,210,115079,1,0,0:0:0:0:
220,142,115227,1,2,1:2:0:0:
220,142,115375,2,0,P|272:130|365:199,1,155.250002961159,10|0,0:2|0:0,0:0:0:0:
387,240,115670,6,0,P|471:228|483:92,1,207.000003948212,2|10,1:2|0:2,0:0:0:0:
422,5,116114,1,0,0:0:0:0:
422,5,116261,2,0,P|396:50|398:101,1,103.500001974106,2|0,0:0|1:0,0:0:0:0:
305,20,116557,1,10,0:2:0:0:
305,20,116705,6,0,P|207:-6|102:61,2,207.000003948212,2|2|2,1:2|1:2|0:0,0:0:0:0:
222,132,117444,1,0,0:0:0:0:
222,132,117591,2,0,P|159:142|96:111,2,103.500001974106,2|10|0,1:2|0:2|0:0,0:0:0:0:
56,202,118035,6,0,P|43:291|128:383,2,207.000003948212,2|10|2,1:2|0:2|0:0,0:0:0:0:
56,202,118774,1,0,1:0:0:0:
155,266,118921,1,10,0:2:0:0:
155,266,119069,2,0,P|200:283|273:253,2,103.500001974106,2|0|0,1:2|0:0|1:0,0:0:0:0:
320,204,119513,1,10,0:0:0:0:
320,204,119660,5,2,0:0:0:0:
407,51,119808,1,2,0:0:0:0:
425,223,119956,1,2,1:2:0:0:
308,95,120104,1,10,0:2:0:0:
479,130,120252,1,2,0:0:0:0:
320,204,120399,6,0,B|309:257|309:257|361:316,1,112.5,6|0,1:2|0:0,0:0:0:0:
420,384,120695,2,0,B|326:373|326:373|303:382|303:382|208:365|208:365|183:373|183:373|65:351,1,337.5,10|0,0:0|1:0,0:0:0:0:
89,355,121286,1,10,0:2:0:0:
127,181,121434,6,0,P|141:242|132:286,1,103.500001974106,2|2,1:2|0:0,0:0:0:0:
10,215,121729,1,0,1:0:0:0:
10,215,121877,2,0,P|-4:154|5:110,2,103.500001974106,8|2|0,0:0|0:0|0:0,0:0:0:0:
39,14,122320,1,0,1:0:0:0:
39,14,122468,2,0,L|227:7,1,155.250002961159,8|0,0:0|0:0,0:0:0:0:
262,1,122764,6,0,B|281:49|281:49|260:101,1,103.500001974106,2|0,1:2|0:0,0:0:0:0:
219,186,123059,1,10,0:2:0:0:
260,277,123207,1,0,0:0:0:0:
360,287,123355,1,0,0:0:0:0:
418,204,123503,1,0,1:0:0:0:
374,112,123651,1,8,0:0:0:0:
374,112,123798,6,0,P|404:50|444:23,1,103.500001974106,0|0,1:0|0:0,0:0:0:0:
430,29,124094,1,0,1:0:0:0:
507,153,124242,1,8,0:0:0:0:
507,153,124316,1,0,0:0:0:0:
507,153,124389,2,0,B|531:210|513:264|493:245|481:299|510:371,1,207.000003948212,2|2,0:0|1:2,0:0:0:0:
330,383,124833,2,0,P|394:368|453:390,1,103.500001974106,10|2,0:2|0:0,0:0:0:0:
312,291,125128,6,0,B|261:302|261:302|245:353,1,103.500001974106,6|0,1:2|0:0,0:0:0:0:
147,383,125424,2,0,B|176:290|176:290|163:295|163:295|190:212|190:212|178:218|178:218|209:121,1,310.500005922318,10|0,0:0|1:0,0:0:0:0:
207,124,126015,1,10,0:0:0:0:
316,89,126163,6,0,P|247:20|120:51,1,207.000003948212,0|0,1:0|1:0,0:0:0:0:
144,30,126606,1,8,0:0:0:0:
13,25,126754,2,0,P|17:108|119:171,1,207.000003948212,2|0,0:0|1:0,0:0:0:0:
236,210,127197,2,0,L|132:277,1,103.500001974106,8|0,0:0|0:0,0:0:0:0:
43,246,127493,6,0,B|25:294|25:294|52:347,1,103.500001974106,2|0,1:2|0:0,0:0:0:0:
144,382,127788,1,10,0:2:0:0:
222,315,127936,1,0,0:0:0:0:
323,340,128084,1,0,0:0:0:0:
401,273,128232,1,0,1:0:0:0:
502,298,128380,1,8,0:0:0:0:
502,298,128527,6,0,P|490:221|505:170,1,103.500001974106,0|0,1:0|0:0,0:0:0:0:
494,196,128823,1,0,1:0:0:0:
511,93,128971,1,8,0:0:0:0:
511,93,129045,1,0,0:0:0:0:
511,93,129118,2,0,P|416:85|272:106,1,207.000003948212,2|2,0:0|1:2,0:0:0:0:
233,203,129562,2,0,L|182:183,1,51.7500009870529,10|0,0:2|0:0,0:0:0:0:
153,74,129710,2,0,L|104:107,1,51.7500009870529,10|0,0:2|0:0,0:0:0:0:
30,184,129857,6,0,B|0:140|0:140|13:87,1,107.999996704102,6|0,1:2|0:0,0:0:0:0:
0,270,130153,2,0,B|99:275|99:275|111:285|111:285|206:290|206:290|219:280|219:280|327:285,1,323.999990112305,10|0,0:0|1:0,0:0:0:0:
316,284,130744,1,10,0:0:0:0:
393,358,130892,6,0,P|427:316|433:265,1,103.500001974106,0|2,1:0|0:0,0:0:0:0:
472,134,131187,1,0,1:0:0:0:
472,134,131335,2,0,P|479:184|512:223,2,103.500001974106,8|2|0,0:0|0:0|0:0,0:0:0:0:
512,0,131779,1,0,1:0:0:0:
512,0,131926,2,0,L|328:7,1,155.250002961159,8|0,0:0|0:0,0:0:0:0:
289,16,132222,6,0,B|264:62|264:62|283:109,1,103.500001974106,2|0,1:2|0:0,0:0:0:0:
338,197,132518,1,10,0:2:0:0:
290,288,132665,1,0,0:0:0:0:
235,200,132813,1,0,0:0:0:0:
187,291,132961,1,0,1:0:0:0:
132,203,133109,1,8,0:0:0:0:
132,203,133256,6,0,P|155:150|183:110,1,103.500001974106,0|0,1:0|0:0,0:0:0:0:
180,112,133552,1,0,1:0:0:0:
112,17,133700,1,8,0:0:0:0:
112,17,133774,1,0,0:0:0:0:
112,17,133848,2,0,P|57:81|11:209,1,207.000003948212,2|2,0:0|1:2,0:0:0:0:
0,290,134291,2,0,L|66:312,1,51.7500009870529,10|0,0:2|0:0,0:0:0:0:
77,384,134439,2,0,L|143:362,1,51.7500009870529,10|0,0:2|0:0,0:0:0:0:
222,350,134586,6,0,B|252:308|252:308|238:258,1,103.500001974106,6|0,1:2|0:0,0:0:0:0:
354,338,134882,2,0,B|375:243|375:243|364:246|364:246|384:152|384:152|394:161|394:161|420:43,1,310.500005922318,10|0,0:2|1:0,0:0:0:0:
413,70,135473,1,10,0:0:0:0:
507,115,135621,6,0,L|465:321,1,207.000003948212,0|0,1:0|1:0,0:0:0:0:
465,317,136064,1,8,0:0:0:0:
403,205,136212,2,0,P|351:162|220:197,1,207.000003948212,2|0,0:0|1:0,0:0:0:0:
121,247,136655,2,0,L|222:274,1,103.500001974106,8|0,0:0|0:0,0:0:0:0:
146,155,136951,5,2,1:2:0:0:
146,155,137099,2,0,B|131:105|131:105|160:60,1,103.500001974106,8|2,0:0|0:0,0:0:0:0:
0,125,137394,1,0,1:0:0:0:
0,125,137542,2,0,B|50:137|50:137|75:184,1,103.500001974106,8|0,0:0|0:0,0:0:0:0:
98,14,137838,1,0,1:0:0:0:
98,14,137985,2,0,B|62:51|62:51|8:49,1,103.500001974106,8|0,0:0|0:0,0:0:0:0:
146,155,138281,5,2,1:2:0:0:
146,155,138429,2,0,B|131:105|131:105|160:60,1,103.500001974106,10|2,0:2|1:2,0:0:0:0:
303,169,138724,2,0,B|267:206|267:206|213:204,1,103.500001974106,10|2,0:2|1:2,0:0:0:0:
237,27,139020,2,0,B|287:39|287:39|312:86,1,103.500001974106,10|2,0:2|1:2,0:0:0:0:
227,118,139316,5,4,1:2:0:0:
256,192,139759,12,0,142862,0:0:0:0:
