osu file format v14

[General]
AudioFilename: audio.mp3
AudioLeadIn: 0
PreviewTime: 119216
Countdown: 0
SampleSet: Soft
StackLeniency: 0.4
Mode: 0
LetterboxInBreaks: 0
WidescreenStoryboard: 1

[Editor]
DistanceSpacing: 1.1
BeatDivisor: 4
GridSize: 32
TimelineZoom: 2.600006

[Metadata]
Title:Drifting
TitleUnicode:Drifting
Artist:Good Kid
ArtistUnicode:Good Kid
Creator:Macuilxochitl
Version:Conjugation Collab
Source:
Tags:osu! fa featured artist 2 indie rock english ruvari garvanturr cyberia950 big black dt monsieursebas ernua tatemae anishina kodoku sherrycherry loreley allihoppa senseabel entsetzen ent
BeatmapID:3515720
BeatmapSetID:1703768

[Difficulty]
HPDrainRate:5.5
CircleSize:4
OverallDifficulty:9
ApproachRate:9.4
SliderMultiplier:1.96
SliderTickRate:0.5

[Events]
//Background and Video events
0,0,"icee-dc-IvwVy4zqB3E-unsplash.jpg",0,0
//Break Periods
//Storyboard Layer 0 (Background)
//Storyboard Layer 1 (Fail)
//Storyboard Layer 2 (Pass)
//Storyboard Layer 3 (Foreground)
//Storyboard Layer 4 (Overlay)
//Storyboard Sound Samples

[TimingPoints]
991,295.566502463054,3,2,1,45,1,0
991,-66.6666666666667,4,2,1,45,0,0
1286,-200,4,2,1,45,0,0
1582,-66.6666666666667,4,2,1,45,0,0
2468,-200,4,2,1,45,0,0
2764,295.566502463054,4,2,1,65,1,0
2764,-66.6666666666667,4,2,1,65,0,0
3059,-83.3333333333333,4,2,1,65,0,0
5128,-66.6666666666667,4,2,1,65,0,0
5424,-200,4,2,1,65,0,0
5719,-83.3333333333333,4,2,1,65,0,0
6015,-66.6666666666667,4,2,1,65,0,0
6606,-200,4,2,1,65,0,0
6902,295.566502463054,4,2,1,65,1,0
6902,-66.6666666666667,4,2,1,65,0,0
7197,-83.3333333333333,4,2,1,65,0,0
9266,295.566502463054,3,2,1,65,1,0
9266,-66.6666666666667,4,2,1,65,0,0
9561,-200,4,2,1,65,0,0
9857,-66.6666666666667,4,2,1,65,0,0
10743,-200,4,2,1,65,0,0
11040,295.566502463054,4,2,1,65,1,0
11040,-66.6666666666667,4,2,1,65,0,0
11335,-83.3333333333333,4,2,1,65,0,0
13404,-66.6666666666667,4,2,1,65,0,0
13700,-200,4,2,1,65,0,0
13995,-66.6666666666667,4,2,1,65,0,0
14882,-200,4,2,1,65,0,0
15178,295.566502463054,4,2,1,65,1,0
15178,-66.6666666666667,4,2,1,65,0,0
17542,-66.6666666666667,4,2,1,75,0,0
17838,-83.3333333333333,4,2,1,75,0,0
18133,-66.6666666666667,4,2,1,75,0,0
19611,-83.3333333333333,4,2,1,75,0,0
19907,-66.6666666666667,4,2,1,75,0,0
22567,-100,4,2,1,75,0,0
22862,-66.6666666666667,4,2,1,75,0,0
24931,-100,4,2,1,75,0,0
25227,-83.3333333333333,4,2,1,75,0,0
25966,-66.6666666666667,4,2,1,75,0,0
31729,295.566502463054,3,2,1,75,1,0
31729,-66.6666666666667,3,2,1,75,0,0
32024,-200,4,2,1,75,0,0
32320,-66.6666666666667,4,2,1,75,0,0
33206,-200,4,2,1,75,0,0
33503,295.566502463054,4,2,1,65,1,0
33503,-76.9230769230769,4,2,1,65,0,0
34094,-100,4,2,1,65,0,0
35867,295.566502463054,3,2,1,65,1,0
35867,-100,3,2,1,65,0,0
36162,-66.6666666666667,4,2,1,65,0,0
37641,295.566502463054,4,2,1,65,1,0
37641,-76.9230769230769,4,2,1,65,0,0
38232,-100,4,2,1,65,0,0
40005,-100,4,2,1,65,0,0
41779,295.566502463054,4,2,1,65,1,0
41779,-100,4,2,1,65,0,0
45917,295.566502463054,4,2,1,65,1,0
45917,-100,4,2,1,65,0,0
48281,295.566502463054,3,2,1,65,1,0
48281,-100,3,2,1,65,0,0
50055,295.566502463054,4,2,1,65,1,0
50055,-100,4,2,1,65,0,0
54192,295.566502463054,4,2,1,65,1,0
54192,-100,4,2,1,65,0,0
56556,-83.3333333333333,4,2,1,75,0,0
75472,-1000,4,2,1,35,0,0
84930,-166.666666666667,4,2,1,45,0,0
86705,295.566502463054,4,2,1,45,1,0
87296,-166.666666666667,4,2,1,45,0,0
89069,-166.666666666667,4,2,1,45,0,0
90843,295.566502463054,4,2,1,45,1,0
91434,-166.666666666667,4,2,1,45,0,0
93207,-125,4,2,1,45,0,0
94094,-125,4,2,1,45,0,0
94981,295.566502463054,4,2,1,45,1,0
94981,-125,4,2,1,45,0,0
97345,-100,4,2,1,45,0,0
98232,-125,4,2,1,45,0,0
99119,295.566502463054,4,2,1,45,1,0
99119,-125,4,2,1,45,0,0
101483,-66.6666666666667,4,2,1,70,0,0
101779,-66.6666666666667,4,2,1,70,0,0
110941,-66.6666666666667,4,2,1,70,0,0
120399,-50,4,2,1,75,0,1
121286,-66.6666666666667,4,2,1,75,0,1
121582,-50,4,2,1,75,0,1
122468,-66.6666666666667,4,2,1,75,0,1
122764,-50,4,2,1,75,0,1
125128,-66.6666666666667,4,2,1,75,0,1
125867,-50,4,2,1,75,0,1
126163,-66.6666666666667,4,2,1,75,0,1
126754,-50,4,2,1,75,0,1
127788,-66.6666666666667,4,2,1,75,0,1
129857,-50,4,2,1,75,0,1
130449,-66.6666666666667,4,2,1,75,0,1
132222,-50,4,2,1,75,0,1
132518,-100,4,2,1,75,0,1
132665,-83.3333333333333,4,2,1,75,0,1
132813,-71.4285714285714,4,2,1,75,0,1
132961,-62.5,4,2,1,75,0,1
133256,-66.6666666666667,4,2,1,75,0,1
134586,-50,4,2,1,75,0,1
135178,-66.6666666666667,4,2,1,75,0,1
139316,-142.857142857143,4,2,1,75,0,0
140498,-142.857142857143,4,2,1,60,0,0
141089,-142.857142857143,4,2,1,45,0,0
141680,-142.857142857143,4,2,1,30,0,0
142271,-142.857142857143,4,2,1,15,0,0
142862,-142.857142857143,4,2,1,5,0,0

[Colours]
Combo1 : 198,223,218
Combo2 : 226,84,84
Combo3 : 223,213,189
Combo4 : 169,190,211

[HitObjects]
10,364,991,6,0,B|19:377|19:377|14:268|104:202,1,220.500008411408,2|0,1:2|0:0,0:0:0:0:
85,120,1286,6,0,B|79:129|79:129|126:116|160:146,1,98,2|0,1:2|0:0,0:0:0:0:
144,319,1729,5,0,0:0:0:0:
268,348,1877,2,0,P|221:303|42:303,1,220.500008411408,2|0,1:2|0:0,0:0:0:0:
144,319,2173,2,0,P|234:328|254:191,1,220.500008411408,2|0,1:2|0:0,0:0:0:0:
252,72,2468,6,0,P|234:107|242:152,1,73.5,10|0,0:2|0:0,0:0:0:0:
410,331,2764,6,0,P|337:286|314:151,1,220.500008411408,6|0,1:2|0:0,0:0:0:0:
486,196,3059,2,0,P|430:197|408:248,1,117.599996411133,8|2,0:0|0:0,0:0:0:0:
259,350,3355,2,0,B|230:377|230:377|306:362,1,117.599996411133,2|0,0:0|0:0,0:0:0:0:
490,281,3650,5,10,0:2:0:0:
490,281,3798,2,0,P|392:216|282:237,1,235.199992822266,2|2,1:2|1:2,0:0:0:0:
148,363,4241,1,8,0:0:0:0:
148,363,4389,1,0,0:0:0:0:
6,143,4537,5,2,0:2:0:0:
235,48,4685,1,2,0:2:0:0:
69,13,4832,2,0,B|50:37|50:37|48:65,1,58.7999982055665,10|0,0:2|0:0,0:0:0:0:
321,74,4980,2,0,B|340:98|340:98|341:126,1,58.7999982055665,10|0,0:2|0:0,0:0:0:0:
39,228,5128,6,0,B|38:336|38:336|127:266,1,220.500008411408,2|0,1:2|0:0,0:0:0:0:
148,196,5424,6,0,B|88:165|88:165|107:188,1,98,10|0,0:0|0:0,0:0:0:0:
206,321,5867,1,0,0:0:0:0:
51,354,6015,6,0,P|7:261|10:124,1,220.500008411408,10|0,0:2|0:0,0:0:0:0:
161,112,6310,2,0,P|206:211|207:320,1,220.500008411408,2|0,1:2|0:0,0:0:0:0:
148,379,6606,6,0,B|130:346|130:346|135:303,1,73.5,10|0,0:2|0:0,0:0:0:0:
388,189,6902,6,0,P|291:154|231:237,1,220.500008411408,2|0,1:2|0:0,0:0:0:0:
161,112,7197,2,0,P|230:124|243:170,1,117.599996411133,8|2,0:0|0:2,0:0:0:0:
369,382,7493,2,0,P|382:301|407:252,1,117.599996411133,2|0,0:2|0:0,0:0:0:0:
500,85,7788,1,10,0:2:0:0:
109,175,7936,6,0,L|349:114,1,235.199992822266,2|2,1:2|1:2,0:0:0:0:
334,11,8379,1,8,0:0:0:0:
334,11,8527,1,0,0:0:0:0:
270,218,8675,5,2,0:2:0:0:
25,124,8823,1,2,0:2:0:0:
28,253,8970,2,0,P|51:235|60:199,1,58.7999982055665,10|0,0:2|0:0,0:0:0:0:
205,366,9118,2,0,P|182:348|172:307,1,58.7999982055665,10|0,0:2|0:0,0:0:0:0:
137,236,9266,6,0,B|154:128|41:144|61:40,1,220.500008411408,2|0,1:2|0:0,0:0:0:0:
179,32,9561,6,0,B|142:25|134:62|134:62|145:64,1,73.5,2|0,1:2|0:0,0:0:0:0:
56,204,9857,6,0,P|147:147|254:166,1,220.500008411408,8|0,0:0|0:0,0:0:0:0:
264,13,10152,2,0,P|228:99|326:95,1,220.500008411408,2|0,1:2|0:0,0:0:0:0:
247,326,10448,2,0,B|250:357|250:357|264:240|350:175,1,220.500008411408,2|0,1:2|0:0,0:0:0:0:
472,102,10743,6,0,B|435:114|435:114|464:94,1,73.5,10|0,0:0|0:0,0:0:0:0:
432,230,11040,6,0,P|421:126|320:101,1,220.500008411408,2|0,1:2|0:0,0:0:0:0:
253,165,11335,2,0,P|234:216|179:217,1,117.599996411133,10|0,0:2|0:0,0:0:0:0:
31,34,11631,2,0,P|85:19|128:57,1,117.599996411133,2|0,0:2|0:0,0:0:0:0:
193,312,11926,5,10,0:2:0:0:
193,312,12074,2,0,P|155:213|20:172,1,235.199992822266,2|2,1:2|1:2,0:0:0:0:
0,248,12517,1,8,0:0:0:0:
0,248,12665,1,0,0:0:0:0:
250,121,12813,5,2,0:2:0:0:
328,370,12961,1,2,0:2:0:0:
430,211,13108,2,0,L|417:268,1,58.7999982055665,10|0,0:2|0:0,0:0:0:0:
167,109,13256,2,0,L|179:166,1,58.7999982055665,10|0,0:2|0:0,0:0:0:0:
106,313,13404,6,0,B|84:370|84:370|252:381,1,220.500008411408,2|0,1:2|0:0,0:0:0:0:
328,370,13700,6,0,P|346:339|331:272,1,98,10|0,0:2|0:0,0:0:0:0:
182,293,14143,5,0,0:0:0:0:
110,195,14291,2,0,P|214:207|249:330,1,220.500008411408,10|0,0:2|0:0,0:0:0:0:
436,164,14586,2,0,P|332:151|269:235,1,220.500008411408,2|0,1:2|0:0,0:0:0:0:
347,350,14882,6,0,P|333:309|339:271,1,73.5,10|0,0:2|0:0,0:0:0:0:
465,357,15178,6,0,L|144:387,1,294.00001121521,2|8,1:2|0:0,0:0:0:0:
245,293,15621,2,0,B|224:283|224:283|156:263,1,73.5000028038026,2|0,0:2|0:0,0:0:0:0:
302,182,15769,2,0,L|128:168,1,147.000005607605,2|0,0:2|0:0,0:0:0:0:
116,104,15990,1,0,0:0:0:0:
116,104,16064,2,0,B|52:122|52:122|9:96,1,73.5000028038026,10|0,0:2|0:0,0:0:0:0:
192,144,16212,2,0,B|70:119|70:119|47:142,1,147.000005607605,2|0,1:2|0:0,0:0:0:0:
266,134,16508,5,2,1:2:0:0:
46,208,16655,2,0,L|345:162,1,294.00001121521,8|0,0:0|0:0,0:0:0:0:
188,212,17099,5,0,1:0:0:0:
385,335,17246,2,0,P|440:303|437:275,1,73.5000028038026,8|0,0:0|0:0,0:0:0:0:
347,236,17394,6,0,P|330:174|352:156,1,73.5000028038026
311,375,17542,6,0,B|286:357|286:357|97:334,1,220.500008411408,6|0,1:2|0:0,0:0:0:0:
152,268,17838,6,0,B|273:212|273:212|257:251,1,176.399994616699,8|0,0:0|0:0,0:0:0:0:
257,251,18133,1,0,0:0:0:0:
115,157,18281,5,0,1:0:0:0:
58,8,18429,1,10,0:2:0:0:
216,197,18577,1,2,1:2:0:0:
244,64,18724,1,2,0:0:0:0:
55,96,18872,5,2,1:2:0:0:
307,126,19020,2,0,B|317:98|317:98|472:57,1,147.000005607605,8|2,0:0|0:0,0:0:0:0:
457,141,19315,1,0,0:0:0:0:
199,127,19463,2,0,B|255:141|255:141|260:155,1,73.5000028038026,2|0,1:2|0:0,0:0:0:0:
377,207,19611,6,0,P|373:108|464:67,1,176.399994616699,8|0,0:0|0:0,0:0:0:0:
457,141,19907,6,0,B|452:132|444:104|444:104|305:155|305:155|330:206|345:256,1,294.00001121521,2|8,1:2|0:0,0:0:0:0:
345,256,20498,6,0,B|418:224|515:194,1,147.000005607605,0|0,0:0|1:0,0:0:0:0:
265,230,20793,2,0,B|275:222|224:253|198:261,1,73.5000028038026,10|0,0:2|0:0,0:0:0:0:
0,283,20941,2,0,B|48:298|95:315|95:315|83:299|68:276,1,147.000005607605,2|2,1:2|0:0,0:0:0:0:
231,337,21237,6,0,B|220:344|271:313|293:306,1,73.5000028038026,2|0,1:2|0:0,0:0:0:0:
68,276,21384,2,0,B|91:320|112:365|112:365|115:346|120:319,2,147.000005607605,8|2|0,0:0|0:0|0:0,0:0:0:0:
150,219,21828,1,2,1:2:0:0:
175,96,21976,1,8,0:0:0:0:
108,68,22123,1,0,0:0:0:0:
108,68,22197,1,0,0:0:0:0:
108,68,22271,6,0,P|285:47|378:35,1,220.500008411408,2|0,1:2|0:0,0:0:0:0:
304,142,22567,6,0,P|373:134|401:69,1,147,8|0,0:0|0:0,0:0:0:0:
367,229,22862,6,0,P|439:237|512:246,1,147.000005607605,0|0,0:0|1:0,0:0:0:0:
288,267,23158,5,10,0:2:0:0:
288,267,23232,1,0,0:0:0:0:
288,267,23306,2,0,L|269:345,1,73.5000028038026,2|0,1:2|0:0,0:0:0:0:
339,377,23453,1,2,0:0:0:0:
454,311,23601,1,2,1:2:0:0:
202,301,23749,2,0,B|94:329|94:329|55:359,2,147.000005607605,8|2|0,0:0|0:0|0:0,0:0:0:0:
12,274,24192,5,2,1:2:0:0:
216,219,24340,2,0,B|193:188|193:188|13:114,1,220.500008411408,8|0,0:0|0:0,0:0:0:0:
133,279,24636,6,0,B|241:326|241:326|317:236,1,220.500008411408,2|0,1:2|0:0,0:0:0:0:
281,166,24931,6,0,B|233:109|233:109|155:143,1,147,8|0,0:0|0:0,0:0:0:0:
280,244,25227,6,0,L|377:261,1,58.7999982055665
386,384,25375,1,0,1:0:0:0:
416,314,25522,6,0,L|513:297,1,58.7999982055665,8|0,0:0|0:0,0:0:0:0:
503,325,25670,1,0,1:0:0:0:
503,325,25966,6,0,L|327:298,1,147.000005607605,0|8,1:0|0:0,0:0:0:0:
181,281,26261,2,0,B|160:277|160:277|91:301,1,73.5000028038026
212,214,26409,1,0,0:0:0:0:
248,100,26557,1,0,1:0:0:0:
389,74,26705,1,8,0:0:0:0:
360,4,26852,1,0,0:0:0:0:
360,4,26926,1,0,0:0:0:0:
360,4,27000,6,0,P|247:14|118:164,2,294.00001121521,6|8|0,1:2|0:0|0:0,0:0:0:0:
418,65,27739,1,0,1:0:0:0:
230,314,27887,1,10,0:0:0:0:
22,149,28035,6,0,B|64:251|64:251|164:153|164:153|124:137,1,294.00001121521,0|2,1:0|1:2,0:0:0:0:
64,81,28478,1,8,0:0:0:0:
138,365,28626,2,0,B|28:349|28:349|-8:306,1,147.000005607605,2|0,0:0|0:0,0:0:0:0:
170,284,28921,2,0,P|203:285|232:340,1,73.5000028038026,2|0,1:2|0:0,0:0:0:0:
295,380,29069,2,0,B|408:359|408:359|353:324,1,147.000005607605,8|0,0:0|0:0,0:0:0:0:
358,32,29365,6,0,B|449:92|449:92|457:120|457:120|437:199,1,220.500008411408,2|0,1:2|0:0,0:0:0:0:
378,262,29660,2,0,P|337:202|267:183,1,147.000005607605,8|0,0:0|0:0,0:0:0:0:
35,247,29956,1,0,0:0:0:0:
260,333,30104,1,0,1:0:0:0:
184,373,30251,2,0,B|172:334|172:334|191:285,1,73.5000028038026,10|0,0:2|0:0,0:0:0:0:
10,348,30399,6,0,B|186:266|186:266|116:195,1,294.00001121521,2|2,1:2|1:2,0:0:0:0:
74,73,30843,1,8,0:0:0:0:
107,384,30990,2,0,P|17:270|18:126,1,294.00001121521,2|0,0:0|1:0,0:0:0:0:
10,348,31434,2,0,P|61:259|168:275,1,220.500008411408,10|0,0:0|0:0,0:0:0:0:
295,306,31729,6,0,P|243:359|285:298,1,220.500008411408,2|0,1:2|0:0,0:0:0:0:
166,273,32024,6,0,P|191:300|188:352,1,73.5,2|0,1:2|0:0,0:0:0:0:
53,369,32320,6,0,P|83:347|90:295,1,73.5000028038026,8|0,0:2|0:0,0:0:0:0:
166,273,32467,2,0,P|174:236|146:192,1,73.5000028038026,0|0,1:2|0:0,0:0:0:0:
17,136,32615,6,0,P|109:169|254:139,1,220.500008411408,2|0,1:2|0:0,0:0:0:0:
256,78,32911,2,0,P|164:45|123:153,1,220.500008411408,2|0,1:2|0:0,0:0:0:0:
44,241,33206,6,0,P|23:175|30:153,1,73.5,8|0,0:2|0:0,0:0:0:0:
110,312,33503,6,0,P|174:254|415:184,1,318.499985420228,6|0,1:2|0:0,0:0:0:0:
388,109,33946,2,0,P|395:74|404:42,1,63.6999970840455,2|0,0:2|0:0,0:0:0:0:
311,68,34094,6,0,P|381:48|439:4,1,147,2|0,0:2|0:0,0:0:0:0:
439,4,34389,5,10,0:2:0:0:
229,151,34537,2,0,P|138:166|104:174,1,98,2|0,1:2|0:0,0:0:0:0:
367,144,34833,5,2,1:2:0:0:
186,83,34980,1,10,0:2:0:0:
107,100,35128,2,0,P|16:85|-18:77,1,98,2|0,0:2|0:0,0:0:0:0:
244,30,35424,5,2,0:2:0:0:
96,176,35571,2,0,P|47:166|0:159,1,98,10|0,0:2|0:0,0:0:0:0:
32,368,35867,5,2,1:2:0:0:
32,368,36162,2,0,B|76:338|141:318|141:318|240:210|240:210|362:231|362:231|364:258|390:282,1,441.000016822816,2|0,1:2|1:2,0:0:0:0:
457,253,36753,1,2,1:2:0:0:
457,253,37049,2,0,B|466:171|466:171|346:100|346:100|365:3,1,294.00001121521,2|8,1:2|0:2,0:0:0:0:
329,187,37492,2,0,L|219:207,1,73.5000028038026
250,218,37641,6,0,B|342:199|342:199|387:78|387:78|479:48,1,318.499985420228,6|0,1:2|0:0,0:0:0:0:
512,151,38084,2,0,P|481:142|450:136,1,63.6999970840455,2|0,0:2|0:0,0:0:0:0:
493,244,38232,6,0,P|426:211|359:183,1,147,2|0,0:2|0:0,0:0:0:0:
359,183,38527,5,10,0:2:0:0:
481,31,38675,2,0,P|434:53|387:73,1,98,2|0,1:2|0:0,0:0:0:0:
450,136,38971,5,0,1:2:0:0:
287,50,39118,1,10,0:2:0:0:
211,105,39266,1,2,0:0:0:0:
119,112,39414,1,2,0:0:0:0:
20,182,39562,5,2,1:2:0:0:
180,254,39709,1,10,0:2:0:0:
180,254,39783,1,0,0:0:0:0:
180,254,39857,1,2,0:0:0:0:
129,382,40005,6,0,P|192:335|319:300,1,196,2|10,1:2|0:2,0:0:0:0:
307,305,40596,1,0,0:0:0:0:
307,305,40744,1,0,0:0:0:0:
195,309,40892,2,0,P|146:302|102:281,1,98,10|0,0:2|0:0,0:0:0:0:
428,344,41187,6,0,P|330:343|239:377,1,196,2|10,1:2|0:2,0:0:0:0:
19,260,41631,1,0,0:0:0:0:
75,373,41779,6,0,P|66:275|45:179,1,196,2|8,1:2|0:0,0:0:0:0:
116,152,42222,1,2,0:0:0:0:
161,319,42370,2,0,P|149:248|147:202,1,98,2|0,0:0|0:0,0:0:0:0:
250,355,42665,2,0,P|243:317|242:292,1,49,10|0,0:2|0:0,0:0:0:0:
303,262,42813,2,0,P|296:224|295:199,1,49,2|0,1:2|0:0,0:0:0:0:
405,346,42961,6,0,B|381:304|381:304|395:221,2,98,0|2|8,0:0|1:2|0:0,0:0:0:0:
454,205,43404,1,0,0:0:0:0:
289,128,43552,1,2,0:2:0:0:
141,226,43700,1,2,0:2:0:0:
218,232,43847,5,10,0:2:0:0:
47,152,43995,1,10,0:2:0:0:
22,256,44143,6,0,P|78:196|204:165,1,196,2|10,1:2|0:0,0:0:0:0:
189,168,44734,1,0,0:0:0:0:
189,168,44882,1,0,0:0:0:0:
157,280,45030,2,0,P|119:229|127:183,1,98,10|0,0:2|0:0,0:0:0:0:
259,251,45325,6,0,P|273:299|278:372,1,98,2|0,1:2|0:0,0:0:0:0:
0,225,45621,2,0,P|5:273|19:320,1,98,10|0,0:2|0:0,0:0:0:0:
19,320,45917,6,0,B|129:313|91:377|209:367,1,196,2|8,1:2|0:0,0:0:0:0:
361,347,46360,1,2,0:2:0:0:
319,279,46508,2,0,B|273:261|273:261|221:286,1,98,2|0,0:2|0:0,0:0:0:0:
159,198,46803,1,10,0:2:0:0:
354,176,46951,6,0,P|261:185|141:201,1,196,2|2,1:2|1:2,0:0:0:0:
348,87,47394,1,8,0:0:0:0:
212,13,47542,1,0,0:0:0:0:
107,112,47690,1,2,0:2:0:0:
39,70,47838,1,2,0:2:0:0:
290,30,47985,5,10,0:2:0:0:
140,274,48133,1,10,0:2:0:0:
0,231,48281,6,0,P|87:213|217:175,2,196,2|2|8,1:2|1:2|0:0,0:0:0:0:
232,118,49167,2,0,P|245:70|255:22,1,98,2|0,1:2|0:0,0:0:0:0:
322,94,49463,2,0,P|416:67|512:46,1,196,2|10,1:2|0:0,0:0:0:0:
506,126,49906,1,0,0:0:0:0:
318,1,50055,6,0,B|341:16|341:16|367:119|367:119|334:139|310:189,1,196,2|10,1:2|0:2,0:0:0:0:
316,240,50498,1,2,0:0:0:0:
391,216,50646,2,0,B|455:241|455:241|445:214,1,98,2|0,0:2|0:0,0:0:0:0:
323,163,50941,5,10,0:2:0:0:
162,215,51089,2,0,B|152:235|152:235|74:262,1,98,2|0,1:2|0:0,0:0:0:0:
151,316,51385,1,2,1:2:0:0:
18,214,51532,2,0,B|10:192|10:192|43:124,1,98,8|0,0:0|0:0,0:0:0:0:
13,19,51828,5,2,0:2:0:0:
130,138,51976,1,2,0:2:0:0:
216,95,52123,1,10,0:2:0:0:
340,65,52271,1,10,0:2:0:0:
269,190,52419,6,0,L|480:227,1,196,2|10,1:2|0:2,0:0:0:0:
462,223,53010,1,0,0:0:0:0:
462,223,53158,1,0,0:0:0:0:
287,120,53306,2,0,L|260:20,1,98,10|0,0:2|0:0,0:0:0:0:
375,234,53601,6,0,P|337:266|334:314,1,98,2|0,1:2|0:0,0:0:0:0:
137,150,53897,2,0,P|175:118|178:70,1,98,10|0,0:2|0:0,0:0:0:0:
23,249,54192,6,0,B|72:284|63:350|69:355|67:348|95:287|170:283,1,196,2|8,1:2|0:0,0:0:0:0:
104,219,54635,1,2,0:2:0:0:
201,349,54783,2,0,B|268:329|268:329|291:379,1,98,2|0,0:2|0:0,0:0:0:0:
353,374,55078,1,10,0:2:0:0:
494,305,55226,6,0,B|480:246|480:246|325:202,1,196,2|2,1:2|1:2,0:0:0:0:
352,373,55669,2,0,B|313:327|313:327|385:305|385:305|425:352,1,196,8|0,0:0|0:0,0:0:0:0:
268,384,56113,1,0,1:0:0:0:
494,305,56260,6,0,B|501:275|501:275|442:220,1,98,8|0,0:0|0:0,0:0:0:0:
471,35,56556,6,0,B|404:65|332:-54|39:114|368:218|335:264|177:407|60:367|-15:323|8:192|74:216|103:360,1,705.599978466798,6|10,1:2|0:2,0:0:0:0:
23,368,57591,1,2,1:2:0:0:
162,384,57738,6,0,P|173:326|159:270,1,117.599996411133,2|2,0:0|1:2,0:0:0:0:
50,151,58034,2,0,B|93:159|112:182|112:182|104:154|83:149,2,117.599996411133,8|2|0,0:0|0:0|0:0,0:0:0:0:
206,200,58477,1,2,1:2:0:0:
68,254,58625,2,0,B|98:270|98:270|203:230|203:230|209:176,1,176.399994616699,8|0,0:0|0:0,0:0:0:0:
292,217,58921,6,0,B|302:245|302:245|426:236|449:356,2,235.199992822266,2|8|0,1:2|0:0|0:0,0:0:0:0:
350,333,59659,1,0,1:0:0:0:
402,145,59807,6,0,P|374:153|349:170,1,58.7999982055665,10|0,0:2|0:0,0:0:0:0:
266,316,59955,2,0,P|197:281|22:279,1,235.199992822266,2|2,1:2|1:2,0:0:0:0:
235,213,60398,2,0,P|273:272|251:337,1,117.599996411133,8|2,0:0|0:0,0:0:0:0:
211,376,60694,1,0,0:0:0:0:
329,196,60842,1,2,1:2:0:0:
164,179,60990,2,0,B|147:207|147:207|158:245,1,58.7999982055665,8|0,0:0|0:0,0:0:0:0:
41,273,61137,2,0,B|48:298|48:298|31:326,1,58.7999982055665
106,374,61285,6,0,L|85:129,1,235.199992822266,2|8,1:2|0:0,0:0:0:0:
85,139,61876,1,0,0:0:0:0:
264,46,62024,1,0,1:0:0:0:
167,21,62172,1,10,0:2:0:0:
167,21,62320,2,0,B|196:107|196:107|240:126,1,117.599996411133,2|2,1:2|0:0,0:0:0:0:
410,118,62615,5,2,1:2:0:0:
262,256,62763,1,8,0:0:0:0:
425,256,62911,2,0,B|418:232|418:232|353:210|353:210|310:233,1,117.599996411133,2|0,0:0|0:0,0:0:0:0:
225,359,63206,1,2,1:2:0:0:
39,354,63354,2,0,P|88:359|150:329,1,117.599996411133,8|0,0:0|0:0,0:0:0:0:
400,365,63650,6,0,P|452:303|434:125,2,235.199992822266,2|8|0,1:2|0:0|0:0,0:0:0:0:
377,124,64389,1,0,1:0:0:0:
512,20,64536,2,0,P|479:4|452:31,1,58.7999982055665,8|0,0:0|0:0,0:0:0:0:
377,124,64684,6,0,P|425:185|470:73,1,235.199992822266,0|0,1:0|1:0,0:0:0:0:
392,42,65127,1,8,0:0:0:0:
339,259,65275,1,0,0:0:0:0:
209,24,65423,2,0,B|269:32|269:32|317:107,1,117.599996411133,0|0,1:0|1:0,0:0:0:0:
433,268,65719,1,8,0:0:0:0:
219,117,65866,1,0,0:0:0:0:
219,117,65940,1,0,0:0:0:0:
219,117,66014,6,0,B|245:81|245:81|374:47|374:47|404:82|460:89,2,235.199992822266,6|8|0,1:2|0:0|0:0,0:0:0:0:
276,173,66753,1,0,1:0:0:0:
433,268,66901,1,10,0:0:0:0:
501,236,67049,2,0,B|504:208|478:189|478:189|442:195|417:168,1,117.599996411133,0|2,1:0|0:0,0:0:0:0:
315,11,67344,1,2,1:2:0:0:
448,89,67492,2,0,B|463:61|500:59|500:59|521:34|511:8,2,117.599996411133,8|2|0,0:0|0:0|0:0,0:0:0:0:
344,213,67935,1,2,1:2:0:0:
276,173,68083,2,0,B|246:157|246:157|168:206|168:206|207:152,1,176.399994616699,8|0,0:0|0:0,0:0:0:0:
255,246,68379,6,0,P|294:302|215:255,2,235.199992822266,2|8|0,1:2|0:0|0:0,0:0:0:0:
184,209,69118,1,0,1:0:0:0:
8,285,69265,1,10,0:2:0:0:
9,369,69413,1,2,1:2:0:0:
9,369,69487,1,0,0:0:0:0:
9,369,69561,2,0,P|63:345|125:327,1,117.599996411133,2|2,0:0|1:2,0:0:0:0:
283,278,69857,2,0,P|337:254|399:236,1,117.599996411133,8|2,0:0|0:0,0:0:0:0:
488,140,70152,5,0,0:0:0:0:
357,110,70300,1,0,1:0:0:0:
294,64,70448,2,0,B|230:76,1,58.7999982055665,10|0,0:0|0:0,0:0:0:0:
215,52,70595,2,0,B|180:57|180:57|151:40,1,58.7999982055665,2|0,0:0|0:0,0:0:0:0:
95,89,70743,6,0,B|133:59|133:59|254:48|254:48|306:9,2,235.199992822266,0|8|0,1:0|0:0|0:0,0:0:0:0:
172,137,71482,1,0,1:0:0:0:
18,206,71630,1,10,0:2:0:0:
18,206,71778,2,0,B|44:191|44:191|157:217,1,117.599996411133,2|2,1:2|0:0,0:0:0:0:
194,272,72073,5,2,1:2:0:0:
359,348,72221,1,8,0:0:0:0:
412,296,72369,2,0,B|433:307|433:307|498:285|498:285|505:261,1,117.599996411133,2|0,0:0|0:0,0:0:0:0:
418,159,72664,1,2,1:2:0:0:
487,134,72812,2,0,B|477:106|477:106|519:-17,1,117.599996411133,8|0,0:0|0:0,0:0:0:0:
409,30,73108,6,0,P|357:92|375:270,2,235.199992822266,2|8|0,1:2|0:0|0:0,0:0:0:0:
461,213,73847,1,0,1:0:0:0:
444,286,73994,2,0,B|467:308|467:308|448:333,1,58.7999982055665,8|0,0:0|0:0,0:0:0:0:
512,369,74142,6,0,B|448:385|448:385|330:357|330:357|250:377,1,235.199992822266,0|0,1:0|1:0,0:0:0:0:
292,283,74586,2,0,B|250:274|250:274|269:176,2,117.599996411133,8|0|0,0:0|0:0|0:0,0:0:0:0:
357,245,75029,6,0,L|339:166,1,58.7999982055665,0|0,1:0|0:0,0:0:0:0:
475,32,75177,1,8,0:0:0:0:
56,26,75472,6,0,L|25:23,2,29.4,4|0|2,1:2|0:0|0:0,0:0:0:0:
116,94,76507,1,2,0:0:0:0:
116,94,76655,1,2,0:0:0:0:
116,94,76802,2,0,L|113:127,1,29.4,0|2,0:0|0:0,0:0:0:0:
50,211,77393,1,2,0:0:0:0:
50,211,77541,2,0,L|62:209,1,9.8,2|0,0:0|0:0,0:0:0:0:
431,323,77837,6,0,L|462:320,2,29.4,4|0|2,1:2|0:0|0:0,0:0:0:0:
351,374,78871,1,2,0:0:0:0:
351,374,79019,1,2,0:0:0:0:
351,374,79167,2,0,L|343:344,1,29.4,0|2,0:0|0:0,0:0:0:0:
494,61,79906,1,0,0:0:0:0:
394,85,80054,1,0,0:0:0:0:
394,85,80127,1,0,0:0:0:0:
394,85,80201,6,0,L|385:56,2,29.4,4|0|2,1:2|0:0|0:0,0:0:0:0:
304,23,81236,1,2,0:0:0:0:
304,23,81384,1,2,0:0:0:0:
304,23,81531,2,0,L|273:29,1,29.4,0|2,0:0|0:0,0:0:0:0:
214,85,82123,1,2,0:0:0:0:
214,85,82270,2,0,L|202:82,1,9.8,2|0,0:0|0:0,0:0:0:0:
42,306,82566,6,0,L|48:338,2,29.4,4|0|0,1:2|0:0|0:0,0:0:0:0:
74,239,83748,5,0,0:0:0:0:
88,241,83896,1,0,0:0:0:0:
151,322,84044,1,2,0:0:0:0:
186,315,84191,1,2,0:0:0:0:
254,210,84339,1,2,0:0:0:0:
383,376,84635,1,10,0:0:0:0:
460,349,84783,1,2,0:0:0:0:
493,278,84930,6,0,L|477:150,1,117.599996411133,2|10,1:2|0:2,0:0:0:0:
409,201,85522,2,0,L|403:242,2,29.3999991027832
341,162,85817,1,10,0:2:0:0:
475,12,86113,1,2,0:0:0:0:
341,162,86408,6,0,P|296:149|236:96,1,117.599996411133,8|0,0:0|0:0,0:0:0:0:
341,162,87000,1,8,0:0:0:0:
404,118,87296,2,0,L|412:52,2,58.7999982055665,0|0|8,0:0|0:0|0:0,0:0:0:0:
384,257,87739,1,0,0:0:0:0:
308,287,87887,2,0,L|315:228,1,58.7999982055665
270,167,88182,2,0,L|277:108,1,58.7999982055665,8|0,0:0|0:0,0:0:0:0:
210,273,88478,5,2,0:2:0:0:
140,285,88626,1,2,0:2:0:0:
70,298,88773,1,10,0:2:0:0:
140,294,88921,1,2,0:2:0:0:
210,288,89069,2,0,L|276:301,1,58.7999982055665,2|0,1:2|0:0,0:0:0:0:
342,321,89365,2,0,L|405:341,1,58.7999982055665,10|0,0:0|0:0,0:0:0:0:
483,377,89660,5,0,0:0:0:0:
483,377,89808,1,0,0:0:0:0:
483,377,89956,1,10,0:0:0:0:
400,383,90251,5,2,0:0:0:0:
323,376,90547,6,0,P|261:382|198:385,2,117.599996411133,8|0|8,0:0|0:0|0:0,0:0:0:0:
314,301,91434,2,0,P|284:302|255:305,1,58.7999982055665
446,293,91729,1,8,0:0:0:0:
446,293,91877,2,0,P|416:294|387:297,1,58.7999982055665
446,293,92320,5,8,0:0:0:0:
372,266,92616,1,2,0:0:0:0:
321,188,92764,1,2,0:0:0:0:
255,144,92911,1,10,0:2:0:0:
154,156,93059,1,2,0:0:0:0:
90,221,93207,6,0,B|122:214|131:165|70:70,1,156.8,2|10,1:2|0:0,0:0:0:0:
79,84,93798,1,0,0:0:0:0:
160,63,93946,1,0,0:0:0:0:
79,84,94094,2,0,P|42:60|10:47,1,78.4,10|0,0:2|0:0,0:0:0:0:
333,15,94389,6,0,B|251:-17|223:52|223:91|278:70,1,156.8,2|8,1:2|0:0,0:0:0:0:
260,74,94981,2,0,P|326:111|345:185,2,156.8,0|8|0,1:0|0:0|0:0,0:0:0:0:
174,92,95719,1,0,0:0:0:0:
22,79,95867,1,8,0:0:0:0:
51,148,96015,1,0,0:0:0:0:
81,216,96163,1,0,0:0:0:0:
81,216,96458,1,8,0:0:0:0:
242,242,96606,1,0,0:0:0:0:
190,180,96754,5,2,0:0:0:0:
206,269,96902,1,2,0:0:0:0:
176,171,97049,1,10,0:2:0:0:
241,274,97197,1,2,0:0:0:0:
270,70,97345,1,2,1:2:0:0:
316,370,97641,1,10,0:0:0:0:
316,370,97936,5,0,0:0:0:0:
392,353,98084,1,0,0:0:0:0:
316,370,98232,2,0,P|273:368|227:352,1,78.4,10|0,0:2|0:0,0:0:0:0:
497,340,98527,2,0,B|366:259|384:335|397:368,1,156.8,2|8,1:2|0:0,0:0:0:0:
55,343,99119,6,0,B|9:303|111:244|149:328,1,156.8,0|8,1:0|0:0,0:0:0:0:
144,318,99710,1,0,0:0:0:0:
189,254,99857,1,0,0:0:0:0:
213,349,100005,5,8,0:0:0:0:
121,217,100153,1,0,1:0:0:0:
164,154,100301,5,0,0:0:0:0:
107,102,100449,1,0,1:0:0:0:
195,4,100596,5,8,0:0:0:0:
343,21,100744,1,0,1:0:0:0:
213,349,100892,1,8,0:0:0:0:
486,93,101483,6,0,B|455:87|455:87|345:128|345:128|414:80,1,220.500008411408,6|0,1:2|0:0,0:0:0:0:
403,86,101779,2,0,B|390:157|390:157|439:50|439:50|431:9,1,220.500008411408,10|0,0:2|0:0,0:0:0:0:
355,31,102074,2,0,B|342:15|342:15|257:-6,2,73.5000028038026,2|0|0,0:2|0:0|0:0,0:0:0:0:
481,171,102370,5,10,0:2:0:0:
305,93,102518,2,0,B|289:94|289:94|198:121|198:121|168:94|168:94|62:125|62:125|59:165,2,294.00001121521,2|2|2,1:2|1:2|0:0,0:0:0:0:
356,152,103256,1,0,0:0:0:0:
278,195,103404,5,2,1:2:0:0:
458,330,103552,2,0,B|386:346|386:346|361:254,1,147.000005607605,10|0,0:2|0:0,0:0:0:0:
512,233,103848,6,0,L|420:257,1,73.5000028038026,2|0,1:2|0:0,0:0:0:0:
281,379,103995,2,0,B|299:380|299:380|312:368|312:368|232:357,1,73.5000028038026,2|0,0:2|0:0,0:0:0:0:
72,282,104143,6,0,B|44:284|44:284|-14:268,1,73.5000028038026,10|0,0:2|0:0,0:0:0:0:
204,347,104291,2,0,B|189:362|189:362|159:354|158:354|140:366,1,73.5000028038026,2|0,0:2|0:0,0:0:0:0:
278,195,104439,6,0,L|207:213,1,73.5000028038026,2|0,0:2|0:0,0:0:0:0:
366,275,104586,2,0,B|387:293|387:293|342:283,1,73.5000028038026,2|0,0:2|0:0,0:0:0:0:
269,275,104734,5,10,0:2:0:0:
502,138,104882,2,0,B|431:152|431:152|210:88,1,294.00001121521,2|2,1:2|1:2,0:0:0:0:
364,49,105325,1,10,0:2:0:0:
185,169,105473,2,0,P|116:129|169:101,2,147.000005607605,2|0|2,0:2|0:0|0:2,0:0:0:0:
228,61,105917,2,0,B|194:8|125:22|125:22|97:-11,1,147.000005607605,10|2,0:2|0:2,0:0:0:0:
28,191,106212,6,0,B|3:155|3:155|142:101|142:101|112:233,2,294.00001121521,2|10|2,1:2|0:2|0:2,0:0:0:0:
72,269,106951,1,0,0:0:0:0:
52,356,107099,1,10,0:2:0:0:
28,191,107247,2,0,P|36:292|116:196,1,294.00001121521,2|2,1:2|1:2,0:0:0:0:
203,287,107690,2,0,B|274:303|273:280|352:294,2,147.000005607605,8|2|0,0:0|0:0|0:0,0:0:0:0:
274,206,108133,1,2,1:2:0:0:
485,246,108281,2,0,P|479:309|429:249,1,147.000005607605,10|0,0:2|0:0,0:0:0:0:
462,161,108577,6,0,P|428:142|387:157,1,73.5000028038026,2|0,1:2|0:0,0:0:0:0:
316,21,108724,2,0,P|326:58|366:76,1,73.5000028038026,2|0,0:0|0:0,0:0:0:0:
0,239,108872,6,0,P|34:220|75:235,1,73.5000028038026,10|0,0:0|0:0,0:0:0:0:
163,121,109020,2,0,P|129:140|88:125,1,73.5000028038026,2|0,0:0|0:0,0:0:0:0:
260,127,109168,6,0,P|249:89|209:71,1,73.5000028038026,2|0,0:0|0:0,0:0:0:0:
113,251,109316,1,2,0:0:0:0:
212,283,109463,1,10,0:0:0:0:
131,357,109611,2,0,B|159:313|159:313|343:252|343:252|332:222|364:176,1,294.00001121521,2|2,1:2|1:2,0:0:0:0:
438,342,110054,1,10,0:2:0:0:
455,140,110202,2,0,B|463:174|463:174|416:239|416:239|422:274,2,147.000005607605,2|0|2,0:2|0:0|0:2,0:0:0:0:
362,35,110646,5,10,0:2:0:0:
362,35,110793,1,2,0:2:0:0:
455,140,110941,6,0,B|470:173|470:173|432:29|432:29|430:69,1,220.500008411408,2|0,1:2|0:0,0:0:0:0:
296,143,111237,2,0,B|286:179|286:179|377:114,1,147.000005607605,10|0,0:0|0:0,0:0:0:0:
362,35,111532,1,2,0:0:0:0:
287,248,111680,1,0,1:0:0:0:
12,59,111828,5,10,0:0:0:0:
74,2,111976,2,0,L|17:302,2,294.00001121521,2|2|2,1:2|1:2|0:0,0:0:0:0:
151,11,112715,1,0,0:0:0:0:
211,194,112862,1,2,1:2:0:0:
94,354,113010,2,0,B|56:367|56:367|157:295,1,147.000005607605,10|0,0:2|0:0,0:0:0:0:
420,317,113306,6,0,B|255:260|255:260|295:238,1,220.500008411408,2|0,1:2|0:0,0:0:0:0:
369,215,113601,2,0,B|337:154|396:154|346:59,1,147.000005607605,10|0,0:2|0:0,0:0:0:0:
308,8,113897,1,2,0:0:0:0:
83,168,114045,1,0,1:0:0:0:
437,176,114192,5,10,0:2:0:0:
174,97,114340,2,0,P|327:97|453:198,1,294.00001121521,2|2,1:2|1:2,0:0:0:0:
512,87,114784,1,8,0:0:0:0:
428,366,114931,2,0,B|417:405|347:316|425:253,1,147.000005607605,2|0,0:0|0:0,0:0:0:0:
326,244,115227,1,2,1:2:0:0:
410,97,115375,2,0,B|429:99|429:99|366:113|356:177|356:177|342:122,1,147.000005607605,10|0,0:2|0:0,0:0:0:0:
437,176,115670,6,0,B|384:82|244:54|160:135|283:229,2,294.00001121521,2|10|2,1:2|0:2|0:0,0:0:0:0:
197,251,116409,1,0,1:0:0:0:
33,6,116557,5,10,0:2:0:0:
10,91,116705,2,0,B|57:206|116:243|131:178|101:41,1,294.00001121521,2|2,1:2|1:2,0:0:0:0:
186,12,117148,1,8,0:0:0:0:
186,12,117296,2,0,P|139:96|156:183,1,147.000005607605,2|0,0:0|0:0,0:0:0:0:
225,163,117591,1,2,1:2:0:0:
321,14,117739,2,0,P|301:79|234:73,1,147.000005607605,10|0,0:2|0:0,0:0:0:0:
457,292,118035,6,0,P|370:252|366:126,1,220.500008411408,2|0,1:2|0:0,0:0:0:0:
435,129,118330,2,0,B|460:134|460:134|493:17,1,147.000005607605,10|0,0:2|0:0,0:0:0:0:
389,66,118626,1,2,0:0:0:0:
484,202,118774,1,0,1:0:0:0:
244,224,118921,5,10,0:2:0:0:
250,356,119069,2,0,P|308:276|504:201,1,294.00001121521,2|0,1:2|1:0,0:0:0:0:
461,279,119513,1,10,0:0:0:0:
350,231,119660,1,2,0:0:0:0:
162,324,119808,1,2,0:0:0:0:
88,291,119956,1,2,1:2:0:0:
232,123,120104,5,10,0:2:0:0:
96,368,120252,1,2,0:0:0:0:
0,319,120399,6,0,B|29:308|93:419|33:330|26:282|26:282|-43:203|154:138|164:216|172:223|189:270|282:227|282:227|342:185|342:185|456:163|456:163|518:209|518:209|496:180|493:143,1,784,6|0,1:2|0:0,0:0:0:0:
507,106,121138,1,0,1:0:0:0:
394,282,121286,2,0,B|445:273|445:273|416:248,1,73.5000028038026,10|0,0:2|0:0,0:0:0:0:
364,376,121434,2,0,B|360:363|360:363|305:326,1,73.5000028038026,2|0,1:2|0:0,0:0:0:0:
442,178,121582,5,2,0:0:0:0:
442,178,121655,1,0,0:0:0:0:
442,178,121729,1,0,1:0:0:0:
339,11,121877,1,8,0:0:0:0:
444,59,122025,2,0,B|340:97|360:65|232:104,1,196,2|0,0:0|0:0,0:0:0:0:
177,117,122320,1,0,1:0:0:0:
331,208,122468,6,0,P|276:215|234:227,1,73.5000028038026,8|0,0:0|0:0,0:0:0:0:
106,249,122616,2,0,P|57:255|10:268,1,73.5000028038026
259,220,122764,2,0,P|220:328|107:246,1,294,2|0,1:2|0:0,0:0:0:0:
144,185,123059,5,10,0:2:0:0:
144,185,123133,1,0,0:0:0:0:
144,185,123207,2,0,P|110:143|83:89,1,98
386,90,123355,6,0,P|348:51|393:27,1,98
251,124,123503,6,0,P|213:85|224:32,1,98,0|0,1:0|0:0,0:0:0:0:
502,90,123651,6,0,P|477:57|514:78,1,98,8|0,0:0|0:0,0:0:0:0:
341,279,123798,6,0,B|400:396|639:161|340:55|264:203|309:243,1,392,0|0,1:0|1:0,0:0:0:0:
235,358,124242,1,8,0:0:0:0:
235,358,124316,1,0,0:0:0:0:
235,358,124389,1,2,0:0:0:0:
220,282,124537,1,2,0:0:0:0:
273,228,124685,1,2,1:2:0:0:
247,154,124833,1,10,0:2:0:0:
246,263,124981,1,2,0:0:0:0:
258,373,125128,6,0,B|297:367|297:367|343:274|343:274|333:238|333:238|124:155|124:155|113:124|113:124|159:19|159:19|200:7,1,588.000022430421,6|0,1:2|0:0,0:0:0:0:
244,67,125867,1,0,1:0:0:0:
410,247,126015,2,0,L|307:258,1,98,10|0,0:0|0:0,0:0:0:0:
512,146,126163,2,0,B|447:165|447:165|283:181|283:181|224:199,1,294.00001121521,0|0,1:0|1:0,0:0:0:0:
0,197,126606,1,8,0:0:0:0:
153,233,126754,2,0,P|109:308|69:228,2,196,2|0|0,0:0|0:0|1:0,0:0:0:0:
0,350,127197,6,0,P|128:319|396:287,1,392,8|2,0:0|1:2,0:0:0:0:
485,311,127641,1,0,0:0:0:0:
485,189,127788,6,0,P|451:171|387:163,1,73.5000028038026,10|0,0:2|0:0,0:0:0:0:
485,311,127936,2,0,P|446:310|385:332,1,73.5000028038026
333,352,128084,6,0,P|299:370|235:378,1,73.5000028038026
344,152,128232,2,0,P|305:152|244:130,1,73.5000028038026,0|0,1:0|0:0,0:0:0:0:
415,240,128380,5,8,0:0:0:0:
335,245,128527,2,0,P|163:253|18:265,1,294.00001121521,0|0,1:0|1:0,0:0:0:0:
18,185,128971,5,8,0:0:0:0:
114,157,129118,1,2,0:0:0:0:
114,157,129192,1,0,0:0:0:0:
114,157,129266,1,2,0:0:0:0:
143,82,129414,1,2,1:2:0:0:
261,47,129562,1,10,0:2:0:0:
507,169,129710,1,10,0:2:0:0:
417,206,129857,6,0,B|468:10|506:10|506:10|522:36|394:232|211:268|211:268|307:195|286:136,1,784,6|0,1:2|0:0,0:0:0:0:
218,97,130596,1,0,1:0:0:0:
346,92,130744,2,0,P|323:63|288:65,1,73.5000028038026,10|0,0:0|0:0,0:0:0:0:
188,194,130892,6,0,P|323:245|417:357,1,294.00001121521,0|0,1:0|1:0,0:0:0:0:
289,384,131335,1,8,0:0:0:0:
468,224,131483,2,0,B|507:280|355:310|381:224,1,147.000005607605,2|0,0:0|0:0,0:0:0:0:
289,384,131779,6,0,P|276:353|290:304,1,73.5000028038026,0|0,1:0|0:0,0:0:0:0:
74,285,131926,2,0,P|83:252|126:224,1,73.5000028038026,8|0,0:0|0:0,0:0:0:0:
180,272,132074,2,0,P|170:304|127:332,1,73.5000028038026
0,380,132222,6,0,B|146:351|138:167|-35:195|4:282,1,294,2|0,1:2|0:0,0:0:0:0:
0,380,132518,6,0,P|20:365|52:367,1,49,10|0,0:2|0:0,0:0:0:0:
140,374,132665,6,0,P|163:366|193:379,1,58.7999982055665
312,348,132813,6,0,P|341:349|369:376,1,68.5999979064942
507,384,132961,6,0,P|487:350|452:334,1,78.4,0|0,1:0|0:0,0:0:0:0:
464,255,133109,6,0,L|353:283,1,78.4,8|0,0:0|0:0,0:0:0:0:
260,261,133256,6,0,B|200:128|79:394|113:81|-40:197,1,294.00001121521,0|0,1:0|1:0,0:0:0:0:
97,114,133700,1,8,0:0:0:0:
1,363,133848,2,0,B|44:332|44:332|-5:176|120:99,1,294.00001121521,2|2,0:0|1:2,0:0:0:0:
138,25,134291,5,10,0:2:0:0:
251,304,134439,1,10,0:2:0:0:
512,106,134586,6,0,B|461:50|318:66|312:139|324:232|526:310|593:104|631:16|590:-41|438:-61|481:1|396:-6|284:129|446:201|188:143,1,784,6|0,1:2|0:0,0:0:0:0:
165,97,135325,1,0,1:0:0:0:
354,229,135473,2,0,P|372:247|361:223,1,73.5000028038026,10|0,0:0|0:0,0:0:0:0:
285,66,135621,6,0,B|255:151|143:280|25:78|116:89,1,294.00001121521,0|0,1:0|1:0,0:0:0:0:
123,26,136064,1,8,0:0:0:0:
199,215,136212,2,0,P|214:146|164:96,1,147.000005607605,2|0,0:0|0:0,0:0:0:0:
11,101,136508,6,0,P|13:64|34:35,1,73.5000028038026,0|0,1:0|0:0,0:0:0:0:
0,204,136655,2,0,P|24:177|60:168,1,73.5000028038026,8|0,0:0|0:0,0:0:0:0:
130,203,136803,2,0,P|166:199|199:215,1,73.5000028038026
238,282,136951,5,2,1:2:0:0:
315,340,137099,5,8,0:0:0:0:
418,323,137247,5,2,0:0:0:0:
469,209,137394,5,0,1:0:0:0:
394,70,137542,5,8,0:0:0:0:
190,30,137690,5,0,0:0:0:0:
131,85,137838,5,0,1:0:0:0:
190,30,137985,2,0,B|170:156|170:156|161:174|161:174|141:317,1,220.500008411408,8|0,0:0|0:0,0:0:0:0:
144,322,138281,1,2,1:2:0:0:
224,283,138429,1,10,0:2:0:0:
224,283,138577,1,2,1:2:0:0:
12,199,138724,1,10,0:2:0:0:
12,199,138872,1,2,1:2:0:0:
327,19,139020,1,10,0:2:0:0:
327,19,139168,1,2,1:2:0:0:
8,0,139316,38,0,B|218:98|494:9|494:9|179:131|4:372|4:372|248:202|512:362,1,1646.39994975586,4|0,1:2|0:0,0:0:0:0:
