osu file format v14

[General]
AudioFilename: audio.mp3
AudioLeadIn: 0
PreviewTime: 84930
Countdown: 0
SampleSet: Soft
StackLeniency: 0.7
Mode: 0
LetterboxInBreaks: 0
WidescreenStoryboard: 1

[Editor]
Bookmarks: 3223,128127
DistanceSpacing: 1
BeatDivisor: 4
GridSize: 16
TimelineZoom: 3.199999

[Metadata]
Title:Atlas
TitleUnicode:Atlas
Artist:Good Kid
ArtistUnicode:Good Kid
Creator:wafer
Version:Syodou's Normal
Source:
Tags:english indie rock fa featured artist goopert kami no kotoba renumi baku shiny braixen bakugo- -magic- syodou ghost kings king's revenge ost videogame video game sound track
BeatmapID:3706842
BeatmapSetID:1750346

[Difficulty]
HPDrainRate:3.8
CircleSize:3.4
OverallDifficulty:4.5
ApproachRate:5.2
SliderMultiplier:1.02
SliderTickRate:1

[Events]
//Background and Video events
0,0,"katerina-kerdi--YiJvbfNDqk-unsplash.jpg",0,0
//Break Periods
2,52173,57726
//Storyboard Layer 0 (Background)
//Storyboard Layer 1 (Fail)
//Storyboard Layer 2 (Pass)
//Storyboard Layer 3 (Foreground)
//Storyboard Layer 4 (Overlay)
//Storyboard Sound Samples

[TimingPoints]
1781,288.461538461539,6,2,0,60,1,0
3223,-100,6,2,0,60,0,0
3511,-100,6,2,0,70,0,0
10434,-100,6,2,0,50,0,0
24281,-100,6,2,0,60,0,0
38127,-90.9090909090909,6,2,0,80,0,1
51973,-100,6,2,0,80,0,0
58896,-100,6,2,0,50,0,0
72742,-100,6,2,0,60,0,0
86588,-90.9090909090909,6,2,0,80,0,1
100434,-108.695652173913,6,2,0,50,0,0
113848,-108.695652173913,6,2,0,10,0,0
113866,-108.695652173913,6,2,1,40,0,0
114281,-90.9090909090909,6,2,0,80,0,1
128127,-90.9090909090909,6,2,0,70,0,1
140242,-100,6,2,0,70,0,0

[Colours]
Combo1 : 207,169,167
Combo2 : 255,174,136
Combo3 : 155,189,251
Combo4 : 217,214,157

[HitObjects]
507,370,3223,5,8,1:0:0:0:
434,298,3511,2,0,P|384:288|349:323,1,102,6|10,1:0|0:2,0:0:0:0:
320,362,3944,2,0,P|275:373|239:330,1,102,4|6,3:0|3:0,0:0:0:0:
169,261,4521,2,0,P|180:192|185:159,1,102,2|2,2:0|1:0,0:0:0:0:
192,109,4954,1,10,0:0:0:0:
118,38,5242,6,0,P|65:25|29:86,1,102,2|10,1:0|1:2,0:0:0:0:
12,100,5675,2,0,P|38:144|55:200,1,102,4|6,3:0|3:0,0:0:0:0:
126,263,6252,2,0,P|186:274|218:236,1,102,2|2,2:0|1:2,0:0:0:0:
240,206,6684,1,10,0:0:0:0:
307,129,6973,6,0,P|372:124|395:159,1,102,6|10,1:0|1:2,0:0:0:0:
420,190,7406,2,0,P|396:250|388:291,1,102,4|6,3:0|3:0,0:0:0:0:
315,356,7982,2,0,P|261:367|231:333,1,102,2|2,2:0|1:0,0:0:0:0:
212,288,8415,1,10,0:0:0:0:
110,273,8704,6,0,P|73:231|87:188,1,102,2|10,1:0|1:2,0:0:0:0:
122,157,9136,2,0,P|191:165|232:174,1,102,4|6,3:0|3:0,0:0:0:0:
295,243,9713,2,0,P|360:252|387:227,1,102,2|2,2:0|1:0,0:0:0:0:
420,194,10146,2,0,L|406:142,1,51,8|8,0:0|0:0,0:0:0:0:
444,110,10434,6,0,P|469:56|440:19,1,102,4|8,1:0|0:0,0:0:0:0:
405,8,10867,1,2,3:3:0:0:
405,8,11011,2,0,P|339:17|298:32,1,102,2|8,0:0|0:0,0:0:0:0:
214,74,11588,2,0,P|183:62|150:59,1,51,2|0,0:0|1:0,0:0:0:0:
117,76,11877,1,10,0:0:0:0:
43,146,12165,2,0,P|21:208|56:248,1,102,6|8,3:0|0:0,0:0:0:0:
78,265,12598,2,0,P|135:252|185:245,1,102,4|4,3:0|3:0,0:0:0:0:
225,263,13031,1,10,0:0:0:0:
323,289,13319,2,0,P|318:313|313:348,2,51,4|4|10,3:0|3:0|0:0,0:0:0:0:
411,235,13896,6,0,P|435:185|403:142,1,102,2|8,1:2|0:0,0:0:0:0:
386,111,14329,1,4,3:3:0:0:
386,111,14473,2,0,P|327:117|258:136,1,102,0|8,1:3|0:0,0:0:0:0:
225,209,15050,2,0,P|158:192|118:185,1,102,2|10,0:0|0:0,0:0:0:0:
37,133,15627,2,0,P|18:83|49:44,1,102,6|8,3:0|0:0,0:0:0:0:
82,13,16059,2,0,P|148:17|187:32,1,102,4|4,3:0|3:0,0:0:0:0:
210,71,16492,1,10,0:0:0:0:
281,143,16781,2,0,L|302:77,2,51,4|4|10,3:0|3:0|0:0,0:0:0:0:
313,240,17357,6,0,P|375:252|408:218,1,102,4|8,1:0|0:0,0:0:0:0:
442,197,17790,1,2,3:3:0:0:
442,197,17934,2,0,P|434:145|416:89,1,102,2|8,0:0|0:0,0:0:0:0:
345,27,18511,2,0,P|292:24|258:64,1,102,2|8,0:0|0:0,0:0:0:0:
223,152,19088,2,0,P|244:213|253:256,1,102,4|8,3:0|0:0,0:0:0:0:
260,300,19521,2,0,P|209:336|171:324,1,102,4|4,3:0|3:0,0:0:0:0:
131,298,19954,1,10,0:0:0:0:
61,223,20242,2,0,P|26:229|-5:238,2,51,4|4|10,3:0|3:0|0:0,0:0:0:0:
119,140,20819,5,2,1:2:0:0:
119,140,20963,2,0,P|174:149|208:106,1,102,2|4,0:0|3:3,0:0:0:0:
276,46,21540,1,6,3:0:0:0:
377,57,21829,2,0,P|353:122|340:165,1,102,2|4,0:0|3:0,0:0:0:0:
373,194,22261,1,10,0:0:0:0:
303,268,22550,2,0,P|250:252|211:290,1,102,6|8,3:0|0:0,0:0:0:0:
192,323,22982,2,0,P|134:360|99:340,1,102,4|4,3:0|3:0,0:0:0:0:
71,314,23415,1,10,0:0:0:0:
12,230,23704,2,0,P|6:191|16:172,1,51,4|4,3:0|3:0,0:0:0:0:
30,134,23992,1,10,0:0:0:0:
101,61,24281,6,0,L|219:79,1,102,4|8,1:0|0:0,0:0:0:0:
250,105,24713,1,2,3:3:0:0:
250,105,24857,2,0,P|275:166|250:215,1,102,2|10,0:0|0:0,0:0:0:0:
192,269,25434,2,0,P|167:271|135:282,2,51,2|0|10,0:0|1:0|0:0,0:0:0:0:
266,339,26011,2,0,P|314:329|385:321,1,102,6|8,3:0|0:0,0:0:0:0:
421,318,26444,1,4,3:0:0:0:
421,318,26588,2,0,P|432:257|408:223,1,102,2|10,3:0|0:0,0:0:0:0:
377,188,27021,1,2,0:0:0:0:
295,248,27309,1,6,3:0:0:0:
208,193,27598,1,2,0:0:0:0:
208,193,27742,6,0,L|226:85,1,102,2|10,1:2|0:0,0:0:0:0:
204,50,28175,1,6,3:3:0:0:
204,50,28319,2,0,P|139:29|105:53,1,102,2|10,1:2|0:2,0:0:0:0:
40,114,28896,1,2,0:0:0:0:
108,189,29184,1,10,0:0:0:0:
38,264,29473,2,0,P|23:318|55:354,1,102,6|8,3:0|0:0,0:0:0:0:
100,375,29906,1,4,3:0:0:0:
100,375,30050,2,0,L|208:353,1,102,2|10,3:0|0:0,0:0:0:0:
276,285,30627,2,0,P|323:307|370:286,1,102,2|10,0:0|0:0,0:0:0:0:
402,253,31059,1,0,0:0:0:0:
439,216,31204,6,0,L|425:110,1,102,4|8,1:0|0:0,0:0:0:0:
389,78,31636,1,2,3:3:0:0:
389,78,31781,2,0,P|325:71|293:110,1,102,2|10,0:0|0:0,0:0:0:0:
218,155,32357,2,0,P|206:179|205:215,2,51,2|0|10,0:0|1:0|0:0,0:0:0:0:
170,64,32934,2,0,P|124:28|80:40,1,102,6|8,3:0|0:0,0:0:0:0:
49,72,33367,1,4,3:0:0:0:
49,72,33511,2,0,P|54:142|67:205,1,102,2|10,3:0|0:0,0:0:0:0:
90,214,33944,1,2,0:0:0:0:
36,300,34232,1,6,3:0:0:0:
125,359,34521,1,2,0:0:0:0:
125,359,34665,6,0,P|189:326|237:343,1,102,2|10,1:2|0:0,0:0:0:0:
266,355,35098,1,6,3:3:0:0:
266,355,35242,2,0,P|353:371|373:349,1,102,2|10,1:2|0:2,0:0:0:0:
428,296,35819,2,0,L|481:311,2,51,2|0|14,0:0|1:0|0:0,0:0:0:0:
397,198,36396,6,0,L|288:210,1,102,4|10,1:0|0:0,0:0:0:0:
223,136,36973,1,2,3:0:0:0:
150,208,37261,1,6,1:3:0:0:
77,135,37550,2,0,P|68:113|80:83,1,51,10|6,0:0|3:0,0:0:0:0:
111,51,37838,2,0,P|132:42|162:54,1,51,10|10,1:2|1:2,0:0:0:0:
205,80,38127,6,0,L|175:209,1,112.200003424072,6|8,1:2|0:0,0:0:0:0:
219,228,38559,2,0,P|277:251|323:224,1,112.200003424072,2|6,1:2|3:0,0:0:0:0:
358,189,38992,1,8,0:0:0:0:
460,143,39281,2,0,P|474:109|460:83,1,56.1000017120362,0|4,1:0|3:0,0:0:0:0:
428,52,39569,1,10,0:0:0:0:
324,9,39857,2,0,P|241:8|216:37,1,112.200003424072,2|8,1:2|0:0,0:0:0:0:
193,71,40290,2,0,P|217:148|226:190,1,112.200003424072,2|6,1:2|3:0,0:0:0:0:
248,229,40723,1,8,0:0:0:0:
187,323,41011,2,0,P|153:340|130:337,1,56.1000017120362,4|4,3:0|3:0,0:0:0:0:
86,310,41300,1,10,0:0:0:0:
6,231,41588,6,0,P|-6:168|32:126,1,112.200003424072,6|8,1:2|0:0,0:0:0:0:
60,92,42021,2,0,P|119:79|168:124,1,112.200003424072,2|4,1:2|3:0,0:0:0:0:
194,150,42454,1,10,3:2:0:0:
249,247,42742,2,0,P|286:256|324:237,1,56.1000017120362,6|4,3:0|3:0,0:0:0:0:
351,222,43031,1,10,3:2:0:0:
444,160,43319,6,0,P|466:93|435:48,1,112.200003424072,2|8,1:2|0:0,0:0:0:0:
401,29,43752,2,0,P|347:17|309:59,1,112.200003424072,2|4,1:2|3:0,0:0:0:0:
291,106,44184,1,10,3:2:0:0:
224,196,44473,2,0,P|219:223|241:265,1,56.1000017120362,6|4,3:0|3:0,0:0:0:0:
268,287,44761,1,10,3:2:0:0:
165,332,45050,6,0,P|109:340|73:292,1,112.200003424072,6|8,1:2|0:0,0:0:0:0:
33,263,45482,2,0,P|52:189|65:152,1,112.200003424072,2|6,1:2|3:0,0:0:0:0:
40,104,45915,1,8,0:0:0:0:
125,30,46204,2,0,P|172:24|192:35,1,56.1000017120362,4|4,3:0|3:0,0:0:0:0:
221,64,46492,1,10,0:0:0:0:
300,143,46781,2,0,P|376:128|428:125,1,112.200003424072,2|8,1:2|0:0,0:0:0:0:
450,164,47213,2,0,P|481:224|461:270,1,112.200003424072,2|6,1:2|3:0,0:0:0:0:
427,302,47646,1,8,0:0:0:0:
326,351,47934,2,0,P|280:352|258:336,1,56.1000017120362,4|4,3:0|3:0,0:0:0:0:
232,300,48223,2,0,P|200:295|167:315,1,56.1000017120362,10|0,0:0|0:0,0:0:0:0:
139,343,48511,6,8,P|73:353|42:317,1,112.200003424072,6|8,1:2|0:0,0:0:0:0:
24,271,48944,2,0,P|37:211|43:160,1,112.200003424072,2|4,1:2|3:0,0:0:0:0:
58,106,49377,1,10,3:2:0:0:
134,24,49665,2,0,P|178:20|205:36,1,56.1000017120362,6|4,3:0|3:0,0:0:0:0:
231,60,49954,1,10,3:2:0:0:
267,166,50242,6,0,P|236:238|224:287,1,112.200003424072,2|8,1:2|0:0,0:0:0:0:
260,315,50675,2,0,P|319:342|361:317,1,112.200003424072,2|4,1:2|3:0,0:0:0:0:
399,285,51107,1,10,3:2:0:0:
484,211,51396,2,0,L|472:147,1,56.1000017120362,6|4,3:0|3:0,0:0:0:0:
504,109,51684,2,0,P|513:65|499:45,1,56.1000017120362,10|8,0:0|0:0,0:0:0:0:
471,22,51973,1,4,1:0:0:0:
50,236,58896,6,0,P|54:168|65:114,1,102,4|8,1:0|0:0,0:0:0:0:
96,98,59329,1,2,3:3:0:0:
96,98,59473,2,0,P|170:88|201:121,1,102,2|8,0:0|0:0,0:0:0:0:
260,173,60050,2,0,L|246:235,2,51,2|0|10,0:0|1:0|0:0,0:0:0:0:
316,87,60627,2,0,P|367:56|410:70,1,102,6|8,3:0|0:0,0:0:0:0:
450,98,61059,1,4,3:0:0:0:
450,98,61204,2,0,L|428:214,1,102,2|10,3:0|0:0,0:0:0:0:
421,248,61636,1,6,3:0:0:0:
485,327,61925,1,4,3:0:0:0:
393,367,62213,1,2,0:0:0:0:
393,367,62357,6,0,P|319:372|294:329,1,102,2|8,1:2|0:0,0:0:0:0:
271,324,62790,1,6,3:0:0:0:
271,324,62934,2,0,P|277:264|285:220,1,102,2|8,0:0|0:0,0:0:0:0:
212,150,63511,1,2,0:0:0:0:
284,77,63800,1,10,0:0:0:0:
211,4,64088,6,0,P|141:5|114:46,1,102,6|8,3:0|0:0,0:0:0:0:
97,69,64521,2,0,L|119:182,1,102,4|4,3:0|3:0,0:0:0:0:
128,218,64954,1,10,0:0:0:0:
200,290,65242,2,0,P|258:271|300:302,1,102,4|10,3:0|0:0,0:0:0:0:
375,347,65819,6,0,P|445:344|464:319,1,102,2|8,1:2|0:0,0:0:0:0:
483,278,66252,1,2,3:3:0:0:
483,278,66396,2,0,L|468:169,1,102,2|8,0:0|0:0,0:0:0:0:
420,86,66973,2,0,P|428:56|440:30,2,51,2|0|10,0:0|1:0|0:0,0:0:0:0:
347,158,67550,2,0,P|288:172|248:135,1,102,6|8,3:0|0:0,0:0:0:0:
233,105,67982,1,4,3:0:0:0:
233,105,68127,2,0,P|171:78|130:106,1,102,2|10,3:0|0:0,0:0:0:0:
107,126,68559,1,6,3:0:0:0:
34,198,68848,1,4,3:0:0:0:
81,293,69136,1,2,0:0:0:0:
81,293,69281,6,0,L|198:282,1,102,2|8,1:2|0:0,0:0:0:0:
218,247,69713,1,6,3:0:0:0:
218,247,69857,2,0,P|242:189|216:148,1,102,2|10,0:0|0:0,0:0:0:0:
154,84,70434,2,0,P|126:84|80:97,2,51,2|0|8,0:0|1:0|0:0,0:0:0:0:
237,24,71011,6,0,P|280:28|346:36,1,102,6|8,3:0|0:0,0:0:0:0:
374,71,71444,2,0,P|399:117|377:168,1,102,4|4,3:0|3:0,0:0:0:0:
347,197,71877,1,10,0:0:0:0:
411,275,72165,2,0,L|468:259,2,51,4|4|14,3:0|3:0|0:0,0:0:0:0:
333,341,72742,6,0,P|285:308|232:316,1,102,4|10,1:0|0:0,0:0:0:0:
200,339,73175,1,2,3:3:0:0:
200,339,73319,2,0,P|126:367|99:349,1,102,2|10,0:0|0:0,0:0:0:0:
75,323,73752,1,2,0:0:0:0:
147,250,74040,1,0,1:0:0:0:
72,188,74329,1,2,0:0:0:0:
72,188,74473,6,0,P|55:115|41:82,1,102,2|10,1:2|0:0,0:0:0:0:
80,54,74906,1,4,3:0:0:0:
80,54,75050,2,0,P|136:19|179:31,1,102,2|10,3:0|0:0,0:0:0:0:
204,61,75482,1,2,0:0:0:0:
276,133,75771,1,6,3:0:0:0:
348,60,76059,1,2,0:0:0:0:
348,60,76204,6,0,P|429:54|451:83,1,102,0|10,1:0|0:0,0:0:0:0:
471,96,76636,1,2,3:3:0:0:
471,96,76781,2,0,L|453:208,1,102,2|10,0:0|0:0,0:0:0:0:
446,247,77213,1,2,0:0:0:0:
373,319,77502,1,0,1:0:0:0:
287,263,77790,6,0,P|230:268|177:280,1,102,2|2,0:0|0:0,0:0:0:0:
150,313,78223,1,8,0:0:0:0:
72,246,78511,2,0,P|48:237|22:220,2,51,2|4|10,3:0|3:0|0:0,0:0:0:0:
150,180,79088,2,0,P|139:126|124:69,1,102,2|10,3:0|0:0,0:0:0:0:
155,37,79521,1,6,3:0:0:0:
199,8,79665,6,0,P|274:13|296:58,1,102,2|10,1:2|0:0,0:0:0:0:
311,75,80098,1,2,3:3:0:0:
311,75,80242,2,0,L|293:195,1,102,2|10,0:0|0:0,0:0:0:0:
259,212,80675,1,2,0:0:0:0:
209,301,80963,1,0,1:0:0:0:
300,356,81252,1,2,0:0:0:0:
300,356,81396,6,0,L|407:342,1,102,2|10,1:2|0:0,0:0:0:0:
437,306,81829,1,4,3:0:0:0:
437,306,81973,2,0,P|468:245|436:204,1,102,2|10,3:0|0:0,0:0:0:0:
419,183,82406,1,2,0:0:0:0:
334,239,82694,1,6,3:0:0:0:
261,166,82982,1,2,0:0:0:0:
261,166,83127,6,0,L|277:56,1,102,2|8,1:2|0:0,0:0:0:0:
245,35,83559,1,2,3:3:0:0:
245,35,83704,2,0,P|188:17|154:48,1,102,2|10,0:0|0:0,0:0:0:0:
122,76,84136,1,2,0:0:0:0:
49,148,84425,1,0,1:0:0:0:
121,220,84713,6,0,P|187:204|230:195,1,102,2|2,0:0|0:0,0:0:0:0:
269,210,85146,1,10,0:2:0:0:
359,163,85434,1,2,0:2:0:0:
430,236,85723,1,10,0:2:0:0:
378,323,86011,1,6,3:3:0:0:
276,311,86300,2,0,P|234:315|212:330,1,51,14|10,0:2|0:2,0:0:0:0:
187,358,86588,6,0,P|100:351|78:312,1,112.200003424072,6|8,1:2|0:0,0:0:0:0:
48,297,87021,2,0,P|72:217|81:167,1,112.200003424072,2|6,1:2|3:0,0:0:0:0:
51,138,87454,1,8,0:0:0:0:
130,58,87742,2,0,P|168:38|198:41,1,56.1000017120362,0|4,1:0|3:0,0:0:0:0:
228,67,88031,1,10,0:0:0:0:
273,169,88319,2,0,L|246:285,1,112.200003424072,2|8,1:2|0:0,0:0:0:0:
269,330,88752,2,0,P|353:366|382:348,1,112.200003424072,2|6,1:2|3:0,0:0:0:0:
409,327,89184,1,8,0:0:0:0:
488,247,89473,2,0,P|497:193|488:177,1,56.1000017120362,4|4,3:0|3:0,0:0:0:0:
466,147,89761,1,10,0:0:0:0:
386,67,90050,6,0,P|329:60|288:109,1,112.200003424072,6|8,1:2|0:0,0:0:0:0:
266,145,90482,2,0,P|214:180|174:160,1,112.200003424072,2|4,1:2|3:0,0:0:0:0:
131,124,90915,1,10,3:2:0:0:
41,56,91204,2,0,P|50:25|60:-5,2,56.1000017120362,6|4|10,3:0|3:0|3:2,0:0:0:0:
15,165,91781,6,0,P|38:216|55:275,1,112.200003424072,2|8,1:2|0:0,0:0:0:0:
84,317,92213,2,0,P|146:330|189:290,1,112.200003424072,2|4,1:2|3:0,0:0:0:0:
209,253,92646,1,10,3:2:0:0:
288,173,92934,2,0,P|319:183|341:196,2,56.1000017120362,6|4|10,3:0|3:0|3:2,0:0:0:0:
208,93,93511,6,0,L|319:64,1,112.200003424072,6|8,1:2|0:0,0:0:0:0:
354,23,93944,2,0,P|434:15|465:55,1,112.200003424072,2|6,1:2|3:0,0:0:0:0:
493,72,94377,1,8,0:0:0:0:
503,183,94665,2,0,P|494:214|488:246,1,56.1000017120362,4|4,3:0|3:0,0:0:0:0:
473,291,94954,1,10,0:0:0:0:
383,358,95242,2,0,P|317:371|277:332,1,112.200003424072,2|8,1:2|0:0,0:0:0:0:
244,306,95675,2,0,L|271:193,1,112.200003424072,2|6,1:2|3:0,0:0:0:0:
285,143,96107,1,8,0:0:0:0:
201,67,96396,2,0,P|166:51|128:60,1,56.1000017120362,4|4,3:0|3:0,0:0:0:0:
99,77,96684,2,0,P|79:103|88:141,1,56.1000017120362,10|0,0:0|0:0,0:0:0:0:
73,181,96973,6,0,P|137:165|188:156,1,112.200003424072,6|8,1:2|0:0,0:0:0:0:
227,190,97406,2,0,P|281:212|335:179,1,112.200003424072,2|4,1:2|3:0,0:0:0:0:
358,144,97838,1,10,3:2:0:0:
441,68,98127,2,0,P|433:43|424:9,2,56.1000017120362,6|4|10,3:0|3:0|3:2,0:0:0:0:
505,161,98704,6,0,P|488:215|475:274,1,112.200003424072,2|8,1:2|0:0,0:0:0:0:
436,308,99136,2,0,P|375:336|335:306,1,112.200003424072,2|4,1:2|3:0,0:0:0:0:
301,275,99569,1,10,3:2:0:0:
195,312,99857,2,0,P|160:310|135:328,1,56.1000017120362,6|4,3:0|3:0,0:0:0:0:
106,363,100146,1,14,3:2:0:0:
39,296,100434,6,0,P|20:215|-14:151,2,140.75999527478,4|8|0,1:0|0:0|0:0,0:0:0:0:
116,242,101588,2,0,P|139:182|163:146,1,93.8399968498536,4|2,3:0|1:0,0:0:0:0:
221,90,102165,6,0,P|172:33|98:45,2,140.75999527478,0|8|0,1:0|0:0|0:0,0:0:0:0:
287,156,103319,2,0,P|343:158|368:118,1,93.8399968498536,4|2,3:0|1:0,0:0:0:0:
429,200,103896,6,0,P|462:129|499:75,2,140.75999527478,0|8|0,1:0|0:0|0:0,0:0:0:0:
362,266,105050,2,0,P|343:213|310:175,1,93.8399968498536,4|2,3:0|1:0,0:0:0:0:
230,214,105627,6,0,B|144:226|197:265|106:276,2,140.75999527478,0|8|0,1:0|0:0|0:0,0:0:0:0:
295,146,106781,1,4,3:0:0:0:
366,206,107069,1,2,1:0:0:0:
442,151,107357,6,0,P|461:97|440:60,1,93.8399968498536,2|2,1:2|0:0,0:0:0:0:
408,38,107790,2,0,P|354:41|310:49,1,93.8399968498536,10|2,0:0|1:2,0:0:0:0:
248,114,108367,2,0,L|264:179,2,46.9199984249268,2|2|2,0:0|1:2|0:0,0:0:0:0:
214,80,108800,1,2,1:2:0:0:
130,37,109088,6,0,P|71:43|43:85,1,93.8399968498536,2|2,1:2|0:0,0:0:0:0:
33,111,109521,2,0,L|59:207,1,93.8399968498536,10|2,0:0|1:2,0:0:0:0:
124,268,110098,2,0,L|110:319,2,46.9199984249268,2|2|2,0:0|1:2|0:0,0:0:0:0:
157,234,110531,1,6,3:0:0:0:
220,302,110819,6,0,P|270:293|310:322,1,93.8399968498536,2|2,1:2|0:0,0:0:0:0:
336,349,111252,2,0,P|388:367|419:343,1,93.8399968498536,10|2,0:0|1:2,0:0:0:0:
482,280,111829,1,2,0:0:0:0:
482,280,111973,2,0,P|492:244|485:221,2,46.9199984249268,2|2|2,1:2|0:0|1:2,0:0:0:0:
397,239,112550,1,14,0:0:0:0:
397,239,114281,6,0,P|331:244|293:291,1,112.200003424072,6|8,1:2|0:0,0:0:0:0:
260,314,114713,2,0,P|191:354|162:343,1,112.200003424072,2|6,1:2|3:0,0:0:0:0:
126,305,115146,1,8,0:0:0:0:
46,225,115434,2,0,P|32:189|43:160,1,56.1000017120362,0|4,1:0|3:0,0:0:0:0:
57,121,115723,1,10,0:0:0:0:
136,41,116011,2,0,P|209:23|239:55,1,112.200003424072,2|8,1:2|0:0,0:0:0:0:
272,82,116444,2,0,P|254:158|243:209,1,112.200003424072,2|6,1:2|3:0,0:0:0:0:
230,245,116877,1,8,0:0:0:0:
309,324,117165,2,0,P|352:333|370:325,1,56.1000017120362,4|4,3:0|3:0,0:0:0:0:
402,289,117454,1,10,0:0:0:0:
481,209,117742,6,0,P|507:138|483:106,1,112.200003424072,6|8,1:2|0:0,0:0:0:0:
450,72,118175,2,0,P|379:46|347:70,1,112.200003424072,2|4,1:2|3:0,0:0:0:0:
313,101,118607,1,10,3:2:0:0:
233,180,118896,2,0,P|195:191|169:178,1,56.1000017120362,6|4,3:0|3:0,0:0:0:0:
140,146,119184,1,10,3:2:0:0:
39,96,119473,6,0,P|68:183|76:218,1,112.200003424072,2|8,1:2|0:0,0:0:0:0:
32,242,119906,2,0,P|14:304|43:341,1,112.200003424072,2|4,1:2|3:0,0:0:0:0:
88,366,120338,1,10,3:2:0:0:
167,286,120627,2,0,P|220:291|235:306,1,56.1000017120362,6|4,3:0|3:0,0:0:0:0:
260,331,120915,1,10,3:2:0:0:
370,309,121204,6,0,P|437:295|447:248,1,112.200003424072,6|8,1:2|0:0,0:0:0:0:
491,224,121636,2,0,P|441:215|352:205,1,112.200003424072,2|6,1:2|3:0,0:0:0:0:
324,197,122069,1,8,0:0:0:0:
215,168,122357,2,0,P|205:137|215:106,1,56.1000017120362,4|4,3:0|3:0,0:0:0:0:
247,73,122646,1,10,0:0:0:0:
348,26,122934,2,0,P|421:15|459:54,1,112.200003424072,2|8,1:2|0:0,0:0:0:0:
487,76,123367,2,0,P|469:159|462:211,1,112.200003424072,2|6,1:2|3:0,0:0:0:0:
453,241,123800,1,8,0:0:0:0:
373,320,124088,2,0,P|328:325|306:309,1,56.1000017120362,4|4,3:0|3:0,0:0:0:0:
279,281,124377,2,0,P|247:272|223:291,1,56.1000017120362,10|0,0:0|0:0,0:0:0:0:
189,322,124665,6,0,P|115:356|83:338,1,112.200003424072,6|8,1:2|0:0,0:0:0:0:
52,306,125098,2,0,P|22:253|58:197,1,112.200003424072,2|4,1:2|3:0,0:0:0:0:
80,169,125531,1,10,3:2:0:0:
159,89,125819,2,0,P|134:26|131:22,2,56.1000017120362,6|4|14,3:0|3:0|3:2,0:0:0:0:
238,168,126396,6,0,P|217:225|205:293,1,112.200003424072,6|8,1:2|0:0,0:0:0:0:
249,316,126829,2,0,P|306:346|354:326,1,112.200003424072,2|4,1:2|3:0,0:0:0:0:
387,291,127261,1,10,3:2:0:0:
466,211,127550,1,6,3:0:0:0:
387,131,127838,2,0,P|349:133|330:115,1,56.1000017120362,10|8,0:0|0:0,0:0:0:0:
299,80,128127,6,0,P|241:86|211:147,1,112.200003424072,6|10,1:2|0:0,0:0:0:0:
215,183,128559,2,0,P|241:242|256:292,1,112.200003424072,2|4,1:2|3:0,0:0:0:0:
221,332,128992,1,8,0:0:0:0:
221,332,129136,2,0,P|141:355|95:285,1,168.300005136109,2|10,0:0|0:0,0:0:0:0:
8,223,129857,6,0,P|20:170|38:114,1,112.200003424072,2|10,1:2|0:0,0:0:0:0:
71,70,130290,2,0,P|146:66|172:97,1,112.200003424072,6|0,3:0|1:0,3:0:0:0:
194,138,130723,1,8,0:0:0:0:
293,197,131011,2,0,P|346:194|360:177,1,56.1000017120362,2|0,0:0|1:0,0:0:0:0:
383,151,131300,1,8,0:0:0:0:
483,199,131588,6,0,P|466:281|455:342,1,112.200003424072,6|10,1:2|0:0,0:0:0:0:
422,350,132021,2,0,P|368:367|320:328,1,112.200003424072,6|6,3:0|3:0,3:0:0:0:
245,258,132598,1,2,0:0:0:0:
245,258,132742,2,0,L|268:134,1,112.200003424072,2|10,0:0|0:0,0:0:0:0:
185,68,133319,6,0,P|123:54|86:88,1,112.200003424072,6|10,1:2|0:0,0:0:0:0:
52,125,133752,2,0,P|69:200|75:242,1,112.200003424072,6|6,3:0|3:0,3:0:0:0:
84,289,134184,1,8,0:0:0:0:
172,358,134473,2,0,P|217:356|236:340,1,56.1000017120362,0|0,1:0|1:0,0:0:0:0:
264,311,134761,1,8,0:0:0:0:
368,352,135050,6,0,P|442:359|469:324,1,112.200003424072,6|8,1:0|0:0,0:0:0:0:
493,287,135482,2,0,P|483:216|468:171,1,112.200003424072,2|4,1:0|3:0,0:0:0:0:
430,137,135915,1,8,0:0:0:0:
430,137,136059,2,0,P|355:124|323:221,1,168.300005136109,2|10,0:0|0:0,0:0:0:0:
222,259,136781,6,0,P|175:304|130:295,1,112.200003424072,2|10,1:2|0:0,0:0:0:0:
93,257,137213,2,0,P|30:238|15:195,1,112.200003424072,6|0,3:0|1:0,3:0:0:0:
61,96,137790,1,2,0:0:0:0:
61,96,137934,2,0,P|130:113|178:120,1,112.200003424072,2|8,0:0|0:0,0:0:0:0:
250,39,138511,6,0,P|317:20|354:40,1,112.200003424072,6|10,1:2|0:0,0:0:0:0:
374,89,138944,2,0,P|357:158|348:220,1,112.200003424072,6|6,3:0|3:0,3:0:0:0:
429,278,139521,1,2,0:0:0:0:
429,278,139665,2,0,P|358:292|327:330,1,112.200003424072,2|8,0:0|0:0,0:0:0:0:
233,345,140242,6,0,P|179:351|143:319,1,102,6|10,1:2|0:0,0:0:0:0:
108,285,140675,1,6,3:0:0:0:
180,212,140963,1,6,3:0:0:0:
89,165,141252,2,0,L|14:183,2,51,2|2|2,1:1|1:1|1:1,0:0:0:0:
125,128,141684,1,2,1:1:0:0:
