osu file format v14

[General]
AudioFilename: audio.mp3
AudioLeadIn: 0
PreviewTime: 84930
Countdown: 0
SampleSet: Soft
StackLeniency: 0.3
Mode: 0
LetterboxInBreaks: 0
WidescreenStoryboard: 1

[Editor]
DistanceSpacing: 1.5
BeatDivisor: 4
GridSize: 16
TimelineZoom: 3.199999

[Metadata]
Title:Atlas
TitleUnicode:Atlas
Artist:Good Kid
ArtistUnicode:Good Kid
Creator:wafer
Version:Shiny Braixen's Expert
Source:
Tags:english indie rock fa featured artist goopert kami no kotoba renumi baku shiny braixen bakugo- -magic- syodou ghost kings king's revenge ost videogame video game sound track
BeatmapID:3701686
BeatmapSetID:1750346

[Difficulty]
HPDrainRate:5
CircleSize:4
OverallDifficulty:8.5
ApproachRate:9.3
SliderMultiplier:2
SliderTickRate:1

[Events]
//Background and Video events
0,0,"katerina-kerdi--YiJvbfNDqk-unsplash.jpg",0,0
//Break Periods
2,52173,54880
2,55634,57909
//Storyboard Layer 0 (Background)
//Storyboard Layer 1 (Fail)
//Storyboard Layer 2 (Pass)
//Storyboard Layer 3 (Foreground)
//Storyboard Layer 4 (Overlay)
//Storyboard Sound Samples

[TimingPoints]
1781,288.461538461539,6,2,0,60,1,0
3511,-250,6,2,0,70,0,0
3944,-83.3333333333333,6,2,0,70,0,0
4954,-100,6,2,0,70,0,0
5242,-333.333333333333,6,2,0,70,0,0
5675,-83.3333333333333,6,2,0,70,0,0
6684,-90.9090909090909,6,2,0,70,0,0
6973,-333.333333333333,6,2,0,70,0,0
7406,-83.3333333333333,6,2,0,70,0,0
7982,-100,6,2,0,70,0,0
8704,-333.333333333333,6,2,0,70,0,0
9136,-83.3333333333333,6,2,0,70,0,0
10434,-142.857142857143,6,2,0,50,0,0
19088,-200,6,2,0,50,0,0
19377,-142.857142857143,6,2,0,50,0,0
24281,-90.909090909091,6,2,0,60,0,0
24713,-111.111111111111,6,2,0,60,0,0
25867,-90.9090909090908,6,2,0,60,0,0
27021,-100,6,2,0,60,0,0
27598,-90.9090909090909,6,2,0,60,0,0
28752,-100,6,2,0,60,0,0
29329,-90.9090909090909,6,2,0,60,0,0
30482,-111.111111111111,6,2,0,60,0,0
31059,-90.9090909090908,6,2,0,60,0,0
32213,-100,6,2,0,60,0,0
32790,-90.9090909090909,6,2,0,60,0,0
33944,-100,6,2,0,60,0,0
34521,-90.9090909090909,6,2,0,60,0,0
36252,-62.5,6,2,0,60,0,0
38127,-76.9230769230769,6,2,0,80,0,0
38271,-66.6666666666667,6,2,0,80,0,0
38559,-83.3333333333333,6,2,0,80,0,0
39569,-66.6666666666667,6,2,0,80,0,0
39857,-83.3333333333333,6,2,0,80,0,0
40290,-66.6666666666667,6,2,0,80,0,0
41011,-55.5555555555556,6,2,0,80,0,0
41588,-76.9230769230769,6,2,0,80,0,0
42021,-90.9090909090909,6,2,0,80,0,0
42454,-62.5,6,2,0,80,0,0
42742,-76.9230769230769,6,2,0,80,0,0
43031,-100,6,2,0,80,0,0
43319,-76.9230769230769,6,2,0,80,0,0
43752,-90.9090909090909,6,2,0,80,0,0
44184,-71.4285714285714,6,2,0,80,0,0
45050,-76.9230769230769,6,2,0,80,0,0
45194,-66.6666666666667,6,2,0,80,0,0
45482,-83.3333333333333,6,2,0,80,0,0
46492,-66.6666666666667,6,2,0,80,0,0
46781,-83.3333333333333,6,2,0,80,0,0
47213,-66.6666666666667,6,2,0,80,0,0
47934,-55.5555555555556,6,2,0,80,0,0
48511,-76.9230769230769,6,2,0,80,0,0
48944,-90.9090909090909,6,2,0,80,0,0
49377,-62.5,6,2,0,80,0,0
49665,-76.9230769230769,6,2,0,80,0,0
49954,-100,6,2,0,80,0,0
50242,-76.9230769230769,6,2,0,80,0,0
50675,-90.9090909090909,6,2,0,80,0,0
51107,-71.4285714285714,6,2,0,80,0,0
58896,-142.857142857143,6,2,0,50,0,0
72742,-83.3333333333333,6,2,0,60,0,0
73319,-100,6,2,0,60,0,0
73752,-111.111111111111,6,2,0,60,0,0
74329,-83.3333333333333,6,2,0,60,0,0
75050,-100,6,2,0,60,0,0
75482,-111.111111111111,6,2,0,60,0,0
76059,-83.3333333333333,6,2,0,60,0,0
76781,-100,6,2,0,60,0,0
77213,-111.111111111111,6,2,0,60,0,0
77790,-83.3333333333333,6,2,0,60,0,0
78223,-100,6,2,0,60,0,0
78944,-111.111111111111,6,2,0,60,0,0
79521,-83.3333333333333,6,2,0,60,0,0
80242,-99.9999999999999,6,2,0,60,0,0
80675,-111.111111111111,6,2,0,60,0,0
81252,-83.3333333333333,6,2,0,60,0,0
81973,-100,6,2,0,60,0,0
82406,-111.111111111111,6,2,0,60,0,0
82982,-83.3333333333333,6,2,0,60,0,0
83704,-100,6,2,0,60,0,0
84136,-111.111111111111,6,2,0,60,0,0
84713,-62.5,6,2,0,60,0,0
85146,-71.4285714285714,6,2,0,60,0,0
85290,-68.9655172413793,6,2,0,60,0,0
85434,-66.6666666666667,6,2,0,60,0,0
86011,-58.8235294117647,6,2,0,60,0,0
86588,-76.9230769230769,6,2,0,80,0,0
86732,-66.6666666666667,6,2,0,80,0,0
87021,-83.3333333333333,6,2,0,80,0,0
88031,-66.6666666666667,6,2,0,80,0,0
88319,-83.3333333333333,6,2,0,80,0,0
88752,-66.6666666666667,6,2,0,80,0,0
89473,-55.5555555555556,6,2,0,80,0,0
90050,-76.9230769230769,6,2,0,80,0,0
90482,-90.9090909090909,6,2,0,80,0,0
90915,-62.5,6,2,0,80,0,0
91203,-76.9230769230769,6,2,0,80,0,0
91492,-100,6,2,0,80,0,0
91781,-76.9230769230769,6,2,0,80,0,0
92213,-100,6,2,0,80,0,0
92646,-71.4285714285714,6,2,0,80,0,0
93511,-76.9230769230769,6,2,0,80,0,0
93656,-66.6666666666667,6,2,0,80,0,0
93944,-83.3333333333333,6,2,0,80,0,0
94954,-66.6666666666667,6,2,0,80,0,0
95242,-83.3333333333333,6,2,0,80,0,0
95675,-66.6666666666667,6,2,0,80,0,0
96396,-55.5555555555556,6,2,0,80,0,0
96973,-76.9230769230769,6,2,0,80,0,0
97406,-90.9090909090909,6,2,0,80,0,0
97838,-62.5,6,2,0,80,0,0
98126,-76.9230769230769,6,2,0,80,0,0
98415,-100,6,2,0,80,0,0
98704,-76.9230769230769,6,2,0,80,0,0
99136,-100,6,2,0,80,0,0
100434,-1000,6,2,0,50,0,0
107357,-166.666666666667,6,2,0,50,0,0
108800,-1000,6,2,0,50,0,0
109088,-166.666666666667,6,2,0,50,0,0
110531,-1000,6,2,0,50,0,0
110819,-166.666666666667,6,2,0,50,0,0
112550,-1000,6,2,0,50,0,0
112838,-1000,6,2,0,5,0,0
113848,-71.4285714285714,6,2,0,10,0,0
113866,-71.4285714285714,6,2,1,40,0,0
113920,-142.857142857143,6,2,1,40,0,0
114208,-71.4285714285714,6,2,0,5,0,0
114281,-76.9230769230769,6,2,0,80,0,0
114425,-66.6666666666667,6,2,0,80,0,0
114713,-83.3333333333333,6,2,0,80,0,0
115723,-66.6666666666667,6,2,0,80,0,0
116156,-83.3333333333333,6,2,0,80,0,0
116444,-66.6666666666667,6,2,0,80,0,0
117165,-55.5555555555556,6,2,0,80,0,0
117742,-76.9230769230769,6,2,0,80,0,0
118175,-90.9090909090909,6,2,0,80,0,0
118607,-62.5,6,2,0,80,0,0
118895,-76.9230769230769,6,2,0,80,0,0
119184,-100,6,2,0,80,0,0
119473,-76.9230769230769,6,2,0,80,0,0
119906,-100,6,2,0,80,0,0
120338,-71.4285714285714,6,2,0,80,0,0
121204,-76.9230769230769,6,2,0,80,0,0
121348,-66.6666666666667,6,2,0,80,0,0
121636,-83.3333333333333,6,2,0,80,0,0
122646,-66.6666666666667,6,2,0,80,0,0
122934,-83.3333333333333,6,2,0,80,0,0
123367,-66.6666666666667,6,2,0,80,0,0
124088,-55.5555555555556,6,2,0,80,0,0
124665,-76.9230769230769,6,2,0,80,0,0
125098,-90.9090909090909,6,2,0,80,0,0
125531,-62.5,6,2,0,80,0,0
125819,-76.9230769230769,6,2,0,80,0,0
126107,-100,6,2,0,80,0,0
126396,-76.9230769230769,6,2,0,80,0,0
126829,-90.9090909090909,6,2,0,80,0,0
127261,-76.9230769230769,6,2,0,80,0,0
127838,-90.9090909090909,6,2,0,80,0,0
128127,-83.3333333333333,6,2,0,70,0,0
128559,-71.4285714285714,6,2,0,70,0,0
129569,-83.3333333333333,6,2,0,70,0,0
129857,-71.4285714285714,6,2,0,70,0,0
130290,-83.3333333333333,6,2,0,70,0,0
131300,-66.6666666666667,6,2,0,70,0,0
131588,-83.3333333333333,6,2,0,70,0,0
132021,-71.4285714285714,6,2,0,70,0,0
133031,-66.6666666666667,6,2,0,70,0,0
133319,-71.4285714285714,6,2,0,70,0,0
135050,-62.5,6,2,0,70,0,0
135482,-71.4285714285714,6,2,0,70,0,0
136492,-83.3333333333333,6,2,0,70,0,0
136781,-90.9090909090909,6,2,0,70,0,0
137213,-83.3333333333333,6,2,0,70,0,0
137790,-71.4285714285714,6,2,0,70,0,0
138511,-90.9090909090909,6,2,0,70,0,0
139521,-71.4285714285714,6,2,0,70,0,0
140242,-58.8235294117647,6,2,0,70,0,0
140675,-90.9090909090909,6,2,0,70,0,0
141684,-66.6666666666667,6,2,0,70,0,0
141973,-66.6666666666667,6,2,0,23,0,0

[Colours]
Combo1 : 207,169,167
Combo2 : 255,174,136
Combo3 : 155,189,251
Combo4 : 217,214,157

[HitObjects]
403,30,3223,5,8,1:0:0:0:
343,263,3367,1,8,1:0:0:0:
289,101,3511,6,0,B|324:95|324:95|355:113,1,60,6|0,1:0|0:0,0:0:0:0:
346,108,3800,1,10,0:2:0:0:
126,28,3944,2,0,B|97:29|97:29|57:202,1,179.999994506836,4|0,3:0|0:0,0:0:0:0:
66,180,4232,2,0,P|47:211|122:229,1,119.999996337891,6|10,3:0|2:0,0:0:0:0:
343,263,4521,6,0,B|323:207|258:186|258:186|225:213|189:213,1,179.999994506836,2|0,2:0|0:0,0:0:0:0:
203,211,4809,1,2,1:0:0:0:
351,342,4954,2,0,B|406:332|406:332|410:283|472:267,1,150,10|0,0:0|0:0,0:0:0:0:
508,190,5242,6,0,P|495:171|467:173,1,44.999998626709,2|0,1:0|0:0,0:0:0:0:
474,169,5531,1,10,1:2:0:0:
332,38,5675,2,0,B|394:-6|394:-6|445:90,1,179.999994506836,4|0,3:0|0:0,0:0:0:0:
445,88,5963,2,0,B|368:123|368:123|297:105,1,119.999996337891,6|10,3:0|2:0,0:0:0:0:
172,1,6252,6,0,B|143:10|143:10|116:89|116:89|37:144,1,179.999994506836,2|0,2:0|0:0,0:0:0:0:
62,127,6540,1,2,1:2:0:0:
148,227,6684,2,0,B|93:284|93:284|56:253|8:255,1,165.000005035401,10|0,0:0|0:0,0:0:0:0:
87,359,6973,6,0,B|114:360|114:360|135:346,1,44.999998626709,6|0,1:0|0:0,0:0:0:0:
128,350,7261,1,10,1:2:0:0:
258,114,7406,2,0,B|231:130|220:186|220:186|234:224|234:224|231:269|213:279,1,179.999994506836,4|0,3:0|0:0,0:0:0:0:
220,278,7694,2,0,B|258:331|258:331|310:300,1,119.999996337891,6|10,3:0|2:0,0:0:0:0:
416,50,7982,6,0,B|365:45|326:92|326:92|337:134|306:178,1,150,2|0,2:0|0:0,0:0:0:0:
325,138,8271,1,2,1:0:0:0:
508,287,8415,2,0,B|490:335|490:335|441:348|441:348|377:389,1,150,10|0,0:0|0:0,0:0:0:0:
305,302,8704,6,0,B|336:318|336:318|336:341,1,44.999998626709,2|0,1:0|0:0,0:0:0:0:
336,327,8992,1,10,1:2:0:0:
128,350,9136,2,0,B|108:314|108:314|108:261|108:261|81:219|81:219|89:174,1,179.999994506836,4|0,3:0|0:0,0:0:0:0:
90,186,9425,2,0,B|85:123|85:123|29:86,1,119.999996337891,6|10,3:0|2:0,0:0:0:0:
305,302,9713,2,0,B|363:244|363:244|457:201,1,179.999994506836,2|0,2:0|0:0,0:0:0:0:
452,203,10002,1,2,1:0:0:0:
189,300,10146,5,8,0:0:0:0:
189,300,10290,2,0,P|192:276|216:231,1,59.9999981689454,8|0,0:0|0:0,0:0:0:0:
244,170,10434,6,0,B|220:153|272:85|396:56|323:1|295:62|277:88,1,209.999993591309,4|2,1:0|3:3,0:0:0:0:
189,300,11011,2,0,L|260:273,2,69.9999978637696,2|0|8,0:0|1:0|0:0,0:0:0:0:
49,364,11588,1,2,0:0:0:0:
49,364,11732,1,0,1:0:0:0:
49,364,11877,1,10,0:0:0:0:
346,368,12165,6,0,B|365:341|365:341|430:298|430:298|445:264,1,139.999995727539,6|8,3:0|0:0,0:0:0:0:
452,152,12598,2,0,B|505:134|505:134|511:154,2,69.9999978637696,4|2|4,3:0|3:0|3:0,0:0:0:0:
395,202,13031,1,10,0:0:0:0:
395,202,13175,2,0,B|349:234|349:234|274:194,1,139.999995727539,0|4,0:0|3:0,0:0:0:0:
293,61,13607,2,0,P|291:21|307:48,1,104.999996795654,10|2,0:0|0:0,0:0:0:0:
308,50,13896,6,0,B|272:93|341:138|230:114|274:107|270:114|182:118|224:165|155:208,1,209.999993591309,2|4,1:2|3:3,0:0:0:0:
0,56,14473,2,0,P|7:19|38:-2,2,69.9999978637696,0|6|8,1:3|3:0|0:0,0:0:0:0:
14,287,15050,1,2,0:0:0:0:
14,287,15194,1,0,1:0:0:0:
14,287,15338,1,10,0:0:0:0:
237,361,15555,5,0,0:0:0:0:
237,361,15627,2,0,B|276:371|304:330|323:294|393:293|464:313|345:316|328:340,1,209.999993591309,6|4,3:0|3:0,0:0:0:0:
153,308,16204,2,0,B|107:320|107:320|88:351,2,69.9999978637696,2|4|10,3:0|3:0|0:0,0:0:0:0:
475,273,16781,1,4,3:0:0:0:
475,273,16925,1,4,3:0:0:0:
475,273,17069,2,0,B|454:251|452:229|452:229|435:211,1,69.9999978637696,10|2,0:0|0:0,0:0:0:0:
430,208,17285,1,2,0:0:0:0:
430,208,17357,6,0,B|405:168|375:168|342:173|308:151|306:128|323:183|434:141,1,209.999993591309,4|2,1:0|3:3,0:0:0:0:
251,234,17934,2,0,B|232:206|199:201|189:211|189:211,2,69.9999978637696,2|0|8,0:0|1:0|0:0,0:0:0:0:
347,9,18511,1,2,0:0:0:0:
347,9,18656,1,0,0:0:0:0:
347,9,18800,1,8,0:0:0:0:
4,33,19088,6,0,B|-1:77|-1:77|10:106|10:106|2:150,1,100,4|8,3:0|0:0,0:0:0:0:
45,219,19521,1,4,3:0:0:0:
45,219,19665,6,0,B|35:269|35:269|17:291,2,69.9999978637696,2|4|10,3:0|3:0|0:0,0:0:0:0:
232,6,20242,1,4,3:0:0:0:
232,6,20386,1,4,3:0:0:0:
232,6,20531,1,10,0:0:0:0:
189,246,20747,5,2,0:0:0:0:
189,246,20819,2,0,B|172:255|168:280|130:283|144:338|124:433|79:373|133:325|93:298,1,209.999993591309,2|4,1:2|3:3,0:0:0:0:
331,209,21396,2,0,B|348:207|364:231|384:257,2,69.9999978637696,0|6|8,1:3|3:0|0:0,0:0:0:0:
45,219,21973,1,4,3:0:0:0:
45,219,22117,1,4,3:0:0:0:
45,219,22261,1,10,0:0:0:0:
294,144,22478,1,0,0:0:0:0:
294,144,22550,6,0,B|319:138|370:114|348:76|375:44|384:69|426:37|453:77|446:11|388:50,1,209.999993591309,6|4,3:0|3:0,0:0:0:0:
172,81,23127,2,0,P|152:100|126:140,2,69.9999978637696,2|4|10,3:0|3:0|0:0,0:0:0:0:
431,137,23704,1,4,3:0:0:0:
431,137,23848,1,4,3:0:0:0:
431,137,23992,1,10,0:0:0:0:
484,216,24136,5,2,0:0:0:0:
484,216,24208,1,2,0:0:0:0:
484,216,24281,2,0,B|426:232|426:232|367:195|367:195|312:209|312:209|269:190,1,220.000006713867,4|8,1:0|0:0,0:0:0:0:
82,139,24713,2,0,B|29:126|29:126|10:96,2,89.9999972534181,2|2|0,3:3|0:0|1:0,0:0:0:0:
193,193,25146,1,10,0:0:0:0:
183,13,25290,6,0,B|222:15|241:63|241:63|240:80|250:92,1,89.9999972534181,2|2,0:0|0:0,0:0:0:0:
68,351,25579,2,0,B|34:330|40:279|40:279|49:265|45:249,1,89.9999972534181,0|10,1:0|0:0,0:0:0:0:
43,271,25795,1,0,0:0:0:0:
50,277,25867,6,0,B|84:223|158:225|158:225|162:206|222:195,1,165.000005035401,2|0,0:0|0:0,0:0:0:0:
221,269,26156,2,0,B|282:302|282:302|327:254|328:254,2,110.000003356934,2|8|4,0:0|0:0|3:0,0:0:0:0:
330,68,26588,1,2,3:0:0:0:
330,68,26732,1,4,3:0:0:0:
463,265,26877,5,10,0:0:0:0:
359,340,27021,2,0,B|351:326|330:334|330:334|335:297|290:248,1,100,2|4,0:0|3:0,0:0:0:0:
140,136,27309,2,0,B|148:151|170:140|170:140|164:182|215:235,1,100,6|8,3:0|0:0,0:0:0:0:
188,202,27526,1,0,0:0:0:0:
195,209,27598,6,0,B|179:260|129:324|92:233|58:286,1,165.000005035401,2|0,0:0|0:0,0:0:0:0:
5,227,27886,2,0,B|0:177|0:177|39:109,2,110.000003356934,2|10|6,0:0|0:0|3:3,0:0:0:0:
119,364,28319,1,2,1:2:0:0:
119,364,28463,1,6,3:0:0:0:
311,238,28607,5,10,0:2:0:0:
311,238,28752,2,0,B|287:301|287:301|312:350,1,100,0|2,0:2|0:0,0:0:0:0:
396,252,29040,2,0,B|380:186|380:186|333:158,1,100,0|10,1:0|0:0,0:0:0:0:
302,58,29329,6,0,B|341:29|341:29|424:26|424:26|437:-1|468:-16,1,165.000005035401,2|0,0:0|0:0,0:0:0:0:
487,163,29617,2,0,B|455:114|455:114|395:110,2,110.000003356934,2|8|4,0:0|0:0|3:0,0:0:0:0:
272,160,30050,1,2,3:0:0:0:
272,160,30194,1,4,3:0:0:0:
493,171,30338,1,10,0:0:0:0:
396,252,30482,6,0,B|375:311|375:311|378:376,1,89.9999972534181,2|4,0:0|3:0,0:0:0:0:
264,71,30771,2,0,B|262:133|262:133|285:194,1,89.9999972534181,4|10,3:0|0:0,0:0:0:0:
9,19,31059,6,0,B|39:50|39:50|67:136|67:136|114:180,1,165.000005035401,2|0,0:0|0:0,0:0:0:0:
135,99,31348,2,0,B|168:40|168:40|156:-12,2,110.000003356934,2|8|2,0:0|0:0|3:3,0:0:0:0:
68,271,31781,1,2,0:0:0:0:
68,271,31925,1,0,1:0:0:0:
137,103,32069,5,10,0:0:0:0:
176,181,32213,2,0,B|251:171|251:171|305:138,1,100,2|2,0:0|0:0,0:0:0:0:
343,30,32502,2,0,B|394:85|394:85|414:145,1,100,0|10,1:0|0:0,0:0:0:0:
464,260,32790,6,0,B|403:238|395:185|395:185|355:180|340:145,1,165.000005035401,2|0,0:0|0:0,0:0:0:0:
339,248,33079,2,0,P|317:296|323:353,2,110.000003356934,2|8|4,0:0|0:0|3:0,0:0:0:0:
477,183,33511,1,2,3:0:0:0:
477,183,33656,1,4,3:0:0:0:
230,252,33800,5,10,0:0:0:0:
176,181,33944,2,0,B|143:170|134:133|134:133|148:105|138:72,1,100,2|4,0:0|3:0,0:0:0:0:
227,0,34232,2,0,B|251:23|243:61|243:61|218:80|212:114,1,100,6|8,3:0|0:0,0:0:0:0:
126,248,34521,6,0,B|75:221|60:166|60:166|38:176|-4:175,1,165.000005035401,2|0,0:0|0:0,0:0:0:0:
17,257,34809,2,0,B|32:286|32:286|30:306|30:306|34:334|55:362,2,110.000003356934,2|10|6,0:0|0:0|3:3,0:0:0:0:
38,83,35242,1,2,1:2:0:0:
38,83,35386,1,6,3:0:0:0:
149,322,35531,5,10,0:2:0:0:
126,248,35675,2,0,B|148:226|148:226|199:223|257:232,1,110.000003356934,0|2,0:2|0:0,0:0:0:0:
275,348,35963,1,0,1:0:0:0:
440,230,36107,6,0,P|440:252|404:246,1,55.0000016784668,14|0,0:0|0:0,0:0:0:0:
355,209,36252,6,0,B|316:55|316:55|370:187,1,240,2|0,0:0|0:0,0:0:0:0:
346,130,36540,1,2,0:0:0:0:
346,130,36684,1,10,0:0:0:0:
346,130,36829,1,6,3:0:0:0:
138,108,36973,5,2,3:0:0:0:
132,119,37117,1,6,3:0:0:0:
127,128,37261,1,6,1:3:0:0:
122,137,37406,1,2,0:0:0:0:
438,155,37550,5,10,0:0:0:0:
460,181,37694,1,6,3:0:0:0:
59,179,37838,5,10,1:2:0:0:
30,257,37982,1,10,1:2:0:0:
485,257,38127,6,0,B|479:282|479:282|428:306,1,64.9999970245363,6|0,1:2|0:0,0:0:0:0:
390,348,38271,2,0,B|368:326|367:300|367:300|286:244|292:228|292:228|254:168,1,225.000008583069,2|0,0:0|0:0,0:0:0:0:
224,54,38559,6,0,B|265:36|295:56|295:56|305:90|325:97,1,119.999996337891,2|0,1:2|0:0,0:0:0:0:
215,245,38848,2,0,B|187:280|151:277|151:277|126:252|104:255,1,119.999996337891,6|0,3:0|0:0,0:0:0:0:
43,153,39136,1,2,0:0:0:0:
43,153,39208,1,2,0:0:0:0:
43,153,39281,5,4,3:0:0:0:
114,356,39425,1,4,3:0:0:0:
67,74,39569,2,0,B|96:91|96:91|128:140|128:140|177:130|214:157,1,150.000005722046,10|0,0:0|0:0,0:0:0:0:
318,94,39857,5,2,1:2:0:0:
494,241,40002,2,0,B|437:309|371:212,1,119.999996337891,2|8,0:0|0:0,0:0:0:0:
318,94,40290,6,0,B|332:22|427:-1|427:-1|455:39|431:81,1,225.000008583069,2|0,1:2|0:0,0:0:0:0:
314,86,40579,2,0,B|328:14|423:-9|423:-9|451:31|427:73,1,225.000008583069,6|0,3:0|0:0,0:0:0:0:
429,54,40867,1,2,0:0:0:0:
392,239,41011,2,0,B|348:257|348:257|318:280|318:280|207:272,2,179.999994506836,4|4|10,3:0|3:0|0:0,0:0:0:0:
224,146,41444,1,2,0:0:0:0:
224,146,41516,1,2,0:0:0:0:
224,146,41588,6,0,B|170:88|165:70|165:70|171:22,1,129.999994049073,6|0,1:2|0:0,0:0:0:0:
169,36,41877,1,8,0:0:0:0:
33,183,42021,2,0,B|46:247|42:262|42:262|17:294,1,110.000003356934,2|0,1:2|0:0,0:0:0:0:
23,285,42309,1,4,3:0:0:0:
269,351,42454,6,0,B|179:357|179:357|84:299,1,160,10|0,3:2|0:0,0:0:0:0:
313,237,42742,2,0,B|264:277|264:277|185:281,1,129.999994049073,6|4,3:0|3:0,0:0:0:0:
286,120,43031,2,0,B|273:170|273:170|224:212,1,100,10|0,3:2|0:0,0:0:0:0:
453,365,43319,6,0,B|412:304|411:304|411:304|427:274|439:240|439:240|432:188|397:151|397:151|417:120,1,259.999988098145,2|8,1:2|0:0,0:0:0:0:
143,39,43752,2,0,B|172:23|203:41|204:42|204:42|218:17|247:-6,1,110.000003356934,2|0,1:2|0:0,0:0:0:0:
232,6,44040,1,4,3:0:0:0:
237,201,44184,6,0,B|221:186|192:189|192:189|123:151|68:63|68:63|70:30|44:0,2,279.999991455078,10|6|10,3:2|3:0|3:2,0:0:0:0:
41,164,44906,1,2,0:0:0:0:
257,4,45050,6,0,P|277:2|306:55,1,64.9999970245363,6|0,1:2|0:0,0:0:0:0:
383,30,45194,2,0,B|383:79|346:98|346:98|325:140|327:186|327:186|325:223|302:243,1,225.000008583069,2|0,0:0|0:0,0:0:0:0:
249,359,45482,6,0,B|198:350|198:285|198:285|198:272|211:258,1,119.999996337891,2|0,1:2|0:0,0:0:0:0:
406,152,45771,2,0,B|457:161|457:226|457:226|457:239|444:253,1,119.999996337891,6|0,3:0|0:0,0:0:0:0:
365,377,46059,1,2,0:0:0:0:
365,377,46131,1,2,0:0:0:0:
365,377,46204,5,4,3:0:0:0:
309,235,46348,1,4,3:0:0:0:
135,382,46492,2,0,B|121:377|121:377|82:231,1,150.000005722046,10|0,0:0|0:0,0:0:0:0:
42,28,46781,5,2,1:2:0:0:
3,138,46925,2,0,B|20:162|30:203|30:203|46:177|112:172,1,119.999996337891,2|8,0:0|0:0,0:0:0:0:
255,118,47213,6,0,B|257:18|128:-9|71:26|214:83,1,225.000008583069,2|0,1:2|0:0,0:0:0:0:
259,114,47502,2,0,B|261:14|132:-13|75:22|218:79,1,225.000008583069,6|0,3:0|0:0,0:0:0:0:
175,53,47790,1,2,0:0:0:0:
309,235,47934,2,0,B|346:251|346:251|426:171|426:171|486:146,2,179.999994506836,4|4|10,3:0|3:0|0:0,0:0:0:0:
363,9,48367,1,2,0:0:0:0:
363,9,48439,1,2,0:0:0:0:
363,9,48511,6,0,B|351:49|351:49|360:88|360:88|339:146,1,129.999994049073,6|0,1:2|0:0,0:0:0:0:
343,133,48800,1,8,0:0:0:0:
48,50,48944,2,0,B|58:85|58:85|83:109|83:109|97:133|96:162,1,110.000003356934,2|0,1:2|0:0,0:0:0:0:
95,145,49232,1,4,3:0:0:0:
234,251,49377,6,0,B|134:273|134:273|94:340,1,160,10|0,3:2|0:0,0:0:0:0:
318,279,49665,2,0,B|251:341|251:341|251:411,1,129.999994049073,6|4,3:0|3:0,0:0:0:0:
402,288,49954,2,0,B|393:357|393:357|428:398,1,100,10|0,3:2|0:0,0:0:0:0:
505,184,50242,6,0,B|513:111|442:98|442:98|463:54|435:24|435:24|380:11|353:-48,1,259.999988098145,2|8,1:2|0:0,0:0:0:0:
161,79,50675,2,0,B|182:49|226:50|226:50|235:32|285:18,1,110.000003356934,2|0,1:2|0:0,0:0:0:0:
253,29,50963,1,4,3:0:0:0:
234,251,51107,6,0,B|185:160|88:136|88:136|93:82|56:58,2,279.999991455078,10|6|10,3:2|3:0|0:0,0:0:0:0:
161,79,51829,1,8,0:0:0:0:
19,369,51973,1,4,1:0:0:0:
459,93,55434,5,4,1:0:0:0:
59,113,58463,5,2,1:0:0:0:
59,113,58607,1,8,0:0:0:0:
59,113,58752,2,0,B|64:134|64:134|50:170|50:170|59:213,1,69.9999978637696,2|0,0:0|0:0,0:0:0:0:
66,251,58896,6,0,B|58:266|43:304|62:333|100:400|40:343|46:248|-3:240,1,209.999993591309,4|2,1:0|3:3,0:0:0:0:
214,146,59473,2,0,P|253:128|284:126,2,69.9999978637696,2|0|8,0:0|1:0|0:0,0:0:0:0:
163,361,60050,1,2,0:0:0:0:
163,361,60194,1,0,1:0:0:0:
163,361,60338,1,10,0:0:0:0:
58,113,60627,6,0,B|73:94|73:94|170:72|170:72|177:46,1,139.999995727539,6|8,3:0|0:0,0:0:0:0:
226,3,61059,2,0,B|256:-10|256:-10|317:21,2,69.9999978637696,4|2|4,3:0|3:0|3:0,0:0:0:0:
174,56,61492,2,0,B|169:88|169:90|169:90|208:208,1,139.999995727539,10|4,0:0|3:0,0:0:0:0:
163,264,61925,1,4,3:0:0:0:
163,264,62069,2,0,B|177:279|177:279|239:306,1,69.9999978637696,10|2,0:0|0:0,0:0:0:0:
238,307,62285,1,2,0:0:0:0:
238,307,62357,6,0,B|256:326|280:331|285:328|307:310|337:306|349:342|353:364|368:377|386:375|402:370|409:367|425:332|454:358,1,209.999993591309,2|6,1:2|3:0,0:0:0:0:
349,146,62934,2,0,B|383:175|390:186|387:227,2,69.9999978637696,2|0|8,0:0|0:0|0:0,0:0:0:0:
81,231,63511,1,2,0:0:0:0:
81,231,63656,1,0,1:0:0:0:
81,231,63800,1,10,0:0:0:0:
232,94,64016,5,0,0:0:0:0:
232,94,64088,2,0,B|205:55|239:39|188:-1|170:-1|155:0|32:0|172:24|202:21,1,209.999993591309,6|4,3:0|3:0,0:0:0:0:
385,93,64665,2,0,B|403:79|424:78|424:78|433:52|450:49,2,69.9999978637696,2|4|10,3:0|3:0|0:0,0:0:0:0:
147,99,65242,1,4,3:0:0:0:
147,99,65386,1,4,3:0:0:0:
147,99,65531,2,0,B|101:111|101:111|84:131|84:131,1,69.9999978637696,10|2,0:0|0:0,0:0:0:0:
81,141,65747,1,2,0:0:0:0:
81,141,65819,6,0,B|63:166|64:181|72:213|72:213|82:247|77:262|68:276|40:294|38:299|35:310|32:318|31:324|28:334|27:336,1,209.999993591309,2|2,1:2|3:3,0:0:0:0:
225,285,66396,2,0,P|208:236|192:214,2,69.9999978637696,2|0|8,0:0|1:0|0:0,0:0:0:0:
436,362,66973,1,2,0:0:0:0:
436,362,67117,1,0,1:0:0:0:
436,362,67261,1,10,0:0:0:0:
304,154,67550,6,0,B|299:133|299:133|337:82|337:82|335:49,1,104.999996795654,6|0,3:0|0:0,0:0:0:0:
260,62,67838,2,0,B|230:32|230:32|231:-11,1,69.9999978637696,8|4,0:0|3:0,0:0:0:0:
156,55,68127,2,0,B|144:104|144:104|125:127,2,69.9999978637696,2|4|10,3:0|3:0|0:0,0:0:0:0:
63,12,68559,2,0,B|13:122|13:122|17:168,1,139.999995727539,6|4,3:0|3:0,0:0:0:0:
36,271,68992,2,0,B|78:258|78:258|86:221,1,69.9999978637696,10|2,0:0|0:0,0:0:0:0:
83,232,69208,1,2,0:0:0:0:
91,238,69281,6,0,B|104:236|150:238|133:286|120:297|116:312|128:321|169:343|190:336|193:286|239:314,1,209.999993591309,2|6,1:2|3:0,0:0:0:0:
335,62,69857,2,0,B|341:78|361:95|361:95|360:110|360:117|366:143,2,69.9999978637696,2|0|10,0:0|0:0|0:0,0:0:0:0:
296,360,70434,1,2,0:0:0:0:
296,360,70579,1,0,1:0:0:0:
296,360,70723,1,10,0:0:0:0:
343,202,70939,5,2,0:0:0:0:
343,202,71011,2,0,B|314:193|287:165|254:194|296:127|293:101|272:73|199:198|228:91|219:87|190:142|123:136|209:44|189:83|188:84,1,209.999993591309,6|4,3:0|3:0,0:0:0:0:
45,241,71588,2,0,B|19:269|5:277|5:277|-34:271,2,69.9999978637696,2|4|10,3:0|3:0|0:0,0:0:0:0:
237,30,72165,1,4,3:0:0:0:
237,30,72309,1,4,3:0:0:0:
237,30,72454,1,14,0:0:0:0:
338,13,72598,5,2,0:0:0:0:
338,13,72670,1,2,0:0:0:0:
338,13,72742,2,0,B|338:49|338:49|407:78|449:177|449:177|437:221,1,239.999992675781,4|10,1:0|0:0,0:0:0:0:
441,206,73175,1,2,3:3:0:0:
263,336,73319,2,0,P|221:300|272:258,1,100,2|2,0:0|1:2,0:0:0:0:
235,265,73607,1,10,0:0:0:0:
362,182,73752,6,0,B|324:170|324:170|268:128,1,89.9999972534181,2|4,0:0|3:0,0:0:0:0:
176,69,74040,2,0,B|210:51|210:51|258:0,1,89.9999972534181,0|10,1:0|0:0,0:0:0:0:
187,163,74329,6,0,B|162:170|162:170|80:128|42:45|42:45|1:38|-26:82,1,239.999992675781,2|2,0:0|0:0,0:0:0:0:
6,50,74761,1,10,0:0:0:0:
16,279,74906,1,4,3:0:0:0:
16,279,75050,2,0,B|61:286|61:286|85:259|88:218,1,100,2|4,3:0|3:0,0:0:0:0:
85,239,75338,1,10,0:0:0:0:
185,328,75482,6,0,P|178:360|115:370,1,89.9999972534181,2|4,0:0|3:0,0:0:0:0:
187,163,75771,2,0,P|218:153|257:204,1,89.9999972534181,6|8,3:0|0:0,0:0:0:0:
375,351,76059,6,0,B|327:355|303:318|303:318|285:257|285:257|218:271|190:214,1,239.999992675781,2|2,0:0|0:0,0:0:0:0:
201,231,76492,1,10,0:0:0:0:
381,281,76636,1,2,3:3:0:0:
381,281,76781,2,0,B|415:281|434:310|434:310|452:289|479:285,1,100,2|2,0:0|1:2,0:0:0:0:
465,291,77070,1,10,0:0:0:0:
488,143,77213,6,0,B|471:144|471:144|431:229,1,89.9999972534181,2|4,0:0|3:0,0:0:0:0:
390,51,77502,2,0,B|405:58|405:58|481:3,1,89.9999972534181,0|10,1:0|0:0,0:0:0:0:
372,146,77790,6,0,B|315:115|315:115|297:61|306:-26,1,179.999994506836,2|0,0:0|0:0,0:0:0:0:
303,0,78079,1,2,0:0:0:0:
237,143,78223,2,0,B|217:67|223:5|223:5|181:21|145:-15,1,200,8|2,0:0|3:0,0:0:0:0:
149,173,78656,5,4,3:0:0:0:
149,173,78800,1,10,0:0:0:0:
86,9,78944,6,0,B|64:14|49:33|49:33|39:59|67:103,1,89.9999972534181,2|4,0:0|3:0,0:0:0:0:
108,237,79232,2,0,B|129:233|146:216|146:216|160:192|137:145,1,89.9999972534181,4|10,3:0|0:0,0:0:0:0:
307,348,79521,6,0,B|298:323|264:317|264:317|224:264|250:166|250:166|229:130,1,239.999992675781,6|2,3:0|0:0,0:0:0:0:
236,142,79954,1,10,0:0:0:0:
417,270,80098,1,2,3:3:0:0:
417,270,80242,2,0,B|343:275|343:275|325:260|297:253,1,100,2|2,0:0|1:2,0:0:0:0:
321,261,80530,1,10,0:0:0:0:
236,142,80675,6,0,P|275:97|302:139,1,89.9999972534181,2|4,0:0|3:0,0:0:0:0:
447,114,80963,2,0,P|395:137|335:110,1,89.9999972534181,0|10,1:0|0:0,0:0:0:0:
183,61,81252,6,0,B|156:88|152:130|152:130|169:201|169:201|133:230|115:296,1,239.999992675781,2|2,0:0|0:0,0:0:0:0:
121,275,81684,1,10,0:0:0:0:
18,143,81829,1,4,3:0:0:0:
18,143,81973,2,0,B|-8:91|-8:91|57:54,1,100,2|4,3:0|3:0,0:0:0:0:
28,70,82261,1,10,0:0:0:0:
46,224,82406,6,0,L|11:316,1,89.9999972534181,2|4,0:0|3:0,0:0:0:0:
201,365,82694,2,0,L|209:276,1,89.9999972534181,6|8,3:0|0:0,0:0:0:0:
247,40,82982,6,0,B|277:98|277:98|287:156|247:214|247:214|279:232|280:270,1,239.999992675781,2|2,0:0|0:0,0:0:0:0:
278,253,83415,1,10,0:0:0:0:
491,219,83559,1,2,3:3:0:0:
491,219,83704,2,0,B|454:170|454:170|391:219,1,100,2|2,0:0|1:2,0:0:0:0:
423,193,83992,1,10,0:0:0:0:
305,333,84136,6,0,B|313:289|303:268|303:268|258:249,1,89.9999972534181,2|4,0:0|3:0,0:0:0:0:
126,330,84425,2,0,B|157:349|172:367|172:367|221:372,1,89.9999972534181,0|10,1:0|0:0,0:0:0:0:
200,125,84713,6,0,B|171:128|150:107|150:107|116:34|31:28|31:28|55:50|60:71,1,240,2|0,0:0|0:0,0:0:0:0:
56,59,85002,2,0,B|42:71|49:97|49:97|62:109|46:135,1,80,2|0,0:0|0:0,0:0:0:0:
29,290,85146,1,10,0:2:0:0:
24,295,85290,1,2,1:2:0:0:
130,214,85434,5,2,0:2:0:0:
139,211,85579,2,0,B|148:239|148:239|177:257|177:257|196:291,1,75.0000028610231,6|0,3:0|0:0,0:0:0:0:
241,339,85723,1,10,0:2:0:0:
249,348,85867,1,2,0:2:0:0:
328,206,86011,5,6,3:3:0:0:
337,196,86156,2,0,B|356:177|356:177|366:149|360:139|360:139|386:91,1,85.0000016212464,2|0,0:2|0:0,0:0:0:0:
345,51,86300,5,14,0:2:0:0:
401,366,86444,1,10,0:2:0:0:
286,141,86588,6,0,B|264:126|247:125|247:125|241:112|215:96,1,64.9999970245363,6|0,1:2|0:0,0:0:0:0:
186,47,86732,2,0,B|159:59|149:94|149:94|154:117|154:117|113:150|94:206|94:206|115:223|118:280,1,225.000008583069,2|0,0:0|0:0,0:0:0:0:
172,383,87021,6,0,B|200:352|195:305|195:305|172:285|165:256,1,119.999996337891,2|0,1:2|0:0,0:0:0:0:
34,134,87309,2,0,B|1:159|-2:206|-2:206|16:230|18:260,1,119.999996337891,6|0,3:0|0:0,0:0:0:0:
244,249,87598,1,2,0:0:0:0:
244,249,87670,1,2,0:0:0:0:
244,249,87742,5,4,3:0:0:0:
73,336,87886,1,4,3:0:0:0:
280,323,88031,2,0,B|335:287|319:219|319:219|344:195,1,150.000005722046,10|0,0:0|3:0,0:0:0:0:
405,27,88319,5,2,1:2:0:0:
186,47,88463,2,0,B|146:74|146:74|99:-8,1,119.999996337891,2|8,0:0|0:0,0:0:0:0:
31,241,88752,6,0,B|12:212|8:195|8:195|14:139|61:77|61:77|98:139,1,225.000008583069,2|0,1:2|0:0,0:0:0:0:
26,236,89040,2,0,B|7:207|3:190|3:190|9:134|56:72|56:72|93:134,1,225.000008583069,6|0,3:0|0:0,0:0:0:0:
74,104,89329,1,2,0:0:0:0:
73,336,89473,2,0,B|51:326|95:364|161:349|166:347|166:347|167:347|204:349|235:368,2,179.999994506836,4|4|10,3:0|3:0|0:0,0:0:0:0:
225,214,89906,1,2,0:0:0:0:
225,214,89978,1,2,0:0:0:0:
225,214,90050,6,0,P|256:206|230:124,1,129.999994049073,6|0,1:2|0:0,0:0:0:0:
249,128,90338,1,8,0:0:0:0:
410,39,90482,2,0,B|437:33|460:46|461:46|461:46|476:10|494:-2|515:-4,1,110.000003356934,2|0,1:2|0:0,0:0:0:0:
496,2,90771,1,4,3:0:0:0:
348,183,90915,6,0,B|371:209|371:209|377:301|377:301|442:350,1,160,10|0,3:2|0:0,0:0:0:0:
297,267,91204,2,0,B|299:294|299:294|260:356|260:356|279:417,1,129.999994049073,6|4,3:0|3:0,0:0:0:0:
207,296,91492,2,0,B|193:310|193:310|142:319|142:319|118:358,1,100,10|0,3:2|0:0,0:0:0:0:
164,128,91781,6,0,B|155:83|182:39|241:23|274:59|274:59|290:8|362:-10,1,259.999988098145,2|8,1:2|0:0,0:0:0:0:
503,222,92213,2,0,B|510:246|489:276|489:276|454:271|430:246,1,100,2|0,1:2|0:0,0:0:0:0:
449,261,92502,1,4,3:0:0:0:
207,296,92646,6,0,B|233:270|240:237|240:237|374:178|374:178|405:164|453:206,2,279.999991455078,10|6|10,3:2|3:0|3:2,0:0:0:0:
273,137,93367,1,0,3:0:0:0:
0,263,93511,6,0,B|-3:247|11:222|11:222|22:219|22:219|54:216,1,64.9999970245363,6|0,1:2|0:0,0:0:0:0:
93,270,93656,2,0,B|108:250|117:218|117:218|102:167|125:110|125:110|160:91|151:79|151:79|171:62,1,225.000008583069,2|0,0:0|0:0,0:0:0:0:
0,5,93944,6,0,B|-12:38|7:75|7:75|22:80|30:80|46:91|62:105|64:108,1,119.999996337891,2|0,1:2|0:0,0:0:0:0:
308,69,94232,2,0,B|300:34|264:14|264:14|248:18|241:22|222:21|201:18|198:17,1,119.999996337891,6|0,3:0|0:0,0:0:0:0:
198,170,94521,1,2,0:0:0:0:
198,170,94593,1,2,0:0:0:0:
198,170,94665,5,4,3:0:0:0:
403,104,94809,1,4,3:0:0:0:
291,278,94954,2,0,B|221:243|221:243|200:169,1,150.000005722046,10|0,0:0|3:0,0:0:0:0:
382,18,95242,5,2,1:2:0:0:
385,233,95386,2,0,B|376:247|376:247|361:311|361:311|330:347,1,119.999996337891,2|8,0:0|0:0,0:0:0:0:
25,350,95675,6,0,B|14:327|24:309|24:309|91:272|166:289|166:289|186:312|165:354,1,225.000008583069,2|0,1:2|0:0,0:0:0:0:
26,343,95963,2,0,B|15:320|25:302|25:302|92:265|167:282|167:282|187:305|166:347,1,225.000008583069,6|0,3:0|0:0,0:0:0:0:
179,309,96252,1,2,0:0:0:0:
81,66,96396,2,0,B|47:89|54:141|54:141|1:204|14:272,2,179.999994506836,4|4|10,3:0|3:0|0:0,0:0:0:0:
185,211,96829,1,2,0:0:0:0:
185,211,96901,1,2,0:0:0:0:
185,211,96973,6,0,B|174:128|174:128|95:116,1,129.999994049073,6|0,1:2|0:0,0:0:0:0:
128,121,97261,1,8,0:0:0:0:
390,0,97406,2,0,B|361:-6|332:8|332:8|312:40|327:76,1,110.000003356934,2|0,1:2|0:0,0:0:0:0:
321,56,97694,1,4,3:0:0:0:
486,224,97838,6,0,B|470:233|470:233|432:234|370:263|370:263|332:225,1,160,10|0,3:2|0:0,0:0:0:0:
343,340,98127,2,0,B|329:333|329:333|311:309|263:281|263:281|270:238,1,129.999994049073,6|4,3:0|3:0,0:0:0:0:
184,290,98415,2,0,B|182:278|182:278|190:257|188:215|188:215|218:202,1,100,10|0,3:2|0:0,0:0:0:0:
0,97,98704,6,0,B|11:88|28:86|28:86|42:121|74:127|74:127|92:47|127:22|127:22|183:15|223:41,1,259.999988098145,2|8,1:2|0:0,0:0:0:0:
112,215,99136,2,0,B|101:228|104:257|104:257|76:257|50:274,1,100,2|0,1:2|0:0,0:0:0:0:
50,273,99425,1,4,3:0:0:0:
251,23,99569,6,0,B|264:36|266:74|266:74|235:116|229:184|229:184|210:200|199:222,1,200,10|6,3:2|3:0,0:0:0:0:
246,366,100002,1,4,3:0:0:0:
246,366,100074,1,2,0:0:0:0:
246,366,100146,6,0,B|251:330|251:330|268:311,1,50,14|0,3:2|0:0,0:0:0:0:
359,142,100290,2,0,B|327:166|348:208,1,50,0|0,3:0|0:0,0:0:0:0:
317,383,100434,6,0,B|357:366|357:366|396:304,1,115,4|0,1:0|0:0,0:0:0:0:
209,309,102165,6,0,B|136:304|136:304|94:292,1,115,0|0,1:0|0:0,0:0:0:0:
399,280,103896,6,0,B|462:266|462:266|513:265,1,115,0|0,1:0|0:0,0:0:0:0:
65,283,105627,6,0,B|12:310|12:310|53:268,1,115,0|0,1:0|0:0,0:0:0:0:
108,221,107357,6,0,B|146:191|146:191|175:184,2,59.9999981689454,2|2|2,1:2|0:0|0:0,0:0:0:0:
151,373,107790,1,10,0:0:0:0:
156,377,108079,1,2,1:2:0:0:
161,382,108367,5,2,0:0:0:0:
215,120,108511,1,2,1:2:0:0:
210,102,108656,1,2,0:0:0:0:
363,58,108800,6,0,L|346:51,1,15,2|0,1:2|0:0,0:0:0:0:
278,21,109088,6,0,B|242:9|242:9|213:7,2,59.9999981689454,2|2|2,1:2|0:0|0:0,0:0:0:0:
464,82,109521,1,10,0:0:0:0:
469,87,109809,1,2,1:2:0:0:
474,92,110098,5,2,0:0:0:0:
308,254,110242,1,2,1:2:0:0:
324,247,110386,1,2,0:0:0:0:
479,376,110531,6,0,L|477:360,1,15,6|0,3:0|0:0,0:0:0:0:
466,288,110819,6,0,B|461:268|461:268|485:219,2,59.9999981689454,2|2|2,1:2|0:0|0:0,0:0:0:0:
257,358,111252,1,10,0:0:0:0:
253,362,111540,1,2,1:2:0:0:
249,366,111829,5,2,0:0:0:0:
91,204,111973,1,2,1:2:0:0:
106,212,112117,1,2,0:0:0:0:
101,312,112261,6,0,L|177:293,1,59.9999981689454,2|2,1:2|1:2,0:0:0:0:
248,183,112550,6,0,B|265:186|268:173|263:159|248:157|233:154|227:146|226:130|248:124,1,90,14|0,0:0|0:0,0:0:0:0:
366,152,113920,6,0,B|381:147|378:167|376:180|369:183|345:183|336:172|338:105|317:83,1,139.999995727539
319,15,114281,6,0,B|340:10|366:19|366:19|385:49,1,64.9999970245363,6|0,1:2|0:0,0:0:0:0:
440,0,114425,2,0,B|460:24|447:63|447:63|444:94|500:145|500:145|499:172|480:186|480:186|505:221|485:228,1,225.000008583069,2|0,0:0|0:0,0:0:0:0:
435,336,114713,6,0,B|391:312|393:263|393:263|414:236|433:242|457:258,1,119.999996337891,2|0,1:2|0:0,0:0:0:0:
190,366,115002,2,0,B|189:322|227:303|227:303|257:307|260:324|258:349,1,119.999996337891,6|0,3:0|0:0,0:0:0:0:
163,173,115290,1,2,0:0:0:0:
163,173,115362,1,2,0:0:0:0:
163,173,115434,5,4,3:0:0:0:
318,255,115579,1,4,3:0:0:0:
67,248,115723,2,0,B|96:258|96:258|111:202|126:188|126:188|172:174,1,150.000005722046,10|0,0:0|3:0,0:0:0:0:
320,87,116011,5,2,1:2:0:0:
49,171,116156,2,0,B|17:123|17:123|3:54,1,119.999996337891,2|8,0:0|0:0,0:0:0:0:
246,166,116444,6,0,B|276:223|252:272|191:325|104:333|213:231|223:223,1,225.000008583069,2|0,1:2|0:0,0:0:0:0:
250,170,116732,2,0,B|280:227|256:276|195:329|108:337|217:235|227:227,1,225.000008583069,6|0,3:0|0:0,0:0:0:0:
210,254,117021,1,2,0:0:0:0:
253,39,117165,2,0,B|266:56|291:56|291:56|329:60|351:166|411:120|393:127,2,179.999994506836,4|4|10,3:0|3:0|0:0,0:0:0:0:
389,205,117598,1,2,0:0:0:0:
389,205,117670,1,2,0:0:0:0:
389,205,117742,6,0,B|446:205|464:151|464:151|503:155,1,129.999994049073,6|0,1:2|0:0,0:0:0:0:
494,154,118031,1,8,0:0:0:0:
380,345,118175,2,0,B|354:355|328:348|328:348|307:329|314:279,1,110.000003356934,2|0,1:2|0:0,0:0:0:0:
312,295,118463,1,4,3:0:0:0:
92,192,118607,6,0,B|120:269|120:269|216:302,1,160,10|0,3:2|0:0,0:0:0:0:
186,201,118896,2,0,B|251:238|251:238|337:205,1,129.999994049073,6|4,3:0|3:0,0:0:0:0:
258,138,119184,2,0,B|311:141|311:141|356:93,1,100,10|0,3:2|0:0,0:0:0:0:
157,8,119473,6,0,B|130:22|97:9|97:9|105:41|87:78|87:78|61:67|14:84|-11:127|8:153,1,259.999988098145,2|8,1:2|0:0,0:0:0:0:
302,218,119906,2,0,B|283:208|272:181|272:181|279:172|279:172|272:152|251:134,1,100,2|0,1:2|0:0,0:0:0:0:
257,139,120194,1,4,3:0:0:0:
19,220,120338,6,0,B|19:240|49:282|49:282|124:286|202:333|202:333|225:307|262:327,2,279.999991455078,10|6|10,3:2|3:0|3:2,0:0:0:0:
86,380,121059,1,0,0:0:0:0:
181,121,121204,6,0,B|204:70|204:70|253:58,1,64.9999970245363,6|0,1:2|0:0,0:0:0:0:
233,0,121348,2,0,B|270:11|282:48|282:48|326:40|385:57|385:57|392:108|428:125,1,225.000008583069,2|0,0:0|0:0,0:0:0:0:
363,267,121636,6,0,B|385:262|385:262|420:253|427:209|427:209|415:182|426:158,1,119.999996337891,2|0,1:2|0:0,0:0:0:0:
181,121,121925,2,0,B|184:143|184:143|191:178|235:187|235:187|262:177|286:189,1,119.999996337891,6|0,3:0|0:0,0:0:0:0:
481,135,122213,1,2,0:0:0:0:
481,135,122285,1,2,0:0:0:0:
481,135,122357,5,4,3:0:0:0:
287,257,122502,1,4,3:0:0:0:
455,17,122646,2,0,B|473:12|488:35|488:35|469:109|469:109|490:137|486:159,1,150.000005722046,10|0,0:0|3:0,0:0:0:0:
488,280,122934,5,2,1:2:0:0:
287,257,123079,2,0,B|251:258|234:288|234:288|237:315|237:315|216:361,1,119.999996337891,2|8,0:0|0:0,0:0:0:0:
181,121,123367,6,0,B|155:96|155:96|96:99|25:161|25:161|63:177|119:162,1,225.000008583069,2|0,1:2|0:0,0:0:0:0:
176,116,123656,2,0,B|150:91|150:91|91:94|20:156|20:156|58:172|114:157,1,225.000008583069,6|0,3:0|0:0,0:0:0:0:
56,160,123944,1,2,0:0:0:0:
87,374,124088,2,0,B|104:341|108:301|108:300|108:299|108:299|106:294|106:294|108:254|146:185,2,179.999994506836,4|4|10,3:0|3:0|0:0,0:0:0:0:
264,187,124521,1,2,0:0:0:0:
264,187,124593,1,2,0:0:0:0:
264,187,124665,6,0,B|297:143|337:146|337:146|334:117|352:96,1,129.999994049073,6|0,1:2|0:0,0:0:0:0:
345,105,124954,1,8,0:0:0:0:
492,287,125098,2,0,B|502:319|486:331|486:331|460:333|460:333|436:348|434:381,1,110.000003356934,2|0,1:2|0:0,0:0:0:0:
437,360,125386,1,4,3:0:0:0:
455,160,125531,6,0,B|468:92|468:92|426:188,1,160,10|0,3:2|0:0,0:0:0:0:
352,87,125819,2,0,B|320:37|320:37|350:121,1,129.999994049073,6|4,3:0|3:0,0:0:0:0:
207,59,126107,2,0,B|170:36|170:36|216:82,1,100,14|0,3:2|0:0,0:0:0:0:
176,354,126396,6,0,B|174:336|185:319|185:319|190:289|177:253|177:253|210:217|259:198|259:198|256:171|273:114,1,259.999988098145,6|8,1:2|0:0,0:0:0:0:
100,301,126829,2,0,B|81:286|53:296|53:296|21:265|44:224,1,110.000003356934,2|0,1:2|0:0,0:0:0:0:
37,240,127117,1,4,3:0:0:0:
321,338,127261,6,0,B|339:332|363:343|363:343|346:278|399:222|399:222|443:244|483:230,1,259.999988098145,10|6,3:2|3:0,0:0:0:0:
500,75,127694,1,4,1:3:0:0:
500,75,127766,1,2,0:0:0:0:
500,75,127838,2,0,B|502:57|502:57|482:8,1,55.0000016784668,10|0,0:0|0:0,0:0:0:0:
248,76,127982,2,0,B|249:93|249:93|277:138,1,55.0000016784668,8|0,0:0|0:0,0:0:0:0:
447,160,128127,6,0,B|436:113|436:113|387:36,2,119.999996337891,6|2|10,1:2|0:0|0:0,0:0:0:0:
317,24,128559,2,0,B|256:-12|256:-12|161:26,1,139.999995727539,2|0,1:2|0:0,0:0:0:0:
173,206,128848,2,0,B|241:188|241:188|281:94,1,139.999995727539,4|8,3:0|0:0,0:0:0:0:
188,10,129136,5,2,0:0:0:0:
184,6,129425,5,0,1:0:0:0:
507,143,129569,2,0,B|486:115|486:115|439:97|439:97|429:44|355:29|393:72,1,179.999994506836,10|0,0:0|0:0,0:0:0:0:
389,65,129857,6,0,B|372:93|386:149|386:149|450:218|450:218|448:268,1,209.999993591309,2|0,1:2|0:0,0:0:0:0:
512,291,130146,2,0,B|496:317|496:317|427:332,1,69.9999978637696,10|0,0:0|0:0,0:0:0:0:
385,297,130290,6,0,B|354:271|354:271|356:229|356:229|313:180,1,119.999996337891,6|0,3:0|3:0,0:0:0:0:
191,13,130579,2,0,B|183:47|183:47|144:91|144:91|138:132,1,119.999996337891,0|8,1:0|0:0,0:0:0:0:
193,238,130867,1,2,0:0:0:0:
17,138,131011,5,2,0:0:0:0:
17,138,131083,1,2,0:0:0:0:
17,138,131156,1,2,1:0:0:0:
23,384,131300,2,0,B|48:358|42:328|42:328|27:316|27:316|14:282|75:162|83:264|51:311,1,225.000008583069,10|0,0:0|0:0,0:0:0:0:
67,288,131588,6,0,B|139:306|139:306|160:286|160:286|225:266,2,119.999996337891,6|2|10,1:2|0:0|0:0,0:0:0:0:
300,375,132021,2,0,B|336:344|336:344|389:340|389:340|421:330|462:305,1,139.999995727539,6|0,3:0|3:0,0:0:0:0:
497,128,132309,2,0,B|453:146|453:146|401:133|401:133|377:166|321:144,1,139.999995727539,6|8,3:0|0:0,0:0:0:0:
219,48,132598,1,2,0:0:0:0:
215,41,132886,5,2,1:2:0:0:
169,221,133031,2,0,B|175:255|188:280|188:280|154:300|154:300|137:340|173:389|173:389|180:377|157:342|182:328,1,225.000008583069,10|0,0:0|0:0,0:0:0:0:
171,363,133319,6,0,B|180:332|160:299|160:299|72:264|72:264|61:232|72:213|72:213|51:184|39:155,1,279.999991455078,6|10,1:2|0:0,0:0:0:0:
159,6,133752,2,0,B|122:75|122:75|166:145,1,139.999995727539,6|0,3:0|3:0,0:0:0:0:
368,152,134040,2,0,B|310:98|310:98|231:122,1,139.999995727539,6|8,3:0|0:0,0:0:0:0:
332,316,134329,1,2,0:0:0:0:
332,316,134401,1,2,0:0:0:0:
332,316,134473,5,2,1:0:0:0:
405,226,134617,1,2,1:0:0:0:
397,21,134761,1,10,0:0:0:0:
397,21,135050,6,0,P|467:236|501:352,1,320,6|8,1:0|0:0,0:0:0:0:
159,6,135482,2,0,P|74:237|55:337,1,279.999991455078,2|4,1:0|3:0,0:0:0:0:
257,207,135915,1,8,0:0:0:0:
226,98,136059,1,2,0:0:0:0:
232,92,136348,5,4,3:0:0:0:
140,310,136492,2,0,B|164:304|187:311|187:311|239:263|232:226|232:226|256:213|266:187,1,179.999994506836,10|0,0:0|0:0,0:0:0:0:
260,210,136781,6,0,B|285:198|284:198|284:198|346:246|355:335|355:335|324:392,1,220.000006713867,2|10,1:2|0:0,0:0:0:0:
178,146,137213,2,0,B|142:150|126:205|126:205|154:237,1,119.999996337891,6|0,3:0|3:0,0:0:0:0:
42,22,137502,2,0,B|124:20|124:20|202:-14,1,119.999996337891,0|8,1:0|0:0,0:0:0:0:
512,106,137790,6,0,B|485:117|485:117|448:178|448:178|417:109|417:109|370:76,1,209.999993591309,2|0,0:0|0:0,0:0:0:0:
388,89,138079,1,2,1:0:0:0:
260,210,138223,1,10,0:0:0:0:
260,210,138511,6,0,B|231:214|231:214|161:152|163:81|206:65|206:65|242:92,1,220.000006713867,6|10,1:2|0:0,0:0:0:0:
357,303,138944,2,0,B|377:337|377:337|425:346|456:309,1,110.000003356934,6|0,3:0|3:0,0:0:0:0:
389,89,139232,2,0,B|354:69|354:69|308:85|300:133,1,110.000003356934,6|8,3:0|0:0,0:0:0:0:
146,265,139521,6,0,B|158:253|158:253|101:183|99:110|99:110|68:94,1,209.999993591309,2|0,0:0|0:0,0:0:0:0:
64,90,139809,1,2,1:2:0:0:
16,304,139954,1,10,0:0:0:0:
16,304,140242,6,0,B|33:302|33:302|74:310|97:349|97:349|136:364|164:342|164:342|195:342|214:364|214:364|229:349|265:354,1,255.000004863739,6|0,1:2|0:0,0:0:0:0:
249,348,140531,1,10,0:0:0:0:
466,358,140675,6,0,P|454:327|411:290,1,55.0000016784668,6|0,3:0|0:0,0:0:0:0:
422,139,140963,6,0,P|394:120|337:114,1,55.0000016784668,6|0,3:0|0:0,0:0:0:0:
215,0,141252,6,0,P|183:9|142:48,1,55.0000016784668,2|0,1:1|0:0,0:0:0:0:
171,96,141396,1,2,1:1:0:0:
171,96,141540,1,2,1:1:0:0:
0,137,141684,6,0,P|44:232|202:390,1,300.000011444092,2|0,1:1|0:0,0:0:0:0:
