osu file format v14

[General]
AudioFilename: audio.mp3
AudioLeadIn: 0
PreviewTime: 84930
Countdown: 0
SampleSet: Soft
StackLeniency: 0.7
Mode: 0
LetterboxInBreaks: 0
WidescreenStoryboard: 0

[Editor]
Bookmarks: 24281,38127,51973,58752,100434,114281,128127
DistanceSpacing: 1.5
BeatDivisor: 4
GridSize: 16
TimelineZoom: 3.199999

[Metadata]
Title:Atlas
TitleUnicode:Atlas
Artist:Good Kid
ArtistUnicode:Good Kid
Creator:wafer
Version:Heavy
Source:
Tags:english indie rock fa featured artist goopert kami no kotoba renumi baku shiny braixen bakugo- -magic- syodou ghost kings king's revenge ost videogame video game sound track
BeatmapID:3580944
BeatmapSetID:1750346

[Difficulty]
HPDrainRate:5
CircleSize:4
OverallDifficulty:8.9
ApproachRate:9.3
SliderMultiplier:2.1
SliderTickRate:1

[Events]
//Background and Video events
0,0,"katerina-kerdi--YiJvbfNDqk-unsplash.jpg",0,0
//Break Periods
2,52173,58198
//Storyboard Layer 0 (Background)
//Storyboard Layer 1 (Fail)
//Storyboard Layer 2 (Pass)
//Storyboard Layer 3 (Foreground)
//Storyboard Layer 4 (Overlay)
//Storyboard Sound Samples

[TimingPoints]
1781,288.461538461539,6,2,0,60,1,0
3511,-100,6,2,0,70,0,0
10434,-125,6,2,0,50,0,0
24281,-100,6,2,0,60,0,0
38127,-100,6,2,0,80,0,0
58896,-125,6,2,0,50,0,0
72742,-100,6,2,0,60,0,0
86588,-100,6,2,0,80,0,0
100434,-500,6,2,0,50,0,0
107357,-100,6,2,0,50,0,0
113848,-200,6,2,0,10,0,0
113866,-200,6,2,1,40,0,0
114208,-200,6,2,0,5,0,0
114281,-100,6,2,0,80,0,0
128127,-100,6,2,0,70,0,0
129569,-133.333333333333,6,2,0,70,0,0
129857,-100,6,2,0,70,0,0

[Colours]
Combo1 : 207,169,167
Combo2 : 255,174,136
Combo3 : 155,189,251
Combo4 : 217,214,157

[HitObjects]
21,54,3223,5,8,1:0:0:0:
183,103,3367,1,8,1:0:0:0:
59,237,3511,6,0,P|43:139|31:88,1,105,6|0,1:0|0:0,0:0:0:0:
125,21,3800,1,10,0:2:0:0:
349,55,3944,1,4,3:0:0:0:
349,55,4232,6,0,P|339:106|331:158,1,105,6|10,3:0|2:0,0:0:0:0:
195,288,4521,2,0,P|185:236|177:184,1,105,2|4,2:0|3:0,0:0:0:0:
423,123,4809,1,2,1:0:0:0:
274,220,4954,2,0,B|351:239|321:252|426:286,1,157.5,10|0,0:0|0:0,0:0:0:0:
483,234,5242,6,0,P|467:136|455:85,1,105,2|0,1:0|0:0,0:0:0:0:
333,290,5531,1,10,1:2:0:0:
177,184,5675,1,4,3:0:0:0:
41,362,5963,6,0,P|51:311|59:259,1,105,6|10,3:0|2:0,0:0:0:0:
24,159,6252,2,0,P|14:107|6:55,1,105,2|4,2:0|3:0,0:0:0:0:
155,29,6540,1,2,1:2:0:0:
84,55,6684,2,0,B|161:74|131:87|236:121,1,157.5,10|0,0:0|0:0,0:0:0:0:
317,107,6973,6,0,P|301:9|289:-42,1,105,6|0,1:0|0:0,0:0:0:0:
146,128,7262,1,10,1:2:0:0:
352,282,7406,1,4,3:0:0:0:
168,362,7694,6,0,P|178:311|186:259,1,105,6|10,3:0|2:0,0:0:0:0:
439,305,7983,2,0,P|429:253|421:201,1,105,2|4,2:0|3:0,0:0:0:0:
232,198,8271,1,2,1:0:0:0:
369,132,8416,2,0,B|446:151|416:164|521:198,1,157.5,10|0,0:0|0:0,0:0:0:0:
501,112,8704,6,0,P|485:14|473:-37,1,105,2|0,1:0|0:0,0:0:0:0:
260,45,8993,1,10,1:2:0:0:
360,206,9137,1,4,3:0:0:0:
214,342,9425,6,0,P|163:332|111:324,1,105,6|10,3:0|2:0,0:0:0:0:
39,232,9714,2,0,P|91:242|143:250,1,105,2|4,2:0|3:0,0:0:0:0:
310,370,10002,1,2,1:0:0:0:
418,272,10146,1,8,0:0:0:0:
214,350,10290,1,8,0:0:0:0:
441,355,10434,6,0,B|450:207|455:281|459:163,1,168,4|8,1:0|0:0,0:0:0:0:
507,128,10867,1,2,3:3:0:0:
379,186,11011,2,0,P|325:175|286:166,1,84,2|0,0:0|1:0,0:0:0:0:
440,87,11300,2,0,P|399:96|358:105,1,84,8|0,0:0|0:0,0:0:0:0:
320,250,11588,2,0,P|279:259|237:267,1,84,2|0,0:0|1:0,0:0:0:0:
32,192,11877,1,10,0:0:0:0:
32,192,12165,2,0,P|96:165|115:46,1,168,6|8,3:0|0:0,0:0:0:0:
52,13,12598,1,4,3:0:0:0:
52,13,12742,1,2,3:0:0:0:
119,60,12886,1,4,3:0:0:0:
163,163,13031,1,10,0:0:0:0:
163,163,13319,1,4,3:0:0:0:
96,210,13463,1,4,3:0:0:0:
31,333,13608,1,10,0:0:0:0:
103,289,13752,1,2,0:0:0:0:
103,289,13824,1,2,0:0:0:0:
103,289,13896,6,0,B|249:310|175:309|292:323,1,168,2|8,1:2|0:0,0:0:0:0:
448,227,14329,2,0,P|457:268|466:310,1,84,4|0,3:3|1:3,0:0:0:0:
324,270,14617,2,0,P|339:206|353:90,1,168,6|2,3:0|0:0,0:0:0:0:
460,76,15050,2,0,P|469:116|484:168,1,84,2|0,0:0|1:0,0:0:0:0:
260,172,15339,1,10,0:0:0:0:
260,172,15627,2,0,P|243:122|177:26,1,168,6|8,3:0|0:0,0:0:0:0:
52,13,16060,1,4,3:0:0:0:
52,13,16204,1,2,3:0:0:0:
66,95,16348,1,4,3:0:0:0:
163,163,16493,1,10,0:0:0:0:
163,163,16781,1,4,3:0:0:0:
173,248,16925,1,4,3:0:0:0:
31,333,17070,1,10,0:0:0:0:
77,271,17214,1,2,0:0:0:0:
77,271,17285,1,2,0:0:0:0:
77,271,17357,6,0,B|68:123|63:197|59:79,1,168,4|8,1:0|0:0,0:0:0:0:
0,40,17790,1,2,3:3:0:0:
159,160,17934,2,0,P|213:149|252:140,1,84,2|0,0:0|1:0,0:0:0:0:
152,1,18223,2,0,P|142:41|134:83,1,84,8|0,0:0|0:0,0:0:0:0:
312,223,18511,2,0,P|378:174|477:133,2,168,2|8|4,0:0|0:0|3:0,0:0:0:0:
256,384,19377,1,8,0:0:0:0:
256,384,19521,1,4,3:0:0:0:
256,384,19665,1,2,3:0:0:0:
323,337,19809,1,4,3:0:0:0:
367,234,19954,1,10,0:0:0:0:
367,234,20242,1,4,3:0:0:0:
284,196,20386,1,4,3:0:0:0:
235,64,20531,1,10,0:0:0:0:
293,19,20675,1,2,0:0:0:0:
293,19,20747,1,2,0:0:0:0:
293,19,20819,5,2,1:2:0:0:
449,33,20963,2,0,P|390:52|339:57,1,84,2|8,0:0|0:0,0:0:0:0:
284,196,21252,2,0,P|291:166|301:113,1,84,4|0,3:3|1:3,0:0:0:0:
502,141,21540,2,0,P|443:122|392:117,1,84,6|8,3:0|0:0,0:0:0:0:
207,206,21829,2,0,P|166:215|27:263,1,168,2|4,0:0|3:0,0:0:0:0:
87,160,22262,1,10,0:0:0:0:
87,160,22406,1,2,0:0:0:0:
258,265,22550,2,0,B|320:281|285:280|430:324,1,168,6|8,3:0|0:0,0:0:0:0:
256,384,22983,1,4,3:0:0:0:
256,384,23127,1,2,3:0:0:0:
324,328,23271,1,4,3:0:0:0:
377,229,23416,1,10,0:0:0:0:
377,229,23704,1,4,3:0:0:0:
390,134,23848,1,4,3:0:0:0:
216,49,23993,1,10,0:0:0:0:
256,128,24137,1,2,0:0:0:0:
256,128,24208,1,2,0:0:0:0:
256,128,24281,6,0,B|108:119|219:115|36:94,1,210,4|8,1:0|0:0,0:0:0:0:
9,215,24714,1,2,3:3:0:0:
131,280,24858,2,0,P|118:218|108:173,1,105,2|0,0:0|1:0,0:0:0:0:
256,128,25146,2,0,L|256:8,1,105,10|2,0:0|0:0,0:0:0:0:
402,177,25434,2,0,P|390:228|379:279,1,105,2|0,0:0|1:0,0:0:0:0:
131,280,25724,1,10,0:0:0:0:
261,374,25867,2,0,L|249:303,1,52.5,2|0,0:0|0:0,0:0:0:0:
306,264,26012,6,0,B|414:287|368:296|533:340,1,210,6|8,3:0|0:0,0:0:0:0:
493,252,26445,1,4,3:0:0:0:
493,252,26589,1,2,3:0:0:0:
392,187,26733,1,4,3:0:0:0:
382,102,26878,1,10,0:0:0:0:
193,160,27021,2,0,P|252:171|304:187,1,105,2|4,0:0|3:0,0:0:0:0:
463,59,27309,2,0,P|474:118|490:170,1,105,6|8,3:0|0:0,0:0:0:0:
290,302,27599,1,2,0:0:0:0:
290,302,27671,1,2,0:0:0:0:
290,302,27743,6,0,B|215:316,1,52.5,2|0,1:2|0:0,0:0:0:0:
186,368,27886,1,2,0:0:0:0:
12,303,28031,1,10,0:0:0:0:
68,370,28176,2,0,P|80:319|95:269,1,105,6|2,3:3|1:2,0:0:0:0:
36,88,28463,1,6,3:0:0:0:
247,129,28607,2,0,P|195:140|145:155,1,105,10|0,0:2|0:2,0:0:0:0:
15,208,28897,2,0,P|24:168|40:62,1,105,2|0,0:0|1:0,0:0:0:0:
208,11,29184,1,10,0:0:0:0:
266,54,29329,1,2,0:0:0:0:
314,167,29474,6,0,B|419:186|359:198|516:239,1,210,6|8,3:0|0:0,0:0:0:0:
456,142,29907,1,4,3:0:0:0:
456,142,30051,1,2,3:0:0:0:
391,226,30195,1,4,3:0:0:0:
351,336,30338,1,10,0:0:0:0:
274,315,30482,1,2,0:0:0:0:
158,241,30628,1,4,3:0:0:0:
180,314,30772,1,4,3:0:0:0:
30,359,30915,1,10,0:0:0:0:
76,297,31059,1,2,0:0:0:0:
76,297,31131,1,2,0:0:0:0:
76,297,31204,6,0,B|181:277|107:273|284:232,1,210,4|8,1:0|0:0,0:0:0:0:
410,333,31637,1,2,3:3:0:0:
512,243,31781,2,0,P|499:181|489:136,1,105,2|0,0:0|1:0,0:0:0:0:
256,96,32069,2,0,L|145:76,1,105,10|2,0:0|0:0,0:0:0:0:
427,0,32357,2,0,L|411:100,1,105,2|0,0:0|1:0,0:0:0:0:
250,173,32647,1,10,0:0:0:0:
152,77,32790,2,0,L|140:6,1,52.5,2|0,0:0|0:0,0:0:0:0:
256,96,32935,6,0,B|146:114|220:109|20:146,1,210,6|8,3:0|0:0,0:0:0:0:
15,301,33368,1,4,3:0:0:0:
15,301,33512,1,2,3:0:0:0:
116,236,33656,1,4,3:0:0:0:
126,151,33801,1,10,0:0:0:0:
296,241,33944,2,0,P|237:252|185:268,1,105,2|4,0:0|3:0,0:0:0:0:
90,353,34232,2,0,P|101:294|117:242,1,105,6|8,3:0|0:0,0:0:0:0:
258,137,34522,1,2,0:0:0:0:
258,137,34594,1,2,0:0:0:0:
258,137,34666,6,0,B|333:151,1,52.5,2|0,1:2|0:0,0:0:0:0:
391,221,34809,1,2,0:0:0:0:
489,92,34954,1,10,0:0:0:0:
347,3,35099,2,0,P|358:54|373:104,1,105,6|2,3:3|1:2,0:0:0:0:
483,189,35386,1,6,3:0:0:0:
369,328,35530,2,0,P|380:276|395:226,1,105,10|0,0:2|0:2,0:0:0:0:
258,137,35820,2,0,P|218:146|112:162,1,105,2|0,0:0|1:0,0:0:0:0:
61,64,36107,1,14,0:0:0:0:
3,107,36252,1,2,0:0:0:0:
96,288,36396,5,4,1:0:0:0:
288,327,36540,1,2,0:0:0:0:
400,229,36684,1,10,0:0:0:0:
507,220,36830,1,6,3:0:0:0:
408,306,36974,1,2,3:0:0:0:
297,255,37118,1,6,3:0:0:0:
416,288,37261,5,6,1:3:0:0:
224,327,37405,1,2,0:0:0:0:
112,229,37549,1,10,0:0:0:0:
5,220,37695,1,6,3:0:0:0:
104,306,37839,1,10,1:2:0:0:
337,177,37983,1,10,1:2:0:0:
21,361,38127,6,0,P|13:327|0:269,1,52.5,6|0,1:2|0:0,0:0:0:0:
109,309,38271,2,0,B|238:358,1,105,2|8,0:0|0:0,0:0:0:0:
471,351,38560,6,0,P|446:279|377:201,1,157.5,2|0,1:2|0:0,0:0:0:0:
326,183,38848,2,0,B|292:152|350:52|408:60,1,157.5,6|0,3:0|0:0,3:0:0:0:
470,117,39137,5,2,0:0:0:0:
221,92,39281,1,4,3:0:0:0:
469,136,39425,1,4,3:0:0:0:
330,257,39570,2,8,P|287:270|220:267,1,105,10|0,0:0|0:0,0:0:0:0:
27,320,39858,6,0,P|19:286|6:228,1,52.5,2|0,1:2|0:0,0:0:0:0:
49,197,40002,2,0,B|179:246,1,105,2|8,0:0|0:0,0:0:0:0:
262,64,40291,6,0,P|212:48|121:17,1,105,2|0,1:2|0:0,0:0:0:0:
382,117,40579,6,0,P|332:133|241:164,1,105,6|8,3:0|0:0,0:0:0:0:
93,130,40868,5,2,0:0:0:0:
256,177,41012,1,4,3:0:0:0:
469,87,41156,1,4,3:0:0:0:
486,242,41300,6,0,P|437:225|387:209,1,105,10|0,0:0|0:0,0:0:0:0:
189,321,41589,6,0,B|174:345|259:408|342:334|346:248,1,210,6|8,1:2|0:0,0:0:0:0:
108,353,42022,2,0,P|93:326|45:225,1,105,2|0,1:2|0:0,0:0:0:0:
203,211,42310,1,4,3:0:0:0:
165,103,42454,2,8,P|139:148|110:191,1,105,10|0,3:2|0:0,0:0:0:0:
0,208,42743,1,6,3:0:0:0:
51,264,42887,1,4,3:0:0:0:
60,123,43031,2,8,P|34:77|5:35,1,105,10|0,3:2|0:0,0:0:0:0:
188,61,43319,6,0,B|173:37|258:-26|341:48|345:134,1,210,2|8,1:2|0:0,0:0:0:0:
512,111,43752,2,0,P|485:126|384:174,1,105,2|0,1:2|0:0,0:0:0:0:
384,245,44040,1,4,3:0:0:0:
227,129,44184,2,8,P|272:155|315:184,1,105,10|0,3:2|0:0,0:0:0:0:
486,209,44473,1,6,3:0:0:0:
423,168,44617,1,4,3:0:0:0:
298,313,44761,2,8,P|272:267|243:225,1,105,10|0,3:2|0:0,0:0:0:0:
21,23,45050,6,0,P|13:57|0:115,1,52.5,6|0,1:2|0:0,0:0:0:0:
96,132,45194,2,0,B|225:83,1,105,2|8,0:0|0:0,0:0:0:0:
498,33,45483,6,0,P|473:105|404:183,1,157.5,2|0,1:2|0:0,0:0:0:0:
387,85,45771,2,0,B|418:51|518:109|510:167,1,157.5,6|0,3:0|0:0,3:0:0:0:
470,267,46060,5,2,0:0:0:0:
282,361,46204,1,4,3:0:0:0:
494,275,46348,1,4,3:0:0:0:
296,377,46493,2,8,P|293:335|286:267,1,105,10|0,0:0|0:0,0:0:0:0:
27,64,46781,6,0,P|19:98|6:156,1,52.5,2|0,1:2|0:0,0:0:0:0:
49,187,46925,2,0,B|179:138,1,105,2|8,0:0|0:0,0:0:0:0:
166,373,47214,6,0,P|182:323|213:232,1,105,2|0,1:2|0:0,0:0:0:0:
368,257,47502,6,0,P|352:207|321:116,1,105,6|8,3:0|0:0,0:0:0:0:
169,28,47791,5,2,0:0:0:0:
211,187,47935,1,4,3:0:0:0:
375,266,48079,1,4,3:0:0:0:
476,121,48223,6,0,P|493:72|509:22,1,105,10|0,0:0|0:0,0:0:0:0:
262,100,48512,6,8,B|258:128|362:149|406:47|373:-32,1,210,6|8,1:2|0:0,0:0:0:0:
108,31,48945,2,0,P|93:58|45:159,1,105,2|0,1:2|0:0,0:0:0:0:
203,173,49233,1,4,3:0:0:0:
165,281,49377,2,8,P|139:236|110:193,1,105,10|0,3:2|0:0,0:0:0:0:
0,176,49666,1,6,3:0:0:0:
51,120,49810,1,4,3:0:0:0:
60,261,49954,2,8,P|34:307|5:349,1,105,10|0,3:2|0:0,0:0:0:0:
206,357,50242,6,0,B|210:384|316:374|328:264|273:197,1,210,2|8,1:2|0:0,0:0:0:0:
512,273,50675,2,0,P|485:258|384:210,1,105,2|0,1:2|0:0,0:0:0:0:
346,146,50963,1,4,3:0:0:0:
512,90,51107,2,8,P|467:116|424:145,1,105,10|0,3:2|0:0,0:0:0:0:
372,288,51396,1,6,3:0:0:0:
509,181,51540,1,4,3:0:0:0:
272,65,51684,1,10,0:0:0:0:
322,223,51829,1,8,0:0:0:0:
478,8,51973,5,4,1:0:0:0:
187,129,58752,5,2,0:0:0:0:
71,29,58896,2,0,B|73:75|59:89|53:221,1,168,4|8,1:0|0:0,0:0:0:0:
5,256,59329,1,2,3:3:0:0:
133,198,59473,2,0,P|187:209|226:218,1,84,2|0,0:0|1:0,0:0:0:0:
72,297,59762,2,0,P|113:288|154:279,1,84,8|0,0:0|0:0,0:0:0:0:
130,367,60050,2,0,P|171:376|213:384,1,84,2|0,0:0|1:0,0:0:0:0:
386,307,60339,1,10,0:0:0:0:
386,307,60627,2,0,P|450:280|469:161,1,168,6|8,3:0|0:0,0:0:0:0:
406,130,61060,1,4,3:0:0:0:
406,130,61204,1,2,3:0:0:0:
359,197,61348,1,4,3:0:0:0:
256,241,61493,1,10,0:0:0:0:
209,174,61636,1,6,3:0:0:0:
209,174,61781,1,4,3:0:0:0:
71,172,61925,1,4,3:0:0:0:
0,141,62070,1,10,0:0:0:0:
39,72,62214,1,2,0:0:0:0:
39,72,62286,1,2,0:0:0:0:
39,72,62357,6,0,B|85:70|99:84|231:90,1,168,2|8,1:2|0:0,0:0:0:0:
271,41,62790,1,6,3:0:0:0:
447,91,62934,2,0,P|406:100|264:122,1,168,2|8,0:0|0:0,0:0:0:0:
411,233,63512,2,0,P|451:242|503:257,1,84,2|0,0:0|1:0,0:0:0:0:
351,302,63801,1,10,0:0:0:0:
351,302,64089,2,0,P|301:285|205:219,1,168,6|8,3:0|0:0,0:0:0:0:
106,254,64521,1,4,3:0:0:0:
106,254,64665,1,2,3:0:0:0:
146,169,64809,1,4,3:0:0:0:
256,143,64954,1,10,0:0:0:0:
256,143,65242,1,4,3:0:0:0:
343,202,65386,1,4,3:0:0:0:
508,244,65531,1,10,0:0:0:0:
473,312,65675,1,2,0:0:0:0:
473,312,65747,1,2,0:0:0:0:
473,312,65819,6,0,B|475:266|461:252|455:120,1,168,2|8,1:2|0:0,0:0:0:0:
506,86,66252,1,2,3:3:0:0:
379,186,66396,2,0,P|325:175|286:166,1,84,2|0,0:0|1:0,0:0:0:0:
224,266,66685,2,0,P|215:225|206:184,1,84,8|0,0:0|0:0,0:0:0:0:
349,95,66973,2,0,P|358:54|366:12,1,84,2|0,0:0|1:0,0:0:0:0:
111,18,67262,1,10,0:0:0:0:
111,18,67550,2,0,P|195:25|287:63,1,168,6|8,3:0|0:0,0:0:0:0:
409,198,67983,1,4,3:0:0:0:
409,198,68127,1,2,3:0:0:0:
362,265,68271,1,4,3:0:0:0:
259,309,68416,1,10,0:0:0:0:
212,242,68559,1,6,3:0:0:0:
212,242,68704,1,4,3:0:0:0:
74,240,68848,1,4,3:0:0:0:
2,212,68993,1,10,0:0:0:0:
0,303,69137,1,2,0:0:0:0:
0,303,69209,1,2,0:0:0:0:
0,303,69281,6,0,B|43:316|61:306|190:335,1,168,2|8,1:2|0:0,3:0:0:0:
278,373,69714,1,6,3:0:0:0:
332,323,69857,2,0,P|326:298|313:213,1,84,2|0,0:0|0:0,0:0:0:0:
196,209,70146,2,0,P|190:184|177:99,1,84,10|0,0:0|0:0,0:0:0:0:
316,31,70434,2,0,P|307:71|292:123,1,84,2|0,0:0|1:0,0:0:0:0:
412,211,70723,1,10,0:0:0:0:
412,211,71011,2,0,P|462:194|479:85,1,168,6|8,3:0|0:0,0:0:0:0:
397,70,71445,1,4,3:0:0:0:
397,70,71589,1,2,3:0:0:0:
321,120,71733,1,4,3:0:0:0:
249,234,71878,1,10,0:0:0:0:
249,234,72166,1,4,3:0:0:0:
169,182,72310,1,4,3:0:0:0:
0,184,72455,1,14,0:0:0:0:
39,72,72599,1,2,0:0:0:0:
39,72,72671,1,2,0:0:0:0:
39,72,72742,6,0,B|53:147,1,52.5,4|0,1:0|0:0,0:0:0:0:
91,186,72885,1,2,0:0:0:0:
11,275,73030,1,10,0:0:0:0:
189,351,73175,1,2,3:3:0:0:
25,380,73319,1,2,0:0:0:0:
170,256,73463,1,2,1:2:0:0:
94,304,73607,1,10,0:0:0:0:
270,373,73752,2,0,P|273:332|282:268,1,105,2|4,0:0|3:0,0:0:0:0:
434,143,74040,1,0,1:0:0:0:
510,206,74185,1,10,0:0:0:0:
340,203,74328,2,0,L|328:132,1,52.5,2|0,0:0|0:0,0:0:0:0:
253,65,74473,6,0,B|239:140,1,52.5,2|0,1:2|0:0,0:0:0:0:
169,151,74616,1,2,0:0:0:0:
169,151,74761,1,10,0:0:0:0:
330,80,74906,1,4,3:0:0:0:
133,49,75050,1,2,3:0:0:0:
261,202,75194,1,4,3:0:0:0:
201,284,75339,1,10,0:0:0:0:
402,374,75482,2,0,P|391:315|375:263,1,105,2|4,0:0|3:0,0:0:0:0:
115,217,75770,2,0,P|126:158|142:106,1,105,6|8,3:0|0:0,0:0:0:0:
51,270,76059,1,2,0:0:0:0:
51,270,76132,1,2,0:0:0:0:
51,270,76204,6,0,B|-24:284,1,52.5,2|0,1:2|0:0,0:0:0:0:
14,198,76347,1,2,0:0:0:0:
181,284,76492,1,10,0:0:0:0:
299,139,76636,1,2,3:3:0:0:
448,100,76780,1,2,0:0:0:0:
279,256,76924,1,2,1:2:0:0:
194,176,77068,1,10,0:0:0:0:
396,202,77213,2,0,L|500:231,1,105,2|4,0:0|3:0,0:0:0:0:
360,283,77501,1,0,1:0:0:0:
508,152,77646,1,10,0:0:0:0:
368,103,77790,1,2,0:0:0:0:
368,103,77863,1,2,0:0:0:0:
368,103,77934,6,0,P|295:85|232:52,1,105,2|2,1:2|0:0,3:0:0:0:
96,160,78223,1,8,0:0:0:0:
4,129,78368,1,4,3:0:0:0:
4,129,78512,1,2,3:0:0:0:
87,192,78656,1,4,3:0:0:0:
112,321,78801,1,10,0:0:0:0:
184,349,78943,1,2,0:0:0:0:
302,228,79089,1,4,3:0:0:0:
338,297,79233,1,4,3:0:0:0:
485,357,79378,1,10,0:0:0:0:
317,370,79521,1,6,3:0:0:0:
317,370,79593,1,2,0:0:0:0:
317,370,79665,6,0,B|331:295,1,52.5,4|0,1:0|0:0,0:0:0:0:
422,202,79808,1,2,0:0:0:0:
512,161,79953,1,10,0:0:0:0:
323,52,80098,1,2,3:3:0:0:
487,23,80242,1,2,0:0:0:0:
342,147,80386,1,2,1:2:0:0:
139,71,80530,1,10,0:0:0:0:
242,30,80675,2,0,P|239:71|230:135,1,105,2|4,0:0|3:0,0:0:0:0:
78,260,80963,1,0,1:0:0:0:
2,197,81108,1,10,0:0:0:0:
149,148,81251,2,0,L|161:219,1,52.5,2|0,0:0|0:0,0:0:0:0:
259,338,81396,6,0,B|273:263,1,52.5,2|0,1:2|0:0,0:0:0:0:
343,252,81539,1,2,0:0:0:0:
158,330,81684,1,10,0:0:0:0:
359,368,81829,1,4,3:0:0:0:
359,368,81973,1,2,3:0:0:0:
201,255,82117,1,4,3:0:0:0:
56,311,82262,1,10,0:0:0:0:
157,199,82405,2,0,P|146:140|130:88,1,105,2|4,0:0|3:0,0:0:0:0:
383,194,82693,2,0,P|394:253|410:305,1,105,6|8,3:0|0:0,0:0:0:0:
483,127,82982,1,2,0:0:0:0:
483,127,83055,1,2,0:0:0:0:
483,127,83127,6,0,B|408:113,1,52.5,2|0,1:2|0:0,0:0:0:0:
301,166,83270,1,2,0:0:0:0:
133,96,83415,1,10,0:0:0:0:
297,70,83559,1,2,3:3:0:0:
68,221,83703,1,2,0:0:0:0:
5,51,83847,1,2,1:2:0:0:
143,171,83991,1,10,0:0:0:0:
195,41,84136,2,0,L|299:70,1,105,2|4,0:0|3:0,0:0:0:0:
390,39,84424,1,0,1:0:0:0:
217,140,84569,1,10,0:0:0:0:
356,242,84713,1,2,0:0:0:0:
356,242,84785,1,2,0:0:0:0:
356,242,84857,2,0,P|331:189|310:127,1,105,4|2,1:0|0:0,0:0:0:0:
143,320,85146,5,10,0:2:0:0:
49,34,85290,1,2,1:2:0:0:
130,324,85434,5,2,0:2:0:0:
33,40,85579,1,6,3:0:0:0:
146,329,85723,5,10,0:2:0:0:
47,45,85867,1,2,0:2:0:0:
157,315,86011,5,6,3:3:0:0:
56,31,86156,1,2,0:2:0:0:
143,320,86300,5,14,0:2:0:0:
36,30,86444,1,10,0:2:0:0:
27,320,86588,6,0,P|19:286|6:228,1,52.5,6|0,1:2|0:0,0:0:0:0:
152,141,86732,2,0,B|281:190,1,105,2|8,0:0|0:0,0:0:0:0:
471,351,87021,6,0,P|425:302|377:201,1,157.5,2|0,1:2|0:0,0:0:0:0:
375,301,87309,2,0,B|306:316|328:324|218:389,1,157.5,6|0,3:0|0:0,3:0:0:0:
162,343,87598,5,2,0:0:0:0:
267,94,87742,1,4,3:0:0:0:
484,219,87886,1,4,3:0:0:0:
292,312,88031,2,0,P|303:225|306:160,1,105,10|0,0:0|3:0,3:0:0:0:
485,64,88319,6,0,P|493:98|506:156,1,52.5,2|0,1:2|0:0,0:0:0:0:
385,154,88463,2,0,B|255:105,1,105,2|8,0:0|0:0,0:0:0:0:
0,104,88752,6,0,P|50:88|141:57,1,105,2|0,1:2|0:0,0:0:0:0:
138,200,89040,6,0,P|188:216|279:247,1,105,6|8,3:0|0:0,0:0:0:0:
440,224,89329,5,2,0:0:0:0:
256,207,89473,1,4,3:0:0:0:
12,290,89617,1,4,3:0:0:0:
282,314,89761,6,0,P|331:297|381:281,1,105,10|0,0:0|0:0,0:0:0:0:
485,40,90050,6,0,B|379:84|402:34|237:88,1,210,6|8,1:2|0:0,0:0:0:0:
138,200,90483,2,0,P|153:173|201:72,1,105,2|0,1:2|0:0,0:0:0:0:
130,16,90771,1,4,3:0:0:0:
0,46,90915,2,8,P|45:72|88:101,1,105,10|0,3:2|0:0,0:0:0:0:
268,219,91204,1,6,3:0:0:0:
255,149,91348,1,4,3:0:0:0:
88,259,91492,2,8,P|42:285|0:314,1,105,10|0,3:2|0:0,0:0:0:0:
27,40,91781,6,0,B|133:84|110:34|275:88,1,210,2|8,1:2|0:0,0:0:0:0:
374,200,92214,2,0,P|359:173|311:72,1,105,2|0,1:2|0:0,0:0:0:0:
382,16,92502,1,4,3:0:0:0:
512,46,92646,2,8,P|466:72|423:101,1,105,10|0,3:2|0:0,0:0:0:0:
242,222,92935,1,6,3:0:0:0:
216,147,93079,1,4,3:0:0:0:
441,268,93223,2,8,P|455:217|471:167,1,105,10|0,3:2|3:0,3:0:0:0:
337,384,93511,6,0,P|329:350|316:292,1,52.5,6|0,1:2|0:0,0:0:0:0:
160,277,93655,2,0,B|31:228,1,105,2|8,0:0|0:0,0:0:0:0:
166,10,93944,6,0,P|212:59|260:160,1,157.5,2|0,1:2|0:0,0:0:0:0:
305,189,94232,2,0,B|390:227|328:219|462:277,1,157.5,6|0,3:0|0:0,3:0:0:0:
481,202,94521,5,2,0:0:0:0:
277,280,94665,1,4,3:0:0:0:
158,139,94809,1,4,3:0:0:0:
387,184,94954,2,0,P|376:97|373:32,1,105,10|0,0:0|3:0,3:0:0:0:
208,237,95242,6,0,P|174:245|116:258,1,52.5,2|0,1:2|0:0,0:0:0:0:
116,326,95386,2,0,B|-14:277,1,105,2|8,0:0|0:0,0:0:0:0:
365,384,95675,6,0,P|349:334|318:243,1,105,2|0,1:2|0:0,0:0:0:0:
214,241,95963,6,0,P|230:191|261:100,1,105,6|8,3:0|0:0,0:0:0:0:
104,39,96252,5,2,0:0:0:0:
348,125,96396,1,4,3:0:0:0:
473,202,96540,1,4,3:0:0:0:
362,104,96684,6,0,P|345:55|329:5,1,105,10|0,0:0|0:0,0:0:0:0:
485,344,96973,6,0,B|379:300|402:350|237:296,1,210,6|8,1:2|0:0,0:0:0:0:
138,184,97406,2,0,P|153:211|201:312,1,105,2|0,1:2|0:0,0:0:0:0:
130,368,97694,1,4,3:0:0:0:
0,338,97838,2,8,P|45:312|88:283,1,105,10|0,3:2|0:0,0:0:0:0:
268,165,98127,1,6,3:0:0:0:
255,235,98271,1,4,3:0:0:0:
88,125,98415,2,8,P|42:99|0:70,1,105,10|0,3:2|0:0,0:0:0:0:
27,344,98704,6,0,B|133:300|110:350|275:296,1,210,2|8,1:2|0:0,0:0:0:0:
374,184,99137,2,0,P|359:211|311:312,1,105,2|0,1:2|0:0,0:0:0:0:
382,368,99425,1,4,3:0:0:0:
512,338,99569,2,8,P|466:312|423:283,1,105,10|0,3:2|0:0,0:0:0:0:
242,162,99858,1,6,3:0:0:0:
216,237,100002,1,4,3:0:0:0:
441,116,100146,2,8,P|455:167|471:217,1,105,14|0,3:2|3:0,3:0:0:0:
31,123,100434,6,0,P|80:48|217:63,1,241.5,4|0,1:0|0:0,0:0:0:0:
307,243,102165,2,0,P|356:318|493:303,1,241.5,0|0,1:0|0:0,0:0:0:0:
452,53,103896,2,0,P|362:45|269:158,1,241.5,0|0,1:0|0:0,0:0:0:0:
185,345,105627,2,0,P|81:292|62:178,1,241.5,0|0,1:0|0:0,0:0:0:0:
95,29,107357,5,2,1:2:0:0:
89,32,107502,1,2,0:0:0:0:
96,34,107646,1,2,0:0:0:0:
77,106,107790,5,10,0:0:0:0:
62,178,108079,5,2,1:2:0:0:
46,254,108367,5,2,0:0:0:0:
38,260,108511,1,2,1:2:0:0:
45,267,108656,1,2,0:0:0:0:
53,260,108800,1,2,1:2:0:0:
209,40,109088,5,2,1:2:0:0:
203,44,109233,1,2,0:0:0:0:
211,46,109377,1,2,0:0:0:0:
190,125,109521,5,10,0:0:0:0:
173,204,109810,5,2,1:2:0:0:
156,288,110098,5,2,0:0:0:0:
147,295,110242,1,2,1:2:0:0:
155,302,110387,1,2,0:0:0:0:
163,295,110531,1,6,3:0:0:0:
328,65,110819,5,2,1:2:0:0:
321,69,110964,1,2,0:0:0:0:
330,71,111108,1,2,0:0:0:0:
307,158,111252,5,10,0:0:0:0:
288,245,111541,5,2,1:2:0:0:
269,337,111829,5,2,0:0:0:0:
259,345,111973,1,2,1:2:0:0:
268,353,112118,1,2,0:0:0:0:
277,345,112262,1,2,1:2:0:0:
184,369,112406,1,2,1:2:0:0:
307,158,112550,5,14,0:0:0:0:
307,158,113848,6,2,B|346:49|359:92|320:154,1,131.25,0|0,0:0|0:0,0:0:0:0:
386,207,114281,6,0,P|394:241|407:299,1,52.5,6|0,1:2|0:0,0:0:0:0:
512,376,114425,2,0,B|383:327,1,105,2|8,0:0|0:0,0:0:0:0:
41,351,114714,6,0,L|220:317,1,157.5,2|0,1:2|0:0,0:0:0:0:
182,249,115002,2,0,B|121:228|120:229|14:189,1,157.5,6|0,3:0|0:0,3:0:0:0:
39,83,115291,5,2,0:0:0:0:
250,200,115435,1,4,3:0:0:0:
123,374,115579,1,4,3:0:0:0:
250,200,115724,2,0,P|261:113|264:48,1,105,10|0,0:0|3:0,3:0:0:0:
0,19,116012,6,0,P|8:53|21:111,1,52.5,2|0,1:2|0:0,0:0:0:0:
103,0,116156,2,0,B|233:49,1,105,2|8,0:0|0:0,0:0:0:0:
500,167,116445,6,0,P|450:183|360:226,1,105,2|0,1:2|0:0,0:0:0:0:
511,359,116733,6,0,P|463:336|370:312,1,105,6|8,3:0|0:0,0:0:0:0:
79,147,117022,5,2,0:0:0:0:
239,184,117166,1,4,3:0:0:0:
481,262,117310,1,4,3:0:0:0:
391,66,117454,6,0,P|345:88|292:99,1,105,10|0,0:0|0:0,0:0:0:0:
146,311,117743,6,0,B|250:295|159:300|394:263,1,210,6|8,1:2|0:0,0:0:0:0:
82,364,118176,2,0,P|67:337|19:236,1,105,2|0,1:2|0:0,0:0:0:0:
167,94,118464,1,4,3:0:0:0:
0,151,118608,2,8,P|45:177|88:206,1,105,10|0,3:2|0:0,0:0:0:0:
249,377,118897,1,6,3:0:0:0:
268,305,119041,1,4,3:0:0:0:
458,225,119185,2,8,P|412:199|370:170,1,105,10|0,3:2|0:0,0:0:0:0:
511,29,119473,6,0,B|407:45|498:40|263:77,1,210,2|8,1:2|0:0,0:0:0:0:
141,14,119906,2,0,P|156:41|204:142,1,105,2|0,1:2|0:0,0:0:0:0:
56,284,120194,1,4,3:0:0:0:
285,147,120338,2,8,P|240:173|193:205,1,105,10|0,3:2|0:0,0:0:0:0:
105,350,120627,1,6,3:0:0:0:
182,369,120771,1,4,3:0:0:0:
40,193,120915,2,8,P|66:147|95:105,1,105,10|0,3:2|0:0,0:0:0:0:
293,231,121204,6,0,P|327:239|385:252,1,52.5,6|0,1:2|0:0,0:0:0:0:
462,357,121348,2,0,B|413:228,1,105,2|8,0:0|0:0,0:0:0:0:
311,18,121637,6,0,L|490:52,1,157.5,2|0,1:2|0:0,0:0:0:0:
507,116,121925,2,0,B|446:137|445:136|339:176,1,157.5,6|0,3:0|0:0,3:0:0:0:
287,124,122214,5,2,0:0:0:0:
290,364,122358,1,4,3:0:0:0:
495,207,122502,1,4,3:0:0:0:
290,364,122647,2,0,P|301:277|304:212,1,105,10|0,0:0|3:0,3:0:0:0:
100,176,122935,6,0,P|134:168|192:155,1,52.5,2|0,1:2|0:0,0:0:0:0:
45,99,123079,2,0,B|-4:229,1,105,2|8,0:0|0:0,0:0:0:0:
205,62,123368,6,0,P|155:46|65:3,1,105,2|0,1:2|0:0,0:0:0:0:
366,151,123656,6,0,P|318:174|225:198,1,105,6|8,3:0|0:0,0:0:0:0:
64,245,123945,5,2,0:0:0:0:
302,259,124089,1,4,3:0:0:0:
504,298,124233,1,4,3:0:0:0:
179,354,124377,6,0,P|128:344|81:322,1,105,10|0,0:0|0:0,0:0:0:0:
287,99,124666,6,0,B|391:115|300:110|535:147,1,210,6|8,1:2|0:0,0:0:0:0:
430,365,125099,2,0,P|415:338|367:237,1,105,2|0,1:2|0:0,0:0:0:0:
194,206,125387,1,4,3:0:0:0:
481,224,125531,2,8,P|436:198|393:169,1,105,10|0,3:2|0:0,0:0:0:0:
249,7,125820,1,6,3:0:0:0:
268,79,125964,1,4,3:0:0:0:
512,33,126108,2,8,P|466:59|424:88,1,105,14|0,3:2|0:0,0:0:0:0:
512,355,126396,6,0,B|408:339|499:344|264:307,1,210,6|8,1:2|0:0,0:0:0:0:
54,369,126829,2,0,P|69:342|117:241,1,105,2|0,1:2|0:0,0:0:0:0:
56,100,127117,1,4,3:0:0:0:
260,249,127261,2,8,P|234:204|202:157,1,105,10|0,3:2|0:0,0:0:0:0:
11,18,127550,1,6,3:0:0:0:
102,40,127694,1,4,1:3:0:0:
174,310,127838,5,10,0:0:0:0:
512,196,127982,1,8,0:0:0:0:
411,375,128127,6,0,P|394:332|384:271,1,105,6|2,1:2|0:0,0:0:0:0:
475,303,128415,1,10,0:0:0:0:
316,320,128559,2,0,P|333:277|344:101,1,210,2|4,1:2|3:0,0:0:0:0:
456,33,128992,1,8,0:0:0:0:
302,174,129136,2,0,B|191:148|257:143|65:107,1,210,2|0,0:0|1:0,0:0:0:0:
198,1,129569,2,0,B|202:66|208:18|223:140,1,118.125004506111,10|0,0:0|0:0,0:0:0:0:
140,210,129857,6,0,P|97:227|36:237,1,105,2|2,1:2|0:0,0:0:0:0:
101,114,130145,1,10,0:0:0:0:
226,231,130290,2,0,P|217:294|206:365,1,105,6|0,3:0|3:0,3:0:0:0:
475,226,130579,2,0,P|466:163|455:92,1,105,0|8,1:0|0:0,3:0:0:0:
405,307,130867,6,2,B|236:274|168:155|162:63|226:81|223:216|345:233,1,472.5,2|0,0:0|0:0,2:2:0:0:
380,172,131588,6,0,P|363:129|353:68,1,105,6|2,1:2|0:0,0:0:0:0:
475,226,131876,1,10,0:0:0:0:
333,350,132021,2,0,P|270:359|199:370,1,105,6|0,3:0|3:0,3:0:0:0:
408,296,132310,2,0,P|471:305|542:316,1,105,6|8,3:0|0:0,3:0:0:0:
180,300,132598,6,0,P|171:237|160:166,1,105,2|0,0:0|0:0,3:0:0:0:
490,122,132886,2,0,P|481:185|470:256,1,105,2|10,1:2|0:0,3:0:0:0:
74,252,133318,6,0,P|57:209|47:148,1,105,6|2,1:2|0:0,0:0:0:0:
173,50,133606,1,10,0:0:0:0:
285,140,133751,2,0,P|222:131|151:120,1,105,6|0,3:0|3:0,3:0:0:0:
105,17,134040,2,0,P|42:26|-29:37,1,105,6|8,3:0|0:0,3:0:0:0:
183,131,134328,6,2,B|104:398|229:323|297:204|303:112|340:99|443:135,1,472.5,2|0,0:0|0:0,2:2:0:0:
458,214,135050,6,0,B|382:230|382:230|299:162,1,157.5,6|0,1:0|0:0,0:0:0:0:
295,200,135338,1,8,0:0:0:0:
179,28,135482,2,0,B|91:64|146:59|-10:140,1,210,2|4,1:0|3:0,0:0:0:0:
245,72,135915,1,8,0:0:0:0:
119,239,136059,2,0,B|105:137|105:137|124:213|126:214,1,157.5,2|0,0:0|0:0,0:0:0:0:
37,224,136348,1,4,3:0:0:0:
248,326,136492,1,10,0:0:0:0:
248,326,136781,6,0,P|291:343|352:353,1,105,2|2,1:2|0:0,0:0:0:0:
490,238,137069,1,10,0:0:0:0:
367,173,137214,2,0,P|376:236|387:307,1,105,6|0,3:0|3:0,3:0:0:0:
229,129,137503,2,0,P|238:66|249:-5,1,105,0|8,1:0|0:0,3:0:0:0:
0,116,137791,6,2,B|-27:225|120:235|221:-8|194:24|51:36|133:177|248:277,1,472.5,2|0,0:0|0:0,2:2:0:0:
164,305,138512,6,0,P|121:288|60:278,1,105,6|2,1:2|0:0,0:0:0:0:
133,193,138800,1,10,0:0:0:0:
227,343,138945,2,0,P|290:352|361:363,1,105,6|0,3:0|3:0,3:0:0:0:
474,279,139232,2,0,P|411:288|340:299,1,105,6|8,3:0|0:0,3:0:0:0:
214,166,139522,6,0,P|223:103|234:32,1,105,2|0,0:0|0:0,3:0:0:0:
479,87,139810,2,0,P|488:150|499:221,1,105,2|10,1:2|0:0,3:0:0:0:
494,190,140242,6,0,P|451:173|390:163,1,105,6|2,1:2|0:0,0:0:0:0:
187,252,140530,1,10,0:0:0:0:
395,379,140675,2,0,P|404:316|415:245,1,105,6|0,3:0|3:0,3:0:0:0:
214,166,140964,2,0,P|151:175|80:186,1,105,6|8,3:0|0:0,3:0:0:0:
325,318,141252,5,2,1:1:0:0:
231,13,141396,1,2,1:1:0:0:
6,250,141540,1,2,1:1:0:0:
467,182,141684,1,2,1:1:0:0:
