osu file format v14

[General]
AudioFilename: audio.mp3
AudioLeadIn: 0
PreviewTime: 89649
Countdown: 0
SampleSet: Soft
StackLeniency: 1
Mode: 0
LetterboxInBreaks: 0
WidescreenStoryboard: 0

[Editor]
Bookmarks: 12482,33816,57816,68482,79149,89816,111149,121816,146649
DistanceSpacing: 0.95
BeatDivisor: 4
GridSize: 16
TimelineZoom: 1.8

[Metadata]
Title:Aloe Lite
TitleUnicode:Aloe Lite
Artist:Good Kid
ArtistUnicode:Good Kid
Creator:Crowley
Version:Collab Insane
Source:
Tags:Indie Rock English Featured Artist FA Airiesu Mujina Kyuuchie midorijeon jschlatt stan gibee games jiebi
BeatmapID:3527985
BeatmapSetID:1726337

[Difficulty]
HPDrainRate:5
CircleSize:4
OverallDifficulty:8
ApproachRate:9
SliderMultiplier:1.6
SliderTickRate:1

[Events]
//Background and Video events
0,0,"lucylee158.jpg",0,0
//Break Periods
//Storyboard Layer 0 (Background)
//Storyboard Layer 1 (Fail)
//Storyboard Layer 2 (Pass)
//Storyboard Layer 3 (Foreground)
//Storyboard Layer 4 (Overlay)
//Storyboard Sound Samples

[TimingPoints]
149,333.333333333333,4,2,2,45,1,0
149,-100,4,2,2,45,0,0
483,333.333333333333,4,2,2,45,1,0
483,-133.333333333333,4,2,2,45,0,0
1482,-133.333333333333,4,2,2,65,0,0
1816,333.333333333333,4,2,2,75,1,0
1816,-100,4,2,2,75,0,0
2149,-100,4,2,6,75,0,0
2232,-100,4,2,2,75,0,0
2482,-100,4,2,6,75,0,0
2565,-100,4,2,2,75,0,0
2816,-100,4,2,6,75,0,0
2899,-100,4,2,2,75,0,0
3149,-100,4,2,6,75,0,0
3232,-100,4,2,2,75,0,0
3482,-100,4,2,6,75,0,0
3565,-100,4,2,2,75,0,0
3816,-100,4,2,6,75,0,0
3899,-100,4,2,2,75,0,0
4149,-100,4,2,6,75,0,0
4232,-100,4,2,2,75,0,0
4482,-100,4,2,6,75,0,0
4565,-100,4,2,2,75,0,0
4816,-100,4,2,6,75,0,0
4899,-100,4,2,2,75,0,0
5149,-100,4,2,6,75,0,0
5232,-100,4,2,2,75,0,0
5482,-100,4,2,6,75,0,0
5565,-100,4,2,2,75,0,0
5816,-100,4,2,6,75,0,0
5899,-100,4,2,2,75,0,0
6149,-100,4,2,6,75,0,0
6232,-100,4,2,2,75,0,0
6482,-100,4,2,6,75,0,0
6565,-100,4,2,2,75,0,0
6816,-100,4,2,6,75,0,0
6899,-100,4,2,2,75,0,0
7149,-100,4,2,6,75,0,0
7232,-100,4,2,2,75,0,0
7482,-100,4,2,6,75,0,0
7565,-100,4,2,2,75,0,0
7816,-100,4,2,6,75,0,0
7899,-100,4,2,2,75,0,0
8149,-100,4,2,6,75,0,0
8232,-100,4,2,2,75,0,0
8482,-100,4,2,6,75,0,0
8565,-100,4,2,2,75,0,0
8816,-100,4,2,6,75,0,0
8899,-100,4,2,2,75,0,0
9149,-100,4,2,6,75,0,0
9232,-100,4,2,2,75,0,0
9482,-100,4,2,6,75,0,0
9565,-100,4,2,2,75,0,0
9816,-100,4,2,6,75,0,0
9899,-100,4,2,2,75,0,0
10149,-100,4,2,6,75,0,0
10232,-100,4,2,2,75,0,0
10482,-100,4,2,6,75,0,0
10565,-100,4,2,2,75,0,0
10816,-100,4,2,6,75,0,0
10899,-100,4,2,2,75,0,0
11149,-100,4,2,6,75,0,0
11232,-100,4,2,2,75,0,0
11482,-100,4,2,6,75,0,0
11565,-100,4,2,2,75,0,0
11816,-100,4,2,7,75,0,0
11899,-100,4,2,2,75,0,0
12482,-125,4,2,2,65,0,0
23149,-111.111111111111,4,2,2,70,0,0
23482,-111.111111111111,4,2,8,70,0,0
23566,-111.111111111111,4,2,2,70,0,0
23816,-111.111111111111,4,2,8,70,0,0
23900,-111.111111111111,4,2,2,70,0,0
24149,-111.111111111111,4,2,8,70,0,0
24233,-111.111111111111,4,2,2,70,0,0
24482,-111.111111111111,4,2,8,70,0,0
24566,-111.111111111111,4,2,2,70,0,0
24816,-111.111111111111,4,2,8,70,0,0
24900,-111.111111111111,4,2,2,70,0,0
25149,-111.111111111111,4,2,8,70,0,0
25233,-111.111111111111,4,2,2,70,0,0
25482,-111.111111111111,4,2,8,70,0,0
25566,-111.111111111111,4,2,2,70,0,0
25816,-111.111111111111,4,2,8,70,0,0
25900,-111.111111111111,4,2,2,70,0,0
26149,-111.111111111111,4,2,8,70,0,0
26233,-111.111111111111,4,2,2,70,0,0
26482,-111.111111111111,4,2,8,70,0,0
26566,-111.111111111111,4,2,2,70,0,0
26816,-111.111111111111,4,2,8,70,0,0
26900,-111.111111111111,4,2,2,70,0,0
27149,-111.111111111111,4,2,8,70,0,0
27233,-111.111111111111,4,2,2,70,0,0
27482,-111.111111111111,4,2,8,70,0,0
27566,-111.111111111111,4,2,2,70,0,0
27816,-111.111111111111,4,2,8,70,0,0
27900,-111.111111111111,4,2,2,70,0,0
28149,-111.111111111111,4,2,8,70,0,0
28233,-111.111111111111,4,2,2,70,0,0
28482,-111.111111111111,4,2,8,70,0,0
28566,-111.111111111111,4,2,2,70,0,0
28816,-111.111111111111,4,2,8,70,0,0
28900,-111.111111111111,4,2,2,70,0,0
29149,-111.111111111111,4,2,8,70,0,0
29233,-111.111111111111,4,2,2,70,0,0
29482,-111.111111111111,4,2,8,70,0,0
29566,-111.111111111111,4,2,2,70,0,0
29816,-111.111111111111,4,2,8,70,0,0
29900,-111.111111111111,4,2,2,70,0,0
30149,-111.111111111111,4,2,8,70,0,0
30233,-111.111111111111,4,2,2,70,0,0
30482,-111.111111111111,4,2,8,70,0,0
30566,-111.111111111111,4,2,2,70,0,0
30816,-111.111111111111,4,2,8,70,0,0
30900,-111.111111111111,4,2,2,70,0,0
31149,-111.111111111111,4,2,8,70,0,0
31233,-111.111111111111,4,2,2,70,0,0
31482,-111.111111111111,4,2,8,70,0,0
31566,-111.111111111111,4,2,2,70,0,0
31816,-111.111111111111,4,2,8,70,0,0
31900,-111.111111111111,4,2,2,70,0,0
32149,-111.111111111111,4,2,12,70,0,0
32233,-111.111111111111,4,2,2,70,0,0
32482,-111.111111111111,4,2,12,70,0,0
32566,-111.111111111111,4,2,2,70,0,0
32816,-111.111111111111,4,2,6,70,0,0
32900,-111.111111111111,4,2,2,70,0,0
33149,-111.111111111111,4,2,6,70,0,0
33233,-111.111111111111,4,2,2,70,0,0
33815,-100,4,2,2,80,0,1
34149,-100,4,2,6,80,0,1
34232,-100,4,2,2,80,0,1
34482,-100,4,2,6,80,0,1
34565,-100,4,2,2,80,0,1
34816,-100,4,2,6,80,0,1
34899,-100,4,2,2,80,0,1
35149,-100,4,2,6,80,0,1
35232,-100,4,2,2,80,0,1
35482,-100,4,2,6,80,0,1
35565,-100,4,2,2,80,0,1
35816,-100,4,2,6,80,0,1
35899,-100,4,2,2,80,0,1
36149,-100,4,2,6,80,0,1
36232,-100,4,2,2,80,0,1
36482,-100,4,2,6,80,0,1
36565,-100,4,2,2,80,0,1
36816,-100,4,2,6,80,0,1
36899,-100,4,2,2,80,0,1
37149,-100,4,2,6,80,0,1
37232,-100,4,2,2,80,0,1
37482,-100,4,2,6,80,0,1
37565,-100,4,2,2,80,0,1
37816,-100,4,2,6,80,0,1
37899,-100,4,2,2,80,0,1
38149,-100,4,2,6,80,0,1
38232,-100,4,2,2,80,0,1
38482,-100,4,2,6,80,0,1
38565,-100,4,2,2,80,0,1
38816,-100,4,2,6,80,0,1
38899,-100,4,2,2,80,0,1
39149,-100,4,2,6,80,0,1
39232,-100,4,2,2,80,0,1
39482,-100,4,2,6,80,0,1
39565,-100,4,2,2,80,0,1
39816,-100,4,2,6,80,0,1
39899,-100,4,2,2,80,0,1
40149,-100,4,2,6,80,0,1
40232,-100,4,2,2,80,0,1
40482,-100,4,2,6,80,0,1
40565,-100,4,2,2,80,0,1
40816,-100,4,2,6,80,0,1
40899,-100,4,2,2,80,0,1
41149,-100,4,2,6,80,0,1
41232,-100,4,2,2,80,0,1
41482,-100,4,2,6,80,0,1
41565,-100,4,2,2,80,0,1
41816,-100,4,2,6,80,0,1
41899,-100,4,2,2,80,0,1
42149,-100,4,2,6,80,0,1
42232,-100,4,2,2,80,0,1
42482,-100,4,2,6,80,0,1
42565,-100,4,2,2,80,0,1
42816,-100,4,2,6,80,0,1
42899,-100,4,2,2,80,0,1
43149,-100,4,2,6,80,0,1
43232,-100,4,2,2,80,0,1
43482,-100,4,2,6,80,0,1
43565,-100,4,2,2,80,0,1
43816,-100,4,2,6,80,0,1
43899,-100,4,2,2,80,0,1
44816,-100,4,2,6,80,0,1
44899,-100,4,2,2,80,0,1
45149,-100,4,2,6,80,0,1
45232,-100,4,2,2,80,0,1
45482,-100,4,2,6,80,0,1
45565,-100,4,2,2,80,0,1
45816,-100,4,2,6,80,0,1
45899,-100,4,2,2,80,0,1
46149,-100,4,2,6,80,0,1
46232,-100,4,2,2,80,0,1
46482,-100,4,2,6,80,0,1
46565,-100,4,2,2,80,0,1
46816,-100,4,2,6,80,0,1
46899,-100,4,2,2,80,0,1
47149,-100,4,2,6,80,0,1
47232,-100,4,2,2,80,0,1
47482,-100,4,2,6,80,0,1
47565,-100,4,2,2,80,0,1
47816,-100,4,2,6,80,0,1
47899,-100,4,2,2,80,0,1
48149,-100,4,2,6,80,0,1
48232,-100,4,2,2,80,0,1
48482,-100,4,2,6,80,0,1
48565,-100,4,2,2,80,0,1
48816,-100,4,2,6,80,0,1
48899,-100,4,2,2,80,0,1
49149,-100,4,2,7,80,0,1
49232,-100,4,2,2,80,0,1
49482,-100,4,2,6,80,0,1
49565,-100,4,2,2,80,0,1
49816,-100,4,2,6,80,0,1
49899,-100,4,2,2,80,0,1
50149,-100,4,2,6,80,0,1
50232,-100,4,2,2,80,0,1
50482,-100,4,2,6,80,0,1
50565,-100,4,2,2,80,0,1
50816,-100,4,2,6,80,0,1
50899,-100,4,2,2,80,0,1
51149,-100,4,2,6,80,0,1
51232,-100,4,2,2,80,0,1
51482,-100,4,2,6,80,0,1
51565,-100,4,2,2,80,0,1
51816,-100,4,2,6,80,0,1
51899,-100,4,2,2,80,0,1
52149,-100,4,2,6,80,0,1
52232,-100,4,2,2,80,0,1
52482,-100,4,2,6,80,0,1
52565,-100,4,2,2,80,0,1
52816,-100,4,2,6,80,0,1
52899,-100,4,2,2,80,0,1
53149,-100,4,2,6,80,0,1
53232,-100,4,2,2,80,0,1
53482,-100,4,2,6,80,0,1
53565,-100,4,2,2,80,0,1
53816,-100,4,2,6,80,0,1
53899,-100,4,2,2,80,0,1
54149,-100,4,2,6,80,0,1
54232,-100,4,2,2,80,0,1
54482,-100,4,2,7,80,0,1
54565,-100,4,2,2,80,0,1
54982,-100,4,2,6,80,0,1
55065,-100,4,2,2,80,0,1
55316,-100,4,2,12,80,0,1
55399,-100,4,2,2,80,0,1
55482,-100,4,2,12,80,0,1
55565,-100,4,2,2,80,0,1
55649,-100,4,2,12,80,0,1
55732,-100,4,2,2,80,0,1
55816,-100,4,2,12,80,0,1
55899,-100,4,2,2,80,0,1
56149,-100,4,2,2,60,0,0
56315,-133.333333333333,4,2,2,60,0,0
57482,-133.333333333333,4,2,16,75,0,0
57816,-125,4,2,2,65,0,0
58816,-125,4,2,16,65,0,0
58899,-125,4,2,2,65,0,0
59149,-125,4,2,15,65,0,0
59232,-125,4,2,2,65,0,0
59482,-125,4,2,16,65,0,0
59565,-125,4,2,2,65,0,0
59816,-125,4,2,4,65,0,0
59899,-125,4,2,2,65,0,0
60149,-125,4,2,16,65,0,0
60232,-125,4,2,2,65,0,0
60482,-125,4,2,15,65,0,0
60565,-125,4,2,2,65,0,0
60815,-125,4,2,16,65,0,0
60898,-125,4,2,2,65,0,0
61149,-125,4,2,4,65,0,0
61232,-125,4,2,2,65,0,0
61482,-125,4,2,16,65,0,0
61565,-125,4,2,2,65,0,0
61816,-125,4,2,15,65,0,0
61899,-125,4,2,2,65,0,0
62149,-125,4,2,16,65,0,0
62232,-125,4,2,2,65,0,0
62483,-125,4,2,4,65,0,0
62566,-125,4,2,2,65,0,0
62816,-125,4,2,16,65,0,0
62899,-125,4,2,2,65,0,0
63149,-125,4,2,15,65,0,0
63232,-125,4,2,2,65,0,0
63482,-125,4,2,16,65,0,0
63565,-125,4,2,2,65,0,0
63816,-125,4,2,4,65,0,0
63899,-125,4,2,2,65,0,0
64149,-125,4,2,16,65,0,0
64232,-125,4,2,2,65,0,0
64482,-125,4,2,15,65,0,0
64565,-125,4,2,2,65,0,0
64815,-125,4,2,16,65,0,0
64898,-125,4,2,2,65,0,0
65149,-125,4,2,4,65,0,0
65232,-125,4,2,2,65,0,0
65482,-125,4,2,16,65,0,0
65565,-125,4,2,2,65,0,0
65816,-125,4,2,15,65,0,0
65899,-125,4,2,2,65,0,0
66149,-125,4,2,16,65,0,0
66232,-125,4,2,2,65,0,0
66483,-125,4,2,4,65,0,0
66566,-125,4,2,2,65,0,0
66816,-125,4,2,16,65,0,0
66899,-125,4,2,2,65,0,0
67149,-125,4,2,15,65,0,0
67232,-125,4,2,2,65,0,0
67482,-125,4,2,16,65,0,0
67565,-125,4,2,2,65,0,0
67816,-125,4,2,4,65,0,0
67899,-125,4,2,2,65,0,0
68149,-125,4,2,16,65,0,0
68232,-125,4,2,2,65,0,0
79149,-111.111111111111,4,2,2,70,0,0
79482,-111.111111111111,4,2,8,70,0,0
79566,-111.111111111111,4,2,2,70,0,0
79816,-111.111111111111,4,2,8,70,0,0
79900,-111.111111111111,4,2,2,70,0,0
80149,-111.111111111111,4,2,8,70,0,0
80233,-111.111111111111,4,2,2,70,0,0
80482,-111.111111111111,4,2,8,70,0,0
80566,-111.111111111111,4,2,2,70,0,0
80816,-111.111111111111,4,2,8,70,0,0
80900,-111.111111111111,4,2,2,70,0,0
81149,-111.111111111111,4,2,8,70,0,0
81233,-111.111111111111,4,2,2,70,0,0
81482,-111.111111111111,4,2,8,70,0,0
81566,-111.111111111111,4,2,2,70,0,0
81816,-111.111111111111,4,2,8,70,0,0
81900,-111.111111111111,4,2,2,70,0,0
82149,-111.111111111111,4,2,8,70,0,0
82233,-111.111111111111,4,2,2,70,0,0
82482,-111.111111111111,4,2,8,70,0,0
82566,-111.111111111111,4,2,2,70,0,0
82816,-111.111111111111,4,2,8,70,0,0
82900,-111.111111111111,4,2,2,70,0,0
83149,-111.111111111111,4,2,8,70,0,0
83233,-111.111111111111,4,2,2,70,0,0
83482,-111.111111111111,4,2,8,70,0,0
83566,-111.111111111111,4,2,2,70,0,0
83816,-111.111111111111,4,2,8,70,0,0
83900,-111.111111111111,4,2,2,70,0,0
84149,-111.111111111111,4,2,8,70,0,0
84233,-111.111111111111,4,2,2,70,0,0
84482,-111.111111111111,4,2,8,70,0,0
84566,-111.111111111111,4,2,2,70,0,0
84816,-111.111111111111,4,2,8,70,0,0
84900,-111.111111111111,4,2,2,70,0,0
85149,-111.111111111111,4,2,8,70,0,0
85233,-111.111111111111,4,2,2,70,0,0
85482,-111.111111111111,4,2,8,70,0,0
85566,-111.111111111111,4,2,2,70,0,0
85816,-111.111111111111,4,2,8,70,0,0
85900,-111.111111111111,4,2,2,70,0,0
86149,-111.111111111111,4,2,8,70,0,0
86233,-111.111111111111,4,2,2,70,0,0
86482,-111.111111111111,4,2,8,70,0,0
86566,-111.111111111111,4,2,2,70,0,0
86816,-111.111111111111,4,2,8,70,0,0
86900,-111.111111111111,4,2,2,70,0,0
87149,-111.111111111111,4,2,12,70,0,0
87233,-111.111111111111,4,2,2,70,0,0
87482,-111.111111111111,4,2,12,70,0,0
87566,-111.111111111111,4,2,2,70,0,0
87816,-111.111111111111,4,2,12,70,0,0
87900,-111.111111111111,4,2,2,70,0,0
88149,-111.111111111111,4,2,6,70,0,0
88233,-111.111111111111,4,2,2,70,0,0
88482,-111.111111111111,4,2,6,70,0,0
88566,-111.111111111111,4,2,2,70,0,0
88816,-111.111111111111,4,2,6,70,0,0
88900,-111.111111111111,4,2,2,70,0,0
89149,-111.111111111111,4,2,6,70,0,0
89233,-111.111111111111,4,2,2,70,0,0
89815,-99.9999999999999,4,2,2,80,0,1
90149,-99.9999999999999,4,2,6,80,0,1
90232,-99.9999999999999,4,2,2,80,0,1
90482,-99.9999999999999,4,2,6,80,0,1
90565,-99.9999999999999,4,2,2,80,0,1
90816,-99.9999999999999,4,2,6,80,0,1
90899,-99.9999999999999,4,2,2,80,0,1
91149,-99.9999999999999,4,2,6,80,0,1
91232,-99.9999999999999,4,2,2,80,0,1
91482,-99.9999999999999,4,2,6,80,0,1
91565,-99.9999999999999,4,2,2,80,0,1
91816,-99.9999999999999,4,2,6,80,0,1
91899,-99.9999999999999,4,2,2,80,0,1
92149,-99.9999999999999,4,2,6,80,0,1
92232,-99.9999999999999,4,2,2,80,0,1
92482,-99.9999999999999,4,2,6,80,0,1
92565,-99.9999999999999,4,2,2,80,0,1
92816,-99.9999999999999,4,2,6,80,0,1
92899,-99.9999999999999,4,2,2,80,0,1
93149,-99.9999999999999,4,2,6,80,0,1
93232,-99.9999999999999,4,2,2,80,0,1
93482,-99.9999999999999,4,2,6,80,0,1
93565,-99.9999999999999,4,2,2,80,0,1
93816,-99.9999999999999,4,2,6,80,0,1
93899,-99.9999999999999,4,2,2,80,0,1
94149,-99.9999999999999,4,2,6,80,0,1
94232,-99.9999999999999,4,2,2,80,0,1
94482,-99.9999999999999,4,2,6,80,0,1
94565,-99.9999999999999,4,2,2,80,0,1
94816,-99.9999999999999,4,2,6,80,0,1
94899,-99.9999999999999,4,2,2,80,0,1
95149,-99.9999999999999,4,2,6,80,0,1
95232,-99.9999999999999,4,2,2,80,0,1
95482,-99.9999999999999,4,2,6,80,0,1
95565,-99.9999999999999,4,2,2,80,0,1
95816,-99.9999999999999,4,2,6,80,0,1
95899,-99.9999999999999,4,2,2,80,0,1
96149,-99.9999999999999,4,2,6,80,0,1
96232,-99.9999999999999,4,2,2,80,0,1
96482,-99.9999999999999,4,2,6,80,0,1
96565,-99.9999999999999,4,2,2,80,0,1
96816,-99.9999999999999,4,2,6,80,0,1
96899,-99.9999999999999,4,2,2,80,0,1
97149,-99.9999999999999,4,2,6,80,0,1
97232,-99.9999999999999,4,2,2,80,0,1
97482,-99.9999999999999,4,2,6,80,0,1
97565,-99.9999999999999,4,2,2,80,0,1
97816,-99.9999999999999,4,2,6,80,0,1
97899,-99.9999999999999,4,2,2,80,0,1
98149,-99.9999999999999,4,2,6,80,0,1
98232,-99.9999999999999,4,2,2,80,0,1
98482,-99.9999999999999,4,2,6,80,0,1
98565,-99.9999999999999,4,2,2,80,0,1
98816,-99.9999999999999,4,2,6,80,0,1
98899,-99.9999999999999,4,2,2,80,0,1
99149,-99.9999999999999,4,2,6,80,0,1
99232,-99.9999999999999,4,2,2,80,0,1
99482,-99.9999999999999,4,2,6,80,0,1
99565,-99.9999999999999,4,2,2,80,0,1
99816,-99.9999999999999,4,2,6,80,0,1
99899,-99.9999999999999,4,2,2,80,0,1
100149,-99.9999999999999,4,2,6,80,0,1
100232,-99.9999999999999,4,2,2,80,0,1
100816,-99.9999999999999,4,2,6,80,0,1
100899,-99.9999999999999,4,2,2,80,0,1
101149,-99.9999999999999,4,2,6,80,0,1
101232,-99.9999999999999,4,2,2,80,0,1
101482,-99.9999999999999,4,2,6,80,0,1
101565,-99.9999999999999,4,2,2,80,0,1
101816,-99.9999999999999,4,2,6,80,0,1
101899,-99.9999999999999,4,2,2,80,0,1
102149,-99.9999999999999,4,2,6,80,0,1
102232,-99.9999999999999,4,2,2,80,0,1
102482,-99.9999999999999,4,2,6,80,0,1
102565,-99.9999999999999,4,2,2,80,0,1
102816,-99.9999999999999,4,2,6,80,0,1
102899,-99.9999999999999,4,2,2,80,0,1
103149,-99.9999999999999,4,2,6,80,0,1
103232,-99.9999999999999,4,2,2,80,0,1
103482,-99.9999999999999,4,2,6,80,0,1
103565,-99.9999999999999,4,2,2,80,0,1
103816,-99.9999999999999,4,2,6,80,0,1
103899,-99.9999999999999,4,2,2,80,0,1
104149,-99.9999999999999,4,2,6,80,0,1
104232,-99.9999999999999,4,2,2,80,0,1
104482,-99.9999999999999,4,2,6,80,0,1
104565,-99.9999999999999,4,2,2,80,0,1
104816,-99.9999999999999,4,2,6,80,0,1
104899,-99.9999999999999,4,2,2,80,0,1
105149,-99.9999999999999,4,2,6,80,0,1
105232,-99.9999999999999,4,2,2,80,0,1
105482,-99.9999999999999,4,2,6,80,0,1
105565,-99.9999999999999,4,2,2,80,0,1
105816,-99.9999999999999,4,2,6,80,0,1
105899,-99.9999999999999,4,2,2,80,0,1
106149,-99.9999999999999,4,2,6,80,0,1
106232,-99.9999999999999,4,2,2,80,0,1
106482,-99.9999999999999,4,2,6,80,0,1
106565,-99.9999999999999,4,2,2,80,0,1
106816,-99.9999999999999,4,2,6,80,0,1
106899,-99.9999999999999,4,2,2,80,0,1
107149,-99.9999999999999,4,2,6,80,0,1
107232,-99.9999999999999,4,2,2,80,0,1
107482,-99.9999999999999,4,2,6,80,0,1
107565,-99.9999999999999,4,2,2,80,0,1
107816,-99.9999999999999,4,2,6,80,0,1
107899,-99.9999999999999,4,2,2,80,0,1
108149,-99.9999999999999,4,2,6,80,0,1
108232,-99.9999999999999,4,2,2,80,0,1
108482,-99.9999999999999,4,2,6,80,0,1
108565,-99.9999999999999,4,2,2,80,0,1
108816,-99.9999999999999,4,2,6,80,0,1
108899,-99.9999999999999,4,2,2,80,0,1
109149,-99.9999999999999,4,2,6,80,0,1
109232,-99.9999999999999,4,2,2,80,0,1
109482,-99.9999999999999,4,2,6,80,0,1
109565,-99.9999999999999,4,2,2,80,0,1
109816,-99.9999999999999,4,2,6,80,0,1
109899,-99.9999999999999,4,2,2,80,0,1
110149,-99.9999999999999,4,2,6,80,0,1
110232,-99.9999999999999,4,2,2,80,0,1
110482,-99.9999999999999,4,2,7,80,0,1
110565,-99.9999999999999,4,2,2,80,0,1
110982,-111.111111111111,4,2,6,80,0,0
111065,-111.111111111111,4,2,2,80,0,0
111316,-111.111111111111,4,2,12,80,0,0
111399,-111.111111111111,4,2,2,80,0,0
111482,-111.111111111111,4,2,12,80,0,0
111565,-111.111111111111,4,2,2,80,0,0
111649,-111.111111111111,4,2,12,80,0,0
111732,-111.111111111111,4,2,2,80,0,0
111816,-111.111111111111,4,2,12,80,0,0
111899,-111.111111111111,4,2,2,80,0,0
112149,-111.111111111111,4,2,8,65,0,0
112232,-111.111111111111,4,2,2,65,0,0
112482,-111.111111111111,4,2,8,65,0,0
112565,-111.111111111111,4,2,2,65,0,0
112816,-111.111111111111,4,2,8,65,0,0
112899,-111.111111111111,4,2,2,65,0,0
113149,-111.111111111111,4,2,12,65,0,0
113232,-111.111111111111,4,2,2,65,0,0
113649,-111.111111111111,4,2,2,75,0,0
113982,-111.111111111111,4,2,12,75,0,0
114065,-111.111111111111,4,2,2,65,0,0
114149,-111.111111111111,4,2,12,75,0,0
114232,-111.111111111111,4,2,2,65,0,0
114316,-111.111111111111,4,2,12,75,0,0
114399,-111.111111111111,4,2,2,65,0,0
114482,-111.111111111111,4,2,12,75,0,0
114565,-111.111111111111,4,2,2,65,0,0
114816,-111.111111111111,4,2,6,65,0,0
114899,-111.111111111111,4,2,2,65,0,0
115149,-111.111111111111,4,2,6,65,0,0
115232,-111.111111111111,4,2,2,65,0,0
115482,-111.111111111111,4,2,6,65,0,0
115565,-111.111111111111,4,2,2,65,0,0
116316,-111.111111111111,4,2,2,75,0,0
116649,-111.111111111111,4,2,12,75,0,0
116732,-111.111111111111,4,2,2,75,0,0
116816,-111.111111111111,4,2,12,75,0,0
116899,-111.111111111111,4,2,2,75,0,0
116982,-111.111111111111,4,2,12,75,0,0
117065,-111.111111111111,4,2,2,75,0,0
117149,-111.111111111111,4,2,12,75,0,0
117232,-111.111111111111,4,2,2,75,0,0
117482,-111.111111111111,4,2,6,65,0,0
117565,-111.111111111111,4,2,2,65,0,0
117816,-111.111111111111,4,2,6,65,0,0
117899,-111.111111111111,4,2,2,65,0,0
118482,-111.111111111111,4,2,5,65,0,0
118565,-111.111111111111,4,2,2,65,0,0
118982,-111.111111111111,4,2,3,75,0,0
119316,-111.111111111111,4,2,12,75,0,0
119399,-111.111111111111,4,2,2,75,0,0
119482,-111.111111111111,4,2,12,75,0,0
119565,-111.111111111111,4,2,2,75,0,0
119649,-111.111111111111,4,2,12,75,0,0
119732,-111.111111111111,4,2,2,75,0,0
119816,-111.111111111111,4,2,12,75,0,0
119899,-111.111111111111,4,2,2,75,0,0
120149,-111.111111111111,4,2,2,65,0,0
121482,-111.111111111111,4,2,3,75,0,0
121566,-111.111111111111,4,2,2,75,0,0
121816,-111.111111111111,4,2,1,80,0,0
121899,-111.111111111111,4,2,2,80,0,0
122149,-111.111111111111,4,2,3,80,0,0
122482,-111.111111111111,4,2,7,80,0,0
122566,-111.111111111111,4,2,2,80,0,0
122816,-111.111111111111,4,2,6,80,0,0
122900,-111.111111111111,4,2,2,80,0,0
123149,-111.111111111111,4,2,6,80,0,0
123233,-111.111111111111,4,2,2,80,0,0
123482,-111.111111111111,4,2,6,80,0,0
123566,-111.111111111111,4,2,2,80,0,0
123816,-111.111111111111,4,2,6,80,0,0
123900,-111.111111111111,4,2,2,80,0,0
124149,-111.111111111111,4,2,6,80,0,0
124233,-111.111111111111,4,2,2,80,0,0
124482,-111.111111111111,4,2,6,80,0,0
124566,-111.111111111111,4,2,2,80,0,0
124816,-111.111111111111,4,2,6,80,0,0
124900,-111.111111111111,4,2,2,80,0,0
125149,-111.111111111111,4,2,7,80,0,0
125233,-111.111111111111,4,2,2,80,0,0
125482,-111.111111111111,4,2,6,80,0,0
125566,-111.111111111111,4,2,2,80,0,0
125816,-111.111111111111,4,2,6,80,0,0
125900,-111.111111111111,4,2,2,80,0,0
126149,-111.111111111111,4,2,6,80,0,0
126233,-111.111111111111,4,2,2,80,0,0
126482,-111.111111111111,4,2,6,80,0,0
126566,-111.111111111111,4,2,2,80,0,0
126816,-111.111111111111,4,2,6,80,0,0
126900,-111.111111111111,4,2,2,80,0,0
127149,-111.111111111111,4,2,6,80,0,0
127233,-111.111111111111,4,2,2,80,0,0
127482,-111.111111111111,4,2,6,80,0,0
127566,-111.111111111111,4,2,2,80,0,0
127816,-111.111111111111,4,2,7,80,0,0
127900,-111.111111111111,4,2,2,80,0,0
128149,-111.111111111111,4,2,6,80,0,0
128233,-111.111111111111,4,2,2,80,0,0
128482,-111.111111111111,4,2,6,80,0,0
128566,-111.111111111111,4,2,2,80,0,0
128816,-111.111111111111,4,2,6,80,0,0
128900,-111.111111111111,4,2,2,80,0,0
129149,-111.111111111111,4,2,6,80,0,0
129233,-111.111111111111,4,2,2,80,0,0
129482,-111.111111111111,4,2,6,80,0,0
129566,-111.111111111111,4,2,2,80,0,0
129816,-111.111111111111,4,2,6,80,0,0
129900,-111.111111111111,4,2,2,80,0,0
130149,-111.111111111111,4,2,6,80,0,0
130233,-111.111111111111,4,2,2,80,0,0
130482,-111.111111111111,4,2,7,80,0,0
130566,-111.111111111111,4,2,2,80,0,0
130816,-111.111111111111,4,2,6,80,0,0
130900,-111.111111111111,4,2,2,80,0,0
131149,-111.111111111111,4,2,6,80,0,0
131233,-111.111111111111,4,2,2,80,0,0
131482,-111.111111111111,4,2,6,80,0,0
131566,-111.111111111111,4,2,2,80,0,0
131816,-111.111111111111,4,2,6,80,0,0
131900,-111.111111111111,4,2,2,80,0,0
132149,-111.111111111111,4,2,6,80,0,0
132233,-111.111111111111,4,2,2,80,0,0
132816,-111.111111111111,4,2,3,80,0,0
133149,-111.111111111111,4,2,7,80,0,0
133233,-111.111111111111,4,2,2,80,0,0
133482,-111.111111111111,4,2,6,80,0,0
133566,-111.111111111111,4,2,2,80,0,0
133816,-111.111111111111,4,2,6,80,0,0
133900,-111.111111111111,4,2,2,80,0,0
134149,-111.111111111111,4,2,6,80,0,0
134233,-111.111111111111,4,2,2,80,0,0
134482,-111.111111111111,4,2,6,80,0,0
134566,-111.111111111111,4,2,2,80,0,0
134816,-111.111111111111,4,2,6,80,0,0
134900,-111.111111111111,4,2,2,80,0,0
135149,-111.111111111111,4,2,6,80,0,0
135233,-111.111111111111,4,2,2,80,0,0
135482,-111.111111111111,4,2,6,80,0,0
135566,-111.111111111111,4,2,2,80,0,0
135816,-111.111111111111,4,2,7,80,0,0
135900,-111.111111111111,4,2,2,80,0,0
136149,-111.111111111111,4,2,6,80,0,0
136233,-111.111111111111,4,2,2,80,0,0
136482,-111.111111111111,4,2,6,80,0,0
136566,-111.111111111111,4,2,2,80,0,0
136816,-111.111111111111,4,2,6,80,0,0
136900,-111.111111111111,4,2,2,80,0,0
137149,-111.111111111111,4,2,6,80,0,0
137233,-111.111111111111,4,2,2,80,0,0
137482,-111.111111111111,4,2,6,80,0,0
137566,-111.111111111111,4,2,2,80,0,0
137816,-111.111111111111,4,2,6,80,0,0
137900,-111.111111111111,4,2,2,80,0,0
138149,-111.111111111111,4,2,6,80,0,0
138233,-111.111111111111,4,2,2,80,0,0
138482,-111.111111111111,4,2,6,80,0,0
138566,-111.111111111111,4,2,2,80,0,0
138816,-111.111111111111,4,2,6,80,0,0
138900,-111.111111111111,4,2,2,80,0,0
139149,-111.111111111111,4,2,7,80,0,0
139233,-111.111111111111,4,2,2,80,0,0
139482,-111.111111111111,4,2,6,80,0,0
139566,-111.111111111111,4,2,2,80,0,0
139816,-111.111111111111,4,2,6,80,0,0
139900,-111.111111111111,4,2,2,80,0,0
140149,-111.111111111111,4,2,6,80,0,0
140233,-111.111111111111,4,2,2,80,0,0
140482,-111.111111111111,4,2,6,80,0,0
140566,-111.111111111111,4,2,2,80,0,0
140816,-111.111111111111,4,2,6,80,0,0
140900,-111.111111111111,4,2,2,80,0,0
141149,-111.111111111111,4,2,7,80,0,0
141233,-111.111111111111,4,2,2,80,0,0
141482,-111.111111111111,4,2,6,80,0,0
141566,-111.111111111111,4,2,2,80,0,0
141816,-111.111111111111,4,2,6,80,0,0
141900,-111.111111111111,4,2,2,80,0,0
142149,-111.111111111111,4,2,6,80,0,0
142233,-111.111111111111,4,2,2,80,0,0
142482,-111.111111111111,4,2,7,80,0,0
142566,-111.111111111111,4,2,2,80,0,0
142982,-111.111111111111,4,2,6,80,0,0
143066,-111.111111111111,4,2,2,80,0,0
143316,-111.111111111111,4,2,12,80,0,0
143400,-111.111111111111,4,2,2,80,0,0
143482,-111.111111111111,4,2,12,80,0,0
143566,-111.111111111111,4,2,2,80,0,0
143649,-111.111111111111,4,2,12,80,0,0
143733,-111.111111111111,4,2,2,80,0,0
143816,-111.111111111111,4,2,12,80,0,0
143900,-111.111111111111,4,2,2,80,0,0
144149,-111.111111111111,4,2,2,70,0,0
144232,-111.111111111111,4,2,2,50,0,0
144482,-111.111111111111,4,2,2,70,0,0
144565,-111.111111111111,4,2,2,50,0,0
144816,-111.111111111111,4,2,2,70,0,0
144899,-111.111111111111,4,2,2,50,0,0
145149,-111.111111111111,4,2,2,70,0,0
145232,-111.111111111111,4,2,2,50,0,0
145482,-111.111111111111,4,2,2,70,0,0
145649,-111.111111111111,4,2,2,75,0,0
145982,-111.111111111111,4,2,12,75,0,0
146065,-111.111111111111,4,2,2,75,0,0
146482,-111.111111111111,4,2,5,75,0,0

[Colours]
Combo1 : 128,0,255
Combo2 : 192,192,192
Combo3 : 128,128,128
Combo4 : 255,128,192

[HitObjects]
10,168,483,6,0,P|39:161|66:149,1,60.0000022888184,2|0,0:0|0:0,0:0:0:0:
189,0,816,2,0,P|179:28|176:58,1,60.0000022888184,2|0,0:0|0:0,0:0:0:0:
197,200,1149,2,0,P|221:217|241:240,1,60.0000022888184,2|0,0:0|0:0,0:0:0:0:
147,138,1482,1,8,0:0:0:0:
147,138,1566,1,8,0:0:0:0:
147,138,1649,1,8,0:0:0:0:
327,217,1816,6,0,P|393:210|442:125,1,160,14|10,0:1|0:2,0:0:0:0:
476,253,2316,1,2,0:2:0:0:
512,371,2482,2,0,P|483:343|396:334,1,120,10|0,0:1|0:0,0:0:0:0:
392,340,2816,1,8,0:2:0:0:
210,384,2982,6,0,P|137:361|146:264,1,160,10|10,0:1|0:1,0:0:0:0:
247,162,3482,2,0,P|241:218|242:255,1,80,10|2,0:2|0:2,0:0:0:0:
285,320,3816,1,10,0:1:0:0:
148,198,3982,1,2,0:2:0:0:
334,163,4149,2,0,P|328:219|329:256,1,80,10|2,0:2|0:2,0:0:0:0:
223,86,4482,5,10,0:1:0:0:
223,86,4649,1,2,0:2:0:0:
328,242,4816,1,10,0:2:0:0:
403,113,4982,1,2,0:2:0:0:
299,8,5149,2,0,P|304:59|306:108,1,80,10|0,0:1|0:0,0:0:0:0:
413,205,5482,1,8,0:2:0:0:
241,278,5649,6,0,P|178:254|92:301,1,160,10|10,0:1|0:1,0:0:0:0:
330,327,6149,2,0,P|331:268|334:227,1,80,10|2,0:2|0:2,0:0:0:0:
226,98,6482,2,0,P|228:137|228:177,1,80,10|0,0:1|0:0,0:0:0:0:
169,343,6816,1,8,0:2:0:0:
121,184,6982,1,8,0:1:0:0:
14,332,7149,6,0,B|100:313|84:367|175:342,1,160,10|10,0:1|0:2,0:0:0:0:
81,257,7649,1,2,0:2:0:0:
251,374,7816,2,0,P|268:329|249:248,1,120,10|0,0:1|0:0,0:0:0:0:
242,250,8149,1,8,0:2:0:0:
61,112,8316,6,0,P|129:180|197:144,1,160,10|10,0:1|0:1,0:0:0:0:
152,0,8816,2,0,P|134:38|135:78,1,80,10|2,0:2|0:2,0:0:0:0:
284,179,9149,1,10,0:1:0:0:
291,40,9316,1,2,0:2:0:0:
361,108,9482,2,0,P|362:151|364:199,1,80,10|2,0:2|0:2,0:0:0:0:
386,31,9816,5,8,0:1:0:0:
386,31,9982,1,2,0:2:0:0:
235,106,10149,1,10,0:2:0:0:
446,211,10316,1,2,0:2:0:0:
446,211,10482,2,0,P|467:159|479:120,1,80,10|0,0:1|0:0,0:0:0:0:
275,261,10816,1,8,0:2:0:0:
480,341,10982,6,0,P|442:293|326:319,1,160,10|10,0:1|0:1,0:0:0:0:
266,371,11482,2,0,P|319:379|363:389,1,80,10|2,0:2|0:2,0:0:0:0:
200,309,11816,2,0,P|147:301|103:291,1,80,2|8,0:3|0:1,0:0:0:0:
344,218,12149,2,0,P|368:175|373:130,1,80,8|10,0:2|0:1,0:0:0:0:
170,98,12482,6,0,P|179:160|218:210,1,128,14|8,0:1|0:0,0:0:0:0:
218,210,13482,1,8,0:0:0:0:
249,86,13816,2,0,P|255:50|260:9,1,64,10|2,0:1|0:2,0:0:0:0:
258,22,14149,1,8,0:2:0:0:
342,244,14816,1,10,0:2:0:0:
178,345,15149,2,0,P|125:320|61:327,1,96,10|0,0:1|0:0,0:0:0:0:
70,326,15482,1,8,0:2:0:0:
292,160,16149,1,8,0:2:0:0:
84,30,16482,2,0,P|86:77|87:106,1,64,10|0,0:1|0:0,0:0:0:0:
86,93,16816,1,8,0:2:0:0:
405,64,17316,1,8,0:1:0:0:
405,64,17482,2,0,P|363:82|346:98,1,64,8|2,0:2|0:2,0:0:0:0:
491,228,17816,6,0,P|491:152|494:83,1,128,10|8,0:1|0:2,0:0:0:0:
204,234,18816,1,8,0:2:0:0:
423,367,19149,2,0,P|430:323|437:298,1,64,10|2,0:1|0:2,0:0:0:0:
435,304,19482,1,8,0:2:0:0:
188,156,20149,1,10,0:2:0:0:
306,260,20482,2,0,P|337:236|406:229,1,96,10|0,0:1|0:0,0:0:0:0:
410,233,20816,1,8,0:2:0:0:
172,78,21482,1,10,0:2:0:0:
405,142,21816,2,0,P|412:97|420:66,1,64,10|0,0:1|0:0,0:0:0:0:
416,79,22149,1,10,0:2:0:0:
205,234,22649,1,8,0:1:0:0:
204,234,22816,2,0,P|210:265|215:296,1,64,8|0,0:2|0:0,0:0:0:0:
52,378,23149,6,0,P|58:315|56:225,2,143.999995605469,14|10|10,0:1|0:2|0:1,0:0:0:0:
249,152,24149,5,10,0:2:0:0:
161,156,24316,2,0,P|114:156|72:158,1,71.9999978027344,10|2,0:1|0:3,0:0:0:0:
320,206,24649,1,10,0:1:0:0:
320,206,24816,2,0,P|352:239|386:252,1,71.9999978027344,10|0,0:2|0:0,0:0:0:0:
397,166,25149,1,10,0:1:0:0:
397,166,25316,1,10,0:1:0:0:
323,123,25482,1,10,0:2:0:0:
239,305,25649,6,0,P|173:266|96:277,1,143.999995605469,10|10,0:1|0:1,0:0:0:0:
70,366,26149,2,0,P|114:373|153:381,1,71.9999978027344,10|0,0:2|0:0,0:0:0:0:
134,186,26482,1,10,0:1:0:0:
134,186,26649,1,10,0:1:0:0:
42,214,26816,1,10,0:2:0:0:
216,160,26982,6,0,P|231:115|207:13,1,143.999995605469,10|8,0:1|0:1,0:0:0:0:
106,8,27482,2,0,P|111:49|116:88,1,71.9999978027344,8|0,0:2|0:0,0:0:0:0:
315,148,27816,2,0,P|350:143|386:139,1,71.9999978027344,8|8,0:1|0:1,0:0:0:0:
487,18,28149,1,8,0:2:0:0:
401,63,28316,1,10,0:1:0:0:
458,220,28482,5,8,0:1:0:0:
458,220,28649,1,2,0:2:0:0:
313,337,28816,2,0,P|386:341|447:399,2,143.999995605469,10|10|10,0:2|0:1|0:2,0:0:0:0:
211,257,29649,6,0,P|281:253|336:209,1,143.999995605469,10|10,0:1|0:1,0:0:0:0:
228,109,30149,2,0,P|238:154|246:181,1,71.9999978027344,10|0,0:2|0:0,0:0:0:0:
152,318,30482,1,10,0:1:0:0:
152,318,30649,1,10,0:1:0:0:
234,344,30816,1,10,0:2:0:0:
161,190,30982,6,0,B|101:172|77:215|9:192,1,143.999995605469,10|10,0:1|0:1,0:0:0:0:
51,346,31482,2,0,P|60:303|71:264,1,71.9999978027344,10|0,0:2|0:0,0:0:0:0:
49,114,31816,1,10,0:1:0:0:
49,114,31982,1,10,0:1:0:0:
133,88,32149,1,10,0:2:0:0:
214,262,32316,6,0,P|268:231|364:236,1,143.999995605469,10|8,0:1|0:1,0:0:0:0:
418,336,32816,2,0,P|373:324|329:306,1,71.9999978027344,8|0,0:2|0:0,0:0:0:0:
281,374,33149,1,8,0:1:0:0:
267,204,33316,1,8,0:2:0:0:
267,204,33399,1,8,0:2:0:0:
267,204,33482,1,8,0:2:0:0:
427,194,33649,1,8,0:2:0:0:
427,194,33732,1,8,0:2:0:0:
427,194,33816,6,0,P|423:125|404:13,1,160,12|10,0:1|0:2,0:0:0:0:
511,159,34316,1,2,0:2:0:0:
331,117,34482,2,0,P|265:104|222:88,1,80,10|0,0:1|0:0,0:0:0:0:
327,33,34816,1,10,0:2:0:0:
185,171,34982,6,0,P|163:102|194:10,1,160,10|10,0:1|0:1,0:0:0:0:
94,202,35482,2,0,P|97:259|96:298,1,80,8|2,0:2|0:2,0:0:0:0:
260,215,35816,1,10,0:1:0:0:
185,171,35982,1,2,0:2:0:0:
247,302,36149,1,10,0:2:0:0:
338,182,36316,1,2,0:2:0:0:
313,374,36482,6,0,P|241:340|161:340,2,160,10|8|8,0:1|0:2|0:1,0:0:0:0:
313,374,37316,1,0,0:0:0:0:
423,276,37482,1,10,0:2:0:0:
337,144,37649,6,0,P|341:188|346:240,1,80,10|2,0:1|0:3,0:0:0:0:
185,249,37982,2,0,P|141:253|89:258,1,80,10|8,0:1|0:2,0:0:0:0:
237,33,38316,2,0,P|246:112|254:207,1,160,10|10,0:1|0:1,0:0:0:0:
158,98,38816,1,8,0:2:0:0:
337,144,38982,1,2,0:2:0:0:
124,174,39149,6,0,P|67:159|31:112,1,120,8|0,0:1|0:0,0:0:0:0:
32,102,39482,1,10,0:2:0:0:
154,20,39649,1,2,0:2:0:0:
224,227,39816,2,0,P|171:240|131:272,1,80,10|0,0:1|0:0,0:0:0:0:
240,138,40149,1,10,0:2:0:0:
95,316,40316,6,0,P|22:306|15:221,1,160,10|10,0:1|0:1,0:0:0:0:
179,384,40816,2,0,P|227:372|247:341,1,80,8|2,0:2|0:2,0:0:0:0:
92,200,41149,1,10,0:1:0:0:
178,307,41316,1,2,0:2:0:0:
173,146,41482,1,10,0:2:0:0:
95,316,41649,1,2,0:2:0:0:
282,281,41816,6,0,B|359:263|356:316|449:296,2,160,10|8|8,0:1|0:2|0:1,0:0:0:0:
282,281,42649,1,0,0:0:0:0:
433,221,42816,1,10,0:2:0:0:
350,104,42982,6,0,P|355:166|356:195,1,80,10|2,0:1|0:3,0:0:0:0:
306,373,43316,2,0,P|266:376|226:378,1,80,10|8,0:1|0:2,0:0:0:0:
433,221,43649,2,0,P|472:218|512:215,1,80,2|8,0:2|0:1,0:0:0:0:
355,183,43982,1,10,0:2:0:0:
382,314,44149,1,8,0:2:0:0:
444,114,44316,1,10,0:2:0:0:
280,250,44482,6,0,P|215:249|161:192,1,120,12|0,0:1|0:0,0:0:0:0:
168,198,44816,1,10,0:2:0:0:
75,242,44982,1,2,0:2:0:0:
150,383,45149,2,0,P|202:354|235:355,1,80,10|0,0:1|0:0,0:0:0:0:
82,315,45482,1,10,0:2:0:0:
250,176,45649,6,0,P|260:129|202:14,1,160,10|10,0:1|0:1,0:0:0:0:
69,157,46149,2,0,P|121:169|170:187,1,80,8|2,0:2|0:2,0:0:0:0:
84,49,46482,1,10,0:1:0:0:
131,256,46649,1,2,0:2:0:0:
178,108,46816,1,10,0:2:0:0:
29,303,46982,6,0,P|9:246|-10:204,1,80,2|8,0:2|0:1,0:0:0:0:
250,176,47316,2,0,P|234:213|222:250,1,80,2|8,0:2|0:2,0:0:0:0:
115,379,47649,2,0,P|172:333|258:350,1,160,2|0,0:2|0:0,0:0:0:0:
393,267,48149,1,8,0:2:0:0:
348,358,48316,6,0,P|321:305|334:179,1,160,10|10,0:1|0:1,0:0:0:0:
505,335,48816,2,0,P|446:341|407:342,1,80,10|2,0:2|0:2,0:0:0:0:
426,341,49066,1,2,0:2:0:0:
426,341,49149,1,2,0:3:0:0:
408,169,49316,1,10,0:1:0:0:
512,160,49482,1,10,0:2:0:0:
470,246,49649,1,10,0:1:0:0:
361,51,49816,6,0,B|440:42|431:98|519:86,1,160,10|10,0:1|0:2,0:0:0:0:
483,5,50316,1,2,0:2:0:0:
280,105,50482,2,0,P|301:149|386:155,1,120,10|0,0:1|0:0,0:0:0:0:
380,159,50816,1,8,0:2:0:0:
217,51,50982,6,0,P|141:47|119:125,1,160,10|10,0:1|0:1,0:0:0:0:
155,210,51482,2,0,P|220:215|259:224,1,80,10|0,0:2|0:0,0:0:0:0:
301,31,51816,1,10,0:1:0:0:
199,129,51982,1,2,0:2:0:0:
306,266,52149,2,0,P|312:226|313:186,1,80,10|2,0:2|0:2,0:0:0:0:
188,295,52482,5,10,0:1:0:0:
188,295,52649,1,0,0:0:0:0:
346,358,52816,1,10,0:2:0:0:
395,186,52982,1,0,0:0:0:0:
225,115,53149,2,0,P|226:154|232:194,1,80,10|2,0:1|0:2,0:0:0:0:
392,294,53482,1,10,0:2:0:0:
478,134,53649,6,0,P|417:85|313:109,1,160,10|10,0:1|0:1,0:0:0:0:
167,179,54149,1,10,0:2:0:0:
276,140,54316,1,2,0:2:0:0:
175,82,54482,1,2,0:3:0:0:
239,232,54649,1,10,0:1:0:0:
272,57,54816,1,10,0:2:0:0:
99,0,54982,6,0,P|77:92|97:180,1,160,10|10,0:1|0:1,0:0:0:0:
79,247,55482,2,0,P|38:256|-5:269,1,80,10|10,0:2|0:1,0:0:0:0:
221,347,55816,2,0,P|144:328|64:356,1,160,10|2,0:1|0:2,0:0:0:0:
228,236,56316,6,0,B|297:232|296:269|366:258,1,120.000004577637,2|2,0:2|0:2,0:0:0:0:
420,179,56816,2,0,P|382:170|347:165,1,60.0000022888184,2|2,0:2|0:2,0:0:0:0:
397,366,57149,2,0,P|432:308|417:245,1,120.000004577637,2|12,0:2|0:3,0:0:0:0:
134,58,57816,6,0,B|116:130|159:106|134:200,1,128,14|8,0:1|0:2,0:0:0:0:
426,76,58816,1,12,0:3:0:0:
246,27,59149,2,0,P|257:86|266:140,1,96,12|0,0:3|0:0,0:0:0:0:
267,132,59482,1,12,0:3:0:0:
393,227,59816,2,0,P|382:286|373:340,1,96,8|0,0:3|0:0,0:0:0:0:
372,332,60149,1,12,0:3:0:0:
40,366,60482,6,0,P|69:310|141:323,2,128,12|12|8,0:3|0:3|0:3,0:0:0:0:
251,243,61482,1,12,0:3:0:0:
459,150,61816,2,0,P|470:91|479:37,1,96,12|0,0:3|0:0,0:0:0:0:
480,45,62149,1,12,0:3:0:0:
272,348,62482,2,0,P|261:289|252:235,1,96,8|0,0:3|0:0,0:0:0:0:
251,243,62815,1,12,0:3:0:0:
0,53,63149,6,0,P|38:82|128:51,2,128,12|12|8,0:3|0:3|0:3,0:0:0:0:
172,252,64149,1,12,0:3:0:0:
425,57,64482,2,0,P|374:48|317:39,1,96,12|0,0:3|0:0,0:0:0:0:
316,40,64815,1,12,0:3:0:0:
281,235,65149,2,0,P|230:244|173:253,1,96,8|0,0:3|0:0,0:0:0:0:
172,252,65482,1,12,0:3:0:0:
503,208,65816,6,0,P|454:167|391:159,1,128,12|12,0:3|0:3,0:0:0:0:
402,384,66482,2,0,P|442:335|450:272,1,128,8|12,0:3|0:3,0:0:0:0:
303,149,67149,2,0,L|188:133,1,96,12|0,0:3|0:0,0:0:0:0:
191,134,67482,1,12,0:3:0:0:
105,273,67816,1,8,0:3:0:0:
105,273,67982,1,8,0:1:0:0:
37,218,68149,2,0,P|76:189|138:197,1,96,12|2,0:3|0:2,0:0:0:0:
135,185,68482,6,0,B|73:176|80:131|12:130,1,128,14|8,0:1|0:2,0:0:0:0:
303,224,69482,1,8,0:2:0:0:
217,345,69816,2,0,L|208:276,1,64,10|2,0:1|0:2,0:0:0:0:
208,281,70149,1,8,0:2:0:0:
381,134,70816,1,10,0:2:0:0:
501,288,71149,2,0,P|463:259|415:255,1,96,10|0,0:1|0:0,0:0:0:0:
401,262,71482,1,10,0:2:0:0:
463,40,72149,1,8,0:2:0:0:
229,194,72482,2,0,P|236:238|241:268,1,64,8|0,0:1|0:0,0:0:0:0:
239,257,72816,1,8,0:2:0:0:
138,86,73316,1,8,0:1:0:0:
138,86,73482,2,0,P|143:54|148:22,1,64,10|0,0:2|0:0,0:0:0:0:
6,201,73816,6,0,P|49:142|44:61,1,128,10|8,0:1|0:2,0:0:0:0:
126,369,74816,1,8,0:2:0:0:
243,144,75149,2,0,P|185:158|168:177,1,64,10|2,0:1|0:2,0:0:0:0:
183,159,75482,1,8,0:2:0:0:
203,351,76149,1,10,0:2:0:0:
18,291,76482,2,0,P|74:277|121:267,1,96,10|0,0:1|0:0,0:0:0:0:
128,272,76816,1,8,0:2:0:0:
280,333,77482,1,8,0:2:0:0:
260,62,77816,2,0,P|261:114|263:143,1,64,10|0,0:1|0:0,0:0:0:0:
261,125,78149,1,10,0:2:0:0:
400,217,78649,1,8,0:1:0:0:
400,217,78816,2,0,P|431:215|463:215,1,64,8|0,0:2|0:0,0:0:0:0:
335,367,79149,6,0,P|291:359|255:353,1,71.9999978027344,14|0,0:1|0:0,0:0:0:0:
68,270,79482,2,0,P|103:263|138:257,1,71.9999978027344,10|0,0:2|0:0,0:0:0:0:
242,121,79816,2,0,P|228:210|224:252,1,107.999996704102,10|0,0:1|0:0,0:0:0:0:
226,227,80149,1,10,0:2:0:0:
322,286,80316,2,0,P|330:233|332:208,1,71.9999978027344,10|2,0:1|0:3,0:0:0:0:
451,85,80649,1,10,0:1:0:0:
335,22,80816,1,10,0:2:0:0:
369,136,80982,1,8,0:1:0:0:
467,83,81149,6,0,P|460:152|457:182,1,71.9999978027344,10|10,0:1|0:1,0:0:0:0:
405,228,81482,1,10,0:2:0:0:
239,95,81649,2,0,B|191:90|166:123|195:117|162:164|106:160,1,143.999995605469,10|10,0:1|0:1,0:0:0:0:
20,271,82149,2,0,P|69:256|100:256,1,71.9999978027344,10|8,0:2|0:1,0:0:0:0:
279,335,82482,1,10,0:1:0:0:
194,232,82649,1,10,0:1:0:0:
148,374,82816,1,10,0:2:0:0:
303,323,82982,6,0,P|336:310|372:307,1,71.9999978027344,10|2,0:1|0:3,0:0:0:0:
483,221,83316,1,10,0:1:0:0:
379,142,83482,2,0,P|321:161|326:243,1,143.999995605469,10|10,0:2|0:1,0:0:0:0:
468,369,83982,1,10,0:1:0:0:
468,369,84149,2,0,P|456:316|443:288,1,71.9999978027344,8|10,0:2|0:1,0:0:0:0:
398,219,84482,5,8,0:1:0:0:
398,219,84649,1,10,0:1:0:0:
496,67,84816,2,0,P|486:121|485:145,1,71.9999978027344,10|8,0:2|0:1,0:0:0:0:
292,318,85149,2,0,P|277:223|259:165,1,143.999995605469,10|10,0:1|0:2,0:0:0:0:
368,56,85649,2,0,P|357:103|353:133,1,71.9999978027344,10|2,0:1|0:3,0:0:0:0:
156,165,85982,1,10,0:1:0:0:
156,165,86149,2,0,P|167:118|171:88,1,71.9999978027344,10|8,0:2|0:1,0:0:0:0:
64,230,86482,1,10,0:1:0:0:
211,272,86649,1,10,0:1:0:0:
45,224,86816,1,10,0:2:0:0:
138,337,86982,6,0,P|224:315|307:305,1,143.999995605469,10|10,0:1|0:1,0:0:0:0:
478,159,87482,2,0,P|470:208|467:237,1,71.9999978027344,10|8,0:2|0:1,0:0:0:0:
364,344,87816,2,0,P|372:295|375:266,1,71.9999978027344,10|10,0:1|0:1,0:0:0:0:
291,143,88149,1,10,0:2:0:0:
412,86,88316,2,0,P|377:150|297:139,1,143.999995605469,10|8,0:1|0:1,0:0:0:0:
178,36,88816,2,0,P|172:96|169:115,1,71.9999978027344,10|0,0:2|0:0,0:0:0:0:
34,248,89149,5,10,0:1:0:0:
173,210,89316,1,8,0:2:0:0:
173,210,89399,1,8,0:2:0:0:
173,210,89482,1,10,0:2:0:0:
275,311,89649,1,8,0:2:0:0:
275,311,89732,1,8,0:2:0:0:
275,311,89815,5,12,0:1:0:0:
166,355,89982,1,0,0:0:0:0:
264,223,90149,2,0,P|324:230|349:241,1,80,10|2,0:2|0:2,0:0:0:0:
490,80,90482,2,0,P|451:130|362:99,1,160,10|10,0:1|0:2,0:0:0:0:
254,18,90982,6,0,P|252:65|247:108,1,80,10|2,0:1|0:3,0:0:0:0:
94,253,91316,2,0,P|96:206|101:163,1,80,10|8,0:1|0:2,0:0:0:0:
167,98,91649,1,2,0:2:0:0:
4,198,91816,1,10,0:1:0:0:
180,96,91982,1,0,0:0:0:0:
31,45,92149,1,10,0:2:0:0:
182,208,92316,6,0,P|265:190|356:181,1,160,2|0,0:2|0:0,0:0:0:0:
482,87,92816,2,0,P|474:141|472:183,1,80,8|0,0:2|0:0,0:0:0:0:
344,347,93149,2,0,P|352:293|354:251,1,80,8|0,0:1|0:0,0:0:0:0:
229,112,93482,1,10,0:2:0:0:
91,250,93649,6,0,P|41:247|-6:135,1,160,10|10,0:1|0:1,0:0:0:0:
88,83,94149,1,8,0:2:0:0:
88,83,94316,2,0,P|80:145|70:182,1,80,10|2,0:1|0:3,0:0:0:0:
177,304,94649,2,0,P|185:242|195:205,1,80,10|8,0:1|0:2,0:0:0:0:
310,88,94982,2,0,P|302:150|292:187,1,80,10|8,0:1|0:1,0:0:0:0:
410,287,95316,5,0,0:0:0:0:
273,373,95482,1,10,0:2:0:0:
326,257,95649,1,2,0:2:0:0:
437,377,95816,2,0,P|497:316|481:241,1,160,10|10,0:1|0:2,0:0:0:0:
384,89,96316,2,0,P|389:143|422:172,1,80,10|2,0:1|0:3,0:0:0:0:
480,140,96649,2,0,P|475:86|442:57,1,80,10|8,0:1|0:2,0:0:0:0:
348,255,96982,5,2,0:2:0:0:
191,166,97149,1,10,0:1:0:0:
191,166,97316,1,0,0:0:0:0:
299,91,97482,1,10,0:2:0:0:
229,253,97649,1,2,0:2:0:0:
34,63,97816,6,0,P|2:103|18:187,1,120,10|0,0:1|0:0,0:0:0:0:
17,178,98149,2,0,P|69:163|113:159,1,80,8|0,0:2|0:0,0:0:0:0:
309,251,98482,2,0,P|269:257|231:269,1,80,8|0,0:1|0:0,0:0:0:0:
42,295,98816,1,10,0:2:0:0:
130,373,98982,2,0,P|142:274|154:207,1,160,10|10,0:1|0:1,0:0:0:0:
293,85,99482,1,8,0:2:0:0:
189,48,99649,6,0,P|206:112|209:137,1,80,10|2,0:1|0:3,0:0:0:0:
326,234,99982,1,10,0:2:0:0:
439,120,100149,1,8,0:2:0:0:
289,67,100316,1,10,0:2:0:0:
431,217,100482,2,0,P|488:200|516:198,1,80,12|0,0:1|0:0,0:0:0:0:
381,320,100816,5,10,0:2:0:0:
381,320,100982,1,2,0:2:0:0:
240,200,101149,2,0,P|176:258|200:345,1,160,10|10,0:1|0:2,0:0:0:0:
299,373,101649,2,0,P|286:315|268:279,1,80,10|2,0:1|0:3,0:0:0:0:
77,140,101982,2,0,P|90:198|108:234,1,80,10|8,0:1|0:2,0:0:0:0:
198,86,102316,1,2,0:2:0:0:
331,220,102482,1,10,0:1:0:0:
399,64,102649,1,0,0:0:0:0:
296,131,102816,1,10,0:2:0:0:
438,208,102982,6,0,P|486:190|521:185,1,80,2|8,0:2|0:1,0:0:0:0:
442,342,103316,2,0,P|394:324|359:319,1,80,2|8,0:2|0:2,0:0:0:0:
127,258,103649,2,0,P|169:272|253:202,1,160,2|0,0:2|0:0,0:0:0:0:
385,92,104149,1,8,0:2:0:0:
267,34,104316,6,0,P|285:86|293:132,1,80,10|2,0:1|0:3,0:0:0:0:
169,189,104649,1,10,0:1:0:0:
169,189,104816,2,0,P|151:137|143:91,1,80,10|2,0:2|0:2,0:0:0:0:
146,94,105066,1,0,0:0:0:0:
146,94,105149,1,10,0:1:0:0:
0,231,105316,1,2,0:2:0:0:
38,127,105482,1,10,0:2:0:0:
137,270,105649,6,0,B|237:248|210:340|304:328,1,160,10|0,0:1|0:0,0:0:0:0:
401,175,106149,1,10,0:2:0:0:
288,244,106316,1,2,0:2:0:0:
396,361,106482,2,0,P|389:308|375:270,1,80,10|0,0:1|0:0,0:0:0:0:
294,139,106816,1,8,0:2:0:0:
445,38,106982,6,0,P|492:72|464:180,1,160,10|10,0:1|0:1,0:0:0:0:
375,265,107482,2,0,P|430:250|457:249,1,80,10|0,0:2|0:0,0:0:0:0:
291,179,107816,1,10,0:1:0:0:
188,303,107982,1,2,0:2:0:0:
348,347,108149,1,10,0:2:0:0:
287,166,108316,1,8,0:1:0:0:
173,318,108482,6,0,P|113:304|82:210,1,160,10|10,0:1|0:2,0:0:0:0:
188,99,108982,1,2,0:2:0:0:
74,45,109149,2,0,P|93:107|97:147,1,80,10|0,0:1|0:0,0:0:0:0:
187,210,109482,1,8,0:2:0:0:
335,82,109649,6,0,P|325:139|312:263,1,160,10|10,0:1|0:1,0:0:0:0:
413,352,110149,2,0,P|417:312|424:272,1,80,10|10,0:2|0:1,0:0:0:0:
365,159,110482,1,2,0:3:0:0:
508,96,110649,1,10,0:1:0:0:
459,186,110816,1,10,0:2:0:0:
253,65,110982,6,0,B|209:55|173:109|216:84|175:142|136:137,1,143.999995605469,10|10,0:1|0:1,0:0:0:0:
139,137,111482,1,10,0:2:0:0:
4,94,111649,1,10,0:1:0:0:
100,30,111816,1,10,0:1:0:0:
51,287,112149,5,2,0:3:0:0:
51,287,112482,1,2,0:3:0:0:
51,287,112816,1,2,0:3:0:0:
234,230,113149,1,8,0:2:0:0:
61,120,113316,1,8,0:1:0:0:
118,214,113482,1,8,0:1:0:0:
301,163,113649,6,0,P|284:257|278:312,1,143.999995605469,14|10,0:1|0:1,0:0:0:0:
485,360,114149,1,10,0:1:0:0:
384,235,114316,1,10,0:1:0:0:
323,375,114482,2,0,P|370:356|404:348,1,71.9999978027344,10|0,0:1|0:0,0:0:0:0:
498,159,114816,6,0,P|487:113|483:76,1,71.9999978027344,8|8,0:2|0:1,0:0:0:0:
377,35,115149,2,0,P|388:81|392:118,1,71.9999978027344,8|8,0:2|0:1,0:0:0:0:
301,163,115482,2,0,P|290:117|286:80,1,71.9999978027344,8|8,0:2|0:2,0:0:0:0:
286,92,115732,1,8,0:2:0:0:
286,92,115816,1,8,0:2:0:0:
181,179,115982,1,8,0:1:0:0:
384,235,116149,1,8,0:2:0:0:
242,345,116316,6,0,P|141:317|81:318,1,143.999995605469,14|10,0:1|0:1,0:0:0:0:
4,271,116816,1,10,0:1:0:0:
139,182,116982,1,10,0:1:0:0:
10,105,117149,2,0,P|28:144|39:177,1,71.9999978027344,10|0,0:1|0:0,0:0:0:0:
235,249,117482,6,0,P|243:198|243:175,1,71.9999978027344,8|8,0:2|0:1,0:0:0:0:
357,124,117816,2,0,P|349:175|349:198,1,71.9999978027344,8|8,0:2|0:2,0:0:0:0:
348,195,118066,1,8,0:2:0:0:
348,195,118149,1,8,0:2:0:0:
302,333,118316,1,8,0:1:0:0:
480,290,118482,1,12,0:1:0:0:
427,100,118816,5,8,0:2:0:0:
326,53,118982,2,0,P|340:133|349:202,1,143.999995605469,14|10,0:1|0:1,0:0:0:0:
251,326,119482,2,0,P|239:267|237:241,1,71.9999978027344,10|10,0:1|0:1,0:0:0:0:
114,172,119816,2,0,P|126:231|128:257,1,71.9999978027344,10|0,0:1|0:0,0:0:0:0:
416,341,121482,5,10,0:3:0:0:
369,43,121816,6,0,P|374:81|447:103,1,107.999996704102,14|0,0:1|0:0,0:0:0:0:
455,125,122149,2,0,P|412:134|384:145,1,71.9999978027344,14|0,0:2|0:0,0:0:0:0:
279,280,122482,2,0,P|312:267|348:260,1,71.9999978027344,2|10,0:3|0:1,0:0:0:0:
449,310,122816,1,8,0:2:0:0:
242,375,122982,6,0,P|193:365|160:266,1,143.999995605469,10|10,0:1|0:1,0:0:0:0:
243,177,123482,1,10,0:2:0:0:
54,95,123649,2,0,P|65:143|71:183,1,71.9999978027344,2|10,0:0|0:1,0:0:0:0:
165,204,123982,1,2,0:2:0:0:
165,204,124149,2,0,P|154:156|148:116,1,71.9999978027344,10|0,0:2|0:0,0:0:0:0:
409,151,124482,5,10,0:1:0:0:
257,60,124649,1,8,0:1:0:0:
349,33,124816,2,0,P|331:116|322:183,1,143.999995605469,10|2,0:2|0:3,0:0:0:0:
263,364,125316,1,2,0:2:0:0:
176,238,125482,1,8,0:2:0:0:
102,352,125649,2,0,P|165:331|186:330,1,71.9999978027344,10|2,0:1|0:3,0:0:0:0:
340,277,125982,5,10,0:1:0:0:
340,277,126149,2,0,P|304:270|271:255,1,71.9999978027344,10|0,0:2|0:0,0:0:0:0:
56,187,126482,1,10,0:1:0:0:
193,97,126649,1,10,0:1:0:0:
84,54,126816,2,0,P|102:99|109:125,1,71.9999978027344,10|2,0:2|0:2,0:0:0:0:
184,223,127149,6,0,P|172:306|168:352,1,107.999996704102,10|0,0:1|0:0,0:0:0:0:
179,346,127482,2,0,P|230:333|257:331,1,71.9999978027344,10|0,0:2|0:0,0:0:0:0:
410,262,127816,2,0,P|374:266|339:276,1,71.9999978027344,2|2,0:3|0:2,0:0:0:0:
268,162,128149,1,8,0:2:0:0:
419,27,128316,6,0,B|436:67|392:103|393:86|368:108|379:165,1,143.999995605469,10|10,0:1|0:1,0:0:0:0:
487,231,128816,2,0,P|473:188|469:162,1,71.9999978027344,10|0,0:2|0:0,0:0:0:0:
263,68,129149,2,0,P|277:111|281:137,1,71.9999978027344,10|10,0:1|0:1,0:0:0:0:
180,297,129482,2,0,P|166:254|162:228,1,71.9999978027344,10|2,0:2|0:2,0:0:0:0:
19,52,129816,6,0,P|40:94|124:94,1,107.999996704102,10|0,0:1|0:0,0:0:0:0:
112,98,130149,2,0,P|151:87|189:80,1,71.9999978027344,10|0,0:2|0:0,0:0:0:0:
350,120,130482,2,0,P|314:127|280:136,1,71.9999978027344,2|2,0:3|0:2,0:0:0:0:
161,227,130816,1,8,0:2:0:0:
289,331,130982,6,0,P|369:310|442:298,1,143.999995605469,10|10,0:1|0:1,0:0:0:0:
512,263,131482,1,10,0:2:0:0:
362,199,131649,1,0,0:0:0:0:
481,114,131816,2,0,P|466:175|465:196,1,71.9999978027344,10|2,0:1|0:2,0:0:0:0:
445,369,132149,2,0,P|440:333|429:299,1,71.9999978027344,10|0,0:2|0:0,0:0:0:0:
309,123,132482,5,14,0:1:0:0:
370,206,132649,1,2,0:2:0:0:
404,81,132816,1,14,0:2:0:0:
247,211,132982,1,2,0:2:0:0:
429,299,133149,2,0,P|379:308|346:322,1,71.9999978027344,2|0,0:3|0:0,0:0:0:0:
159,268,133482,1,8,0:2:0:0:
236,380,133649,6,0,P|256:297|258:234,1,143.999995605469,10|10,0:1|0:1,0:0:0:0:
142,162,134149,1,10,0:2:0:0:
280,92,134316,1,2,0:2:0:0:
180,32,134482,2,0,P|195:81|197:113,1,71.9999978027344,10|8,0:1|0:1,0:0:0:0:
323,176,134816,1,8,0:2:0:0:
323,176,134982,1,2,0:2:0:0:
151,299,135149,6,0,P|212:289|260:341,1,107.999996704102,10|0,0:1|0:0,0:0:0:0:
256,332,135482,2,0,P|300:320|336:314,1,71.9999978027344,8|0,0:2|0:0,0:0:0:0:
445,142,135816,1,2,0:3:0:0:
331,193,135982,1,2,0:2:0:0:
485,239,136149,1,10,0:2:0:0:
430,377,136316,6,0,P|411:313|402:223,1,143.999995605469,10|10,0:1|0:1,0:0:0:0:
279,87,136816,1,10,0:2:0:0:
380,39,136982,2,0,P|364:101|362:132,1,71.9999978027344,2|8,0:2|0:1,0:0:0:0:
231,230,137316,1,10,0:1:0:0:
231,230,137482,2,0,P|225:194|214:160,1,71.9999978027344,10|8,0:2|0:1,0:0:0:0:
85,20,137816,5,10,0:1:0:0:
3,74,137982,2,0,P|-7:125|59:188,1,143.999995605469,2|2,0:2|0:2,0:0:0:0:
138,122,138482,1,10,0:1:0:0:
300,213,138649,2,0,P|247:222|223:234,1,71.9999978027344,10|8,0:1|0:2,0:0:0:0:
59,303,138982,1,10,0:1:0:0:
139,212,139149,1,2,0:3:0:0:
228,318,139316,2,0,P|194:305|158:301,1,71.9999978027344,10|8,0:1|0:2,0:0:0:0:
18,170,139649,5,2,0:2:0:0:
157,77,139816,1,10,0:1:0:0:
53,36,139982,2,0,P|72:88|77:116,1,71.9999978027344,2|8,0:2|0:2,0:0:0:0:
154,182,140316,1,2,0:2:0:0:
262,19,140482,6,0,P|306:40|307:120,1,107.999996704102,10|0,0:1|0:0,0:0:0:0:
298,111,140816,2,0,P|310:165|311:188,1,71.9999978027344,10|0,0:2|0:0,0:0:0:0:
441,282,141149,2,0,P|429:228|428:205,1,71.9999978027344,2|2,0:3|0:2,0:0:0:0:
503,127,141482,1,10,0:2:0:0:
342,281,141649,6,0,B|269:257|278:350|207:341,1,143.999995605469,10|10,0:1|0:1,0:0:0:0:
33,269,142149,1,10,0:2:0:0:
204,202,142316,1,0,0:0:0:0:
72,147,142482,1,2,0:3:0:0:
136,331,142649,1,10,0:1:0:0:
64,131,142816,1,10,0:2:0:0:
255,60,142982,6,0,P|239:162|231:233,1,143.999995605469,10|10,0:1|0:1,0:0:0:0:
405,350,143482,1,10,0:1:0:0:
262,303,143649,1,10,0:1:0:0:
382,185,143816,2,0,P|369:232|362:260,1,71.9999978027344,10|0,0:1|0:0,0:0:0:0:
114,360,144149,5,8,0:2:0:0:
68,352,144232,1,8,0:2:0:0:
34,318,144316,1,8,0:2:0:0:
23,272,144399,1,8,0:2:0:0:
45,230,144482,2,0,P|71:234|92:241,3,35.9999989013672,8|8|8|8,0:2|0:2|0:2|0:2,0:0:0:0:
158,176,144816,2,0,P|175:171|193:169,3,35.9999989013672,8|8|8|8,0:2|0:2|0:2|0:2,0:0:0:0:
333,236,145149,5,8,0:2:0:0:
336,218,145232,1,8,0:2:0:0:
339,200,145316,1,8,0:2:0:0:
342,182,145399,1,8,0:2:0:0:
345,164,145482,2,0,P|349:133|353:109,1,35.9999989013672,8|8,0:2|0:2,0:0:0:0:
322,11,145649,6,0,P|274:20|258:103,1,143.999995605469,14|10,0:1|0:1,0:0:0:0:
440,206,146149,1,10,0:2:0:0:
251,265,146316,1,10,0:1:0:0:
455,201,146482,1,14,0:1:0:0:
