osu file format v14

[General]
AudioFilename: audio.ogg
AudioLeadIn: 0
PreviewTime: 105661
Countdown: 0
SampleSet: Soft
StackLeniency: 0.5
Mode: 0
LetterboxInBreaks: 0
WidescreenStoryboard: 1

[Editor]
Bookmarks: 53,26283,32313,47991,51910,57337,71808
DistanceSpacing: 1.2
BeatDivisor: 4
GridSize: 4
TimelineZoom: 2.679999

[Metadata]
Title:Latitudes
TitleUnicode:Latitudes
Artist:Good Game
ArtistUnicode:Good Game
Creator:shime
Version:hard
Source:
Tags:english math rock emo progressive don't dont blow it. it fackel announcerf q1x q1x_ 0pp 0ppinosu oppinosu opp riffy bakari
BeatmapID:3934458
BeatmapSetID:1907943

[Difficulty]
HPDrainRate:4
CircleSize:3.6
OverallDifficulty:6
ApproachRate:8.2
SliderMultiplier:1.3
SliderTickRate:1

[Events]
//Background and Video events
0,0,"bg.jpg",0,0
//Break Periods
2,48202,54897
2,106393,107248
2,122675,124770
2,125690,127785
2,128705,130800
2,131720,136830
//Storyboard Layer 0 (Background)
//Storyboard Layer 1 (Fail)
//Storyboard Layer 2 (Pass)
//Storyboard Layer 3 (Foreground)
//Storyboard Layer 4 (Overlay)
//Storyboard Sound Samples

[TimingPoints]
63,301.507537688442,4,2,1,65,1,0
63,-100,4,2,1,65,0,0
1269,301.507537688442,6,2,1,65,1,0
4887,301.507537688442,4,2,1,65,1,0
7299,301.507537688442,5,2,1,65,1,0
7299,-133.333333333333,5,2,1,65,0,0
8957,-100,5,2,1,65,0,0
10314,301.507537688442,4,2,1,65,1,0
10314,-100,4,2,1,65,0,0
15138,-100,7,2,1,65,0,0
16645,-100,7,2,1,30,0,0
17248,301.507537688442,5,2,1,65,1,0
17248,-100,5,2,1,65,0,0
18756,301.507537688442,4,2,1,65,1,0
20263,-100,3,2,1,65,0,0
21168,-100,4,2,1,65,0,0
22374,301.507537688442,5,2,1,65,1,0
22374,-100,5,2,1,65,0,0
23882,301.507537688442,4,2,1,65,1,0
23882,-100,4,2,1,65,0,0
25389,-100,4,2,1,30,0,0
26294,-90.9090909090909,5,2,1,55,0,0
29233,-90.9090909090909,5,2,1,70,0,0
29309,-90.9090909090909,5,2,1,70,0,0
30364,-90.9090909090909,5,2,1,40,0,0
31721,-100,5,2,1,55,0,0
32173,-100,5,2,1,65,0,0
32324,-100,4,2,1,65,0,0
47098,-100,4,2,1,55,0,0
47550,-100,4,2,1,45,0,0
48002,-100,4,2,1,40,0,0
50414,301.507537688442,3,2,1,45,1,0
50414,-100,5,2,1,45,0,0
51319,301.507537688442,4,2,1,45,1,0
51922,-100,6,2,1,45,0,0
53427,324.324324324324,4,2,1,45,1,0
53427,-100,6,2,1,45,0,0
53751,307.692307692307,4,2,1,45,1,0
53751,-100,4,2,1,45,0,0
54366,319.148936170212,4,2,1,45,1,0
54366,-100,4,2,1,45,0,0
54897,311.203319502075,4,2,1,45,1,0
54897,-100,4,2,1,45,0,0
56142,301.507537688442,4,2,1,35,1,0
56142,-100,4,2,1,35,0,0
56443,-100,4,2,1,45,0,0
56745,-100,4,2,1,55,0,0
57348,-128.205128205128,7,2,1,45,0,0
59610,301.507537688442,4,2,1,45,1,0
59610,-117.647058823529,6,2,1,45,0,0
59911,301.507537688442,4,2,1,45,1,0
59911,-117.647058823529,4,2,1,45,0,0
63379,301.507537688442,4,2,1,45,1,0
63379,-100,4,2,1,45,0,0
63680,-117.647058823529,4,2,1,45,0,0
64585,301.507537688442,5,2,1,45,1,0
64585,-117.647058823529,5,2,1,45,0,0
67600,301.507537688442,7,2,1,65,1,0
67600,-100,7,2,1,65,0,0
67750,-117.647058823529,7,2,1,65,0,0
71821,301.507537688442,4,2,1,65,1,0
71821,-100,5,2,1,65,0,0
83882,301.507537688442,5,2,1,65,1,0
83957,-100,5,2,2,65,0,0
86595,-100,5,2,1,65,0,0
86821,-100,5,2,2,65,0,0
86897,301.507537688442,7,2,1,75,1,0
86897,-100,7,2,1,75,0,0
88856,-100,7,2,1,75,0,0
91118,301.507537688442,4,2,1,75,1,0
91118,-90.9090909090909,4,2,1,75,0,0
93379,-90.9090909090909,4,2,1,65,0,0
95791,-90.9090909090909,4,2,1,75,0,0
101821,-90.9090909090909,4,2,1,65,0,0
104233,-90.9090909090909,4,2,1,75,0,0
104384,301.507537688442,6,2,1,60,1,0
104384,-100,6,2,1,60,0,0
104534,-100,6,2,1,60,0,0
106193,301.507537688442,7,2,2,45,1,0
106193,-100,7,2,2,45,0,0
108002,-100,7,2,1,60,0,0
108304,301.507537688442,4,2,1,75,1,0
108304,-90.9090909090909,4,2,1,75,0,0
110716,301.507537688442,5,2,1,65,1,0
110716,-100,5,2,1,65,0,0
110942,-100,5,2,1,85,0,0
112223,301.507537688442,4,2,1,80,1,0
112223,-90.9090909090909,6,2,1,80,0,0
114032,-90.9090909090909,6,2,1,65,0,0
114182,-90.9090909090909,6,2,1,65,0,0
115841,-100,4,2,1,65,0,0
115991,-90.9090909090909,4,2,1,65,0,0
120665,-100,6,2,1,55,0,0
122475,301.507537688442,4,2,1,65,1,0
122475,-100,4,2,1,65,0,0
123681,301.507537688442,6,2,1,50,1,0
123681,-100,6,2,1,50,0,0
125490,301.507537688442,4,2,1,50,1,0
125490,-100,4,2,1,50,0,0
126696,301.507537688442,6,2,1,50,1,0
126696,-100,6,2,1,50,0,0
128505,301.507537688442,4,2,2,65,1,0
128505,-100,4,2,2,65,0,0
129711,301.507537688442,6,2,2,50,1,0
129711,-100,6,2,2,50,0,0
131520,301.507537688442,4,2,2,65,1,0
131520,-100,4,2,2,65,0,0
132726,301.507537688442,6,2,2,50,1,0
132726,-100,6,2,2,50,0,0
134535,301.507537688442,4,2,2,50,1,0
134535,-100,4,2,2,50,0,0
135741,301.507537688442,6,2,2,50,1,0
135741,-100,6,2,2,50,0,0
137550,301.507537688442,5,2,0,55,1,0
137550,-100,5,2,0,55,0,0
137851,-111.111111111111,5,2,0,55,0,0
140565,-100,5,2,1,60,0,0
146595,301.507537688442,4,2,1,55,1,0
146595,-111.111111111111,4,2,1,55,0,0
147801,301.507537688442,6,2,1,55,1,0
147801,-111.111111111111,6,2,1,55,0,0
149610,301.507537688442,4,2,1,55,1,0
149610,-111.111111111111,4,2,1,55,0,0
150816,301.507537688442,6,2,1,55,1,0
150816,-111.111111111111,6,2,1,55,0,0
152625,301.507537688442,5,2,1,60,1,0
152625,-100,5,2,1,60,0,0
161670,-100,5,2,1,55,0,0
161971,-111.111111111111,5,2,1,55,0,0
164686,301.507537688442,4,2,1,60,1,0
164686,-111.111111111111,4,2,1,60,0,0
165892,301.507537688442,6,2,1,60,1,0
165892,-111.111111111111,6,2,1,60,0,0
167701,301.507537688442,4,2,1,60,1,0
167701,-111.111111111111,4,2,1,60,0,0
168907,301.507537688442,6,2,1,60,1,0
168907,-111.111111111111,6,2,1,60,0,0
170716,301.507537688442,5,2,1,65,1,0
170716,-100,5,2,1,65,0,0
180062,-111.111111111111,5,2,1,65,0,0
182776,301.507537688442,4,2,2,65,1,0
182776,-100,4,2,2,65,0,0
190012,-100,4,2,2,20,0,0

[Colours]
Combo1 : 193,150,106
Combo2 : 172,156,153
Combo3 : 198,184,176
Combo4 : 161,145,130
Combo5 : 139,119,105
Combo6 : 115,86,68
Combo7 : 145,92,57
Combo8 : 147,113,85

[HitObjects]
439,83,63,53,14,0:0:0:0:
381,135,213,2,0,P|351:132|311:132,1,65,8|2,0:0|0:3,0:0:0:0:
268,66,515,2,0,P|228:105|157:95,1,130,8|0,0:0|3:0,0:0:0:0:
101,46,967,1,8,0:0:0:0:
29,184,1269,102,0,P|34:222|36:269,1,65,8|0,0:0|3:0,0:0:0:0:
104,295,1570,1,8,0:0:0:0:
104,295,1721,2,0,P|130:270|131:222,2,65,0|2|8,3:0|0:3|0:0,0:0:0:0:
240,371,2324,1,10,0:0:0:0:
390,331,2625,86,0,P|398:270|416:184,1,130,10|10,0:0|0:0,0:0:0:0:
333,210,3078,2,0,P|302:229|260:222,1,65,0|0,3:0|3:0,0:0:0:0:
233,161,3379,1,8,0:0:0:0:
110,258,3681,5,2,0:3:0:0:
13,135,3982,1,2,0:3:0:0:
133,35,4284,102,0,L|139:-16,2,32.5,8|8|8,0:0|0:0|0:0,0:0:0:0:
99,108,4585,2,0,P|103:141|105:197,1,65,8|2,0:0|0:3,0:0:0:0:
155,238,4887,1,8,0:0:0:0:
223,187,5037,22,0,P|280:190|319:274,1,130,2|2,0:2|0:2,0:0:0:0:
371,319,5490,2,0,P|335:323|294:330,1,65,2|2,3:0|0:2,0:0:0:0:
238,370,5791,1,6,0:3:0:0:
238,370,5866,1,4,0:3:0:0:
238,370,5942,1,2,0:2:0:0:
163,322,6093,6,0,P|108:326|15:337,1,130,2|10,3:2|0:0,0:0:0:0:
4,267,6545,1,0,0:0:0:0:
4,267,6696,2,0,P|7:227|11:180,2,65,10|0|2,0:0|0:0|0:3,0:0:0:0:
0,33,7299,22,0,P|50:111|151:114,1,195,6|0,3:2|0:0,0:0:0:0:
260,173,8203,1,8,0:0:0:0:
410,94,8655,37,10,0:3:0:0:
410,94,8731,1,8,0:3:0:0:
410,94,8806,1,14,0:2:0:0:
339,42,8957,2,0,P|353:103|358:192,1,130,10|0,0:2|0:0,0:0:0:0:
427,206,9409,6,0,P|459:224|499:230,1,65,2|0,0:3|3:2,0:0:0:0:
364,264,9711,2,0,P|328:264|266:304,1,97.5,8|0,0:2|0:0,0:0:0:0:
245,318,10012,2,0,P|208:311|158:308,1,65,10|0,0:2|3:2,0:0:0:0:
106,365,10314,21,8,0:2:0:0:
106,365,10464,1,0,3:0:0:0:
43,311,10615,2,0,P|33:279|28:237,1,65,2|8,0:3|0:2,0:0:0:0:
98,213,10917,2,0,P|108:176|110:127,1,65,0|8,3:0|0:2,0:0:0:0:
44,107,11218,1,0,3:0:0:0:
196,25,11520,102,0,L|275:18,1,65,10|2,0:2|3:2,0:0:0:0:
328,76,11821,1,8,0:2:0:0:
328,76,11896,1,8,0:2:0:0:
328,76,11972,2,0,P|382:66|444:119,1,130,2|2,3:0|3:2,0:0:0:0:
503,241,12575,1,2,0:3:0:0:
445,311,12726,85,8,0:2:0:0:
445,311,12876,2,0,L|351:325,1,65,8|2,0:2|0:0,0:0:0:0:
318,367,13178,1,0,3:0:0:0:
318,367,13329,2,0,B|253:342|303:299|192:291,1,130,8|10,0:2|0:2,0:0:0:0:
65,331,13932,1,0,3:0:0:0:
82,176,14233,6,0,P|114:184|163:191,1,65,8|8,0:2|0:2,0:0:0:0:
212,228,14535,2,0,L|217:300,1,65,2|0,0:3|3:0,0:0:0:0:
283,174,14836,2,0,L|296:63,1,97.5,8|8,0:2|0:2,0:0:0:0:
264,46,15138,102,0,P|209:55|140:59,2,97.5,0|8|4,3:0|3:0|3:0,0:0:0:0:
357,1,15791,1,8,0:0:0:0:
512,152,16193,1,8,0:0:0:0:
512,152,17248,38,0,P|456:137|371:122,1,130,14|2,0:0|0:3,0:0:0:0:
312,145,17700,1,8,0:0:0:0:
312,145,17851,2,0,P|294:122|301:73,2,65,2|0|8,0:3|3:0|0:0,0:0:0:0:
208,261,18454,2,0,P|175:262|137:269,1,65,8|0,0:0|3:0,0:0:0:0:
66,253,18756,102,0,P|117:240|121:165,1,130,8|2,0:0|0:3,0:0:0:0:
75,107,19208,1,8,0:0:0:0:
75,107,19359,2,0,P|77:70|83:28,1,65,0|10,3:0|0:0,0:0:0:0:
155,3,19660,86,0,P|163:33|169:76,1,65,0|10,3:0|0:0,0:0:0:0:
222,122,19962,2,0,P|209:139|190:152,2,32.5,2|2|10,0:0|0:0|0:0,0:0:0:0:
315,71,20263,1,10,0:0:0:0:
315,71,20338,1,10,0:0:0:0:
315,71,20414,2,0,P|380:80|454:93,1,130,10|6,3:0|3:0,0:0:0:0:
490,244,21017,1,2,3:0:0:0:
432,296,21168,6,0,P|399:303|356:309,1,65,8|8,0:0|0:0,0:0:0:0:
222,357,21620,1,8,0:0:0:0:
222,357,21771,2,0,B|222:283|265:314|262:230,1,130,2|8,0:0|0:0,0:0:0:0:
152,126,22374,102,0,P|99:118|49:187,1,130,8|2,0:0|3:0,0:0:0:0:
83,246,22826,1,0,0:0:0:0:
83,246,22977,2,0,P|120:238|155:236,1,65,8|8,0:0|0:0,0:0:0:0:
195,297,23278,2,0,P|246:313|301:324,1,97.5,0|0,3:0|0:0,0:0:0:0:
313,353,23580,1,0,3:0:0:0:
398,312,23730,21,4,3:0:0:0:
398,312,23806,1,4,3:0:0:0:
398,312,23882,2,0,P|407:249|422:200,2,97.5,10|8|6,3:0|3:0|3:0,0:0:0:0:
309,233,24560,1,8,0:0:0:0:
499,279,24937,1,4,3:0:0:0:
365,45,26294,22,0,P|340:90|246:73,1,143,6|0,3:2|3:2,0:0:0:0:
103,8,26897,1,2,3:2:0:0:
34,58,27047,2,0,P|41:88|46:137,1,71.5,4|0,3:2|0:0,0:0:0:0:
132,156,27349,1,0,3:2:0:0:
132,156,27500,2,0,P|124:184|115:249,1,71.5,0|0,3:2|0:0,0:0:0:0:
173,332,27801,22,0,B|244:321|218:283|306:274,1,143,4|0,3:2|3:2,0:0:0:0:
422,349,28404,1,0,3:2:0:0:
490,297,28555,2,0,P|495:255|509:207,1,71.5,6|0,3:2|0:0,0:0:0:0:
449,166,28856,1,0,3:2:0:0:
449,166,29007,1,0,3:2:0:0:
319,63,29309,101,8,0:0:0:0:
319,63,29459,1,0,3:2:0:0:
415,30,29610,1,8,0:0:0:0:
415,30,29761,1,4,3:2:0:0:
225,159,31721,38,0,P|192:151|144:142,1,65,8|0,0:0|3:0,0:0:0:0:
112,84,32022,1,4,3:0:0:0:
21,141,32173,70,0,P|-19:183|6:252,1,130,4|0,3:2|3:2,0:0:0:0:
36,315,32625,2,0,P|66:308|102:301,1,65,12|0,0:0|0:0,0:0:0:0:
178,303,32927,2,0,B|254:317|217:368|287:390,1,130,2|14,3:0|0:0,0:0:0:0:
332,333,33379,1,2,0:0:0:0:
458,242,33680,6,0,P|460:213|469:164,1,65,2|8,3:2|0:0,0:0:0:0:
423,111,33982,2,0,P|357:123|287:131,1,130,2|2,3:0|3:0,0:0:0:0:
210,182,34434,1,8,0:3:0:0:
210,182,34510,1,8,0:0:0:0:
210,182,34585,1,6,3:2:0:0:
53,103,34887,5,0,3:2:0:0:
139,58,35037,2,0,P|143:98|144:128,1,65,14|0,0:0|3:2,0:0:0:0:
108,194,35339,1,12,0:0:0:0:
108,194,35490,1,0,3:2:0:0:
21,317,35791,54,0,P|37:365|118:379,1,130,6|0,3:2|3:2,0:0:0:0:
167,332,36243,2,0,P|205:325|246:322,1,65,12|0,0:0|3:2,0:0:0:0:
297,364,36545,2,0,P|328:373|366:380,2,65,0|12|0,3:2|0:0|3:2,0:0:0:0:
386,236,37148,54,0,P|390:201|400:153,1,65,12|0,0:0|3:2,0:0:0:0:
467,141,37449,1,0,3:2:0:0:
348,19,37751,101,12,0:0:0:0:
279,56,37902,2,0,P|236:70|212:69,1,65,8|0,0:0|3:2,0:0:0:0:
128,122,38203,102,0,P|95:79|21:89,1,130,4|0,3:2|3:2,0:0:0:0:
9,162,38655,2,0,P|14:183|20:245,1,65,12|2,0:0|3:2,0:0:0:0:
103,286,38957,1,14,0:0:0:0:
103,286,39108,1,2,3:2:0:0:
250,355,39409,6,0,B|303:343|266:307|360:290,2,130,6|2|2,3:2|3:2|3:2,0:0:0:0:
170,374,40163,1,12,0:0:0:0:
170,374,40314,2,0,P|170:355|180:301,1,65,10|4,3:0|3:0,0:0:0:0:
181,210,40615,6,0,P|179:151|168:61,1,130,4|2,3:2|3:2,0:0:0:0:
251,67,41067,1,14,0:0:0:0:
342,193,41369,1,14,0:0:0:0:
489,143,41670,1,14,0:0:0:0:
405,10,41972,54,0,P|374:17|333:23,1,65,14|0,0:0|0:0,0:0:0:0:
326,98,42273,1,2,3:2:0:0:
251,67,42424,2,0,P|203:41|117:54,1,130,10|6,3:0|3:0,0:0:0:0:
54,184,43027,54,0,P|62:239|67:323,1,130,6|2,3:2|3:0,0:0:0:0:
132,354,43479,2,0,P|154:339|182:307,1,65,14|2,0:0|3:0,0:0:0:0:
256,296,43781,1,14,0:0:0:0:
256,296,43932,1,10,0:0:0:0:
176,161,44233,102,0,P|144:123|202:66,1,130,2|0,3:0|3:0,0:0:0:0:
246,18,44686,2,0,P|277:27|315:34,1,65,12|2,0:0|0:0,0:0:0:0:
348,101,44987,1,12,0:0:0:0:
501,74,45289,1,12,0:0:0:0:
446,220,45590,101,12,0:0:0:0:
296,264,45892,2,0,P|266:258|228:252,1,65,12|2,0:0|0:0,0:0:0:0:
169,204,46193,1,12,0:0:0:0:
169,204,46344,1,10,0:0:0:0:
34,281,46645,6,0,P|31:220|24:136,1,130,6|0,3:2|3:2,0:0:0:0:
63,82,47098,2,0,P|95:58|135:61,1,65,12|0,0:0|3:2,0:0:0:0:
178,107,47399,2,0,P|210:131|250:128,1,65,12|4,0:0|0:0,0:0:0:0:
296,85,47701,1,2,3:3:0:0:
296,85,47851,1,0,3:2:0:0:
379,124,48002,21,2,0:3:0:0:
443,85,56142,54,0,L|380:128,1,65,8|8,3:2|0:0,0:0:0:0:
313,103,56443,1,8,3:2:0:0:
313,181,56594,1,8,0:0:0:0:
249,226,56745,2,0,L|161:219,1,65,8|8,3:2|3:2,0:0:0:0:
49,299,57197,1,8,0:0:0:0:
9,378,57348,54,0,L|504:9,1,608.400000000001,2|0,3:2|3:2,0:0:0:0:
400,225,59610,6,0,P|389:252|381:288,1,55.2500000000002,2|0,3:2|0:0,0:0:0:0:
461,274,59911,2,0,P|464:335|474:396,1,110.5,2|0,3:2|3:2,0:0:0:0:
322,346,60514,1,0,3:2:0:0:
176,293,60815,102,0,P|152:300|110:300,2,55.2500000000002,0|0|0,3:2|0:0|3:2,0:0:0:0:
285,183,61418,2,0,P|296:159|304:122,2,55.2500000000002,0|0|0,3:2|0:0|3:2,0:0:0:0:
137,136,62021,2,0,L|103:86,1,55.2500000000002,2|2,3:2|0:0,0:0:0:0:
47,39,62323,2,0,L|289:50,1,221.000000000001,2|0,3:2|3:2,0:0:0:0:
453,187,63379,5,2,3:2:0:0:
324,272,63680,2,0,P|271:276|208:286,2,110.5,2|2|2,3:2|3:2|3:2,0:0:0:0:
465,335,64585,2,0,P|406:318|364:165,1,221.000000000001,2|2,3:2|3:2,0:0:0:0:
417,93,65489,102,0,P|418:65|423:39,1,55.2500000000002,0|0,3:2|0:0,0:0:0:0:
345,5,65791,2,0,P|344:33|339:59,1,55.2500000000002,0|0,3:2|0:0,0:0:0:0:
273,117,66092,5,2,3:0:0:0:
273,117,66243,2,0,P|222:122|159:133,1,110.5,0|2,0:0|0:0,0:0:0:0:
28,298,66997,1,2,3:0:0:0:
76,363,67147,2,0,P|127:368|190:379,1,110.5,0|2,0:0|0:0,0:0:0:0:
269,337,67600,101,2,3:0:0:0:
269,337,67750,2,0,P|301:315|278:245,1,110.5,0|2,0:0|0:0,0:0:0:0:
91,129,68504,1,2,3:0:0:0:
26,171,68655,2,0,P|-6:149|17:79,1,110.5,0|2,0:0|0:0,0:0:0:0:
61,32,69107,2,0,P|96:41|129:47,1,55.2500000000002,0|0,3:2|0:0,0:0:0:0:
176,103,69409,2,0,P|238:92|302:88,1,110.5,2|0,3:0|3:2,0:0:0:0:
495,32,71821,38,0,P|481:57|466:92,1,65,0|0,3:2|3:2,0:0:0:0:
434,109,72047,1,0,3:2:0:0:
434,109,72122,2,0,L|447:263,1,130,12|2,0:0|0:0,0:0:0:0:
383,286,72574,1,0,3:2:0:0:
317,243,72725,102,0,P|290:235|252:232,1,65,10|8,0:0|0:0,0:0:0:0:
215,301,73027,2,0,P|187:313|149:317,1,65,0|0,3:2|3:2,0:0:0:0:
89,362,73328,1,8,0:0:0:0:
4,230,73630,86,0,P|-18:180|35:131,1,130,2|8,3:2|0:0,0:0:0:0:
58,59,74082,2,0,P|125:72|189:79,1,130,0|0,3:2|3:2,0:0:0:0:
233,147,74534,1,8,0:0:0:0:
233,147,74685,1,0,0:0:0:0:
382,86,74986,5,0,3:2:0:0:
302,21,75137,2,0,P|292:48|285:86,1,65,8|8,0:0|0:0,0:0:0:0:
310,120,75363,1,8,0:0:0:0:
310,120,75439,2,0,L|321:264,1,130,2|0,3:2|3:2,0:0:0:0:
383,294,75891,1,10,0:0:0:0:
243,352,76192,101,8,0:0:0:0:
243,352,76268,1,8,0:0:0:0:
243,352,76343,2,0,P|209:354|162:365,1,65,2|8,3:2|0:0,0:0:0:0:
110,320,76645,2,0,P|94:294|97:252,1,65,2|8,3:2|0:0,0:0:0:0:
162,222,76946,2,0,P|178:196|175:154,1,65,2|8,0:0|3:0,0:0:0:0:
145,139,77172,21,4,3:0:0:0:
145,139,77248,2,0,B|78:124|108:94|30:83,1,130,6|0,3:2|0:0,0:0:0:0:
158,12,77851,2,0,B|300:-2,1,130,6|0,0:0|0:0,0:0:0:0:
347,59,78303,5,0,3:2:0:0:
347,59,78454,2,0,P|336:91|330:130,1,65,4|0,0:0|3:2,0:0:0:0:
400,173,78755,1,10,0:0:0:0:
400,173,78906,1,8,0:0:0:0:
470,213,79057,2,0,P|479:246|483:285,1,65,12|8,0:0|0:0,0:0:0:0:
420,327,79358,101,0,3:2:0:0:
350,289,79509,1,8,0:0:0:0:
350,289,79660,1,12,0:0:0:0:
205,346,79961,86,0,L|199:378,2,32.5,8|8|0,0:0|0:0|3:2,0:0:0:0:
131,318,80263,2,0,P|130:253|123:176,1,130,12|2,0:0|0:3,0:0:0:0:
226,70,80866,6,0,P|290:73|323:132,1,130,4|8,3:2|0:0,0:0:0:0:
345,199,81318,2,0,P|315:201|280:209,1,65,4|0,3:2|0:0,0:0:0:0:
217,254,81619,1,0,3:2:0:0:
156,195,81770,1,12,0:0:0:0:
156,195,81921,1,8,0:0:0:0:
84,238,82072,2,0,P|54:236|19:228,1,65,2|10,3:0|0:0,0:0:0:0:
0,155,82373,1,0,0:0:0:0:
158,79,82675,102,0,P|143:49|134:18,1,65,8|8,0:0|0:0,0:0:0:0:
252,85,82976,2,0,P|254:55|262:20,1,65,0|8,3:2|0:0,0:0:0:0:
307,153,83278,2,0,P|323:128|348:101,1,65,0|0,3:2|3:2,0:0:0:0:
433,59,83579,1,10,0:0:0:0:
433,59,83730,1,2,3:2:0:0:
354,10,83882,69,4,3:2:0:0:
464,210,86595,1,0,3:2:0:0:
464,210,86746,1,12,0:0:0:0:
506,134,88856,6,0,L|514:82,2,32.5,0|0|12,3:2|3:2|0:0,0:0:0:0:
403,141,89158,2,0,L|377:82,1,65,8|10,0:0|0:0,0:0:0:0:
362,232,89459,2,0,L|294:212,1,65,8|12,0:0|0:0,0:0:0:0:
299,213,90364,1,8,0:0:0:0:
469,1,91118,70,0,P|464:34|461:83,1,71.5,4|0,3:2|3:2,0:0:0:0:
403,141,91419,1,4,3:2:0:0:
403,141,91570,1,0,3:2:0:0:
330,96,91721,2,0,P|271:95|216:163,1,143,2|10,0:0|0:0,0:0:0:0:
272,220,92173,2,0,P|277:253|280:302,1,71.5,2|0,3:0|3:2,0:0:0:0:
140,371,92625,6,0,P|103:365|51:363,1,71.5,8|0,0:0|3:2,0:0:0:0:
7,310,92927,1,12,0:0:0:0:
7,310,93077,1,8,0:0:0:0:
69,250,93228,1,0,3:2:0:0:
24,145,93379,6,0,P|-7:86|51:37,1,143,4|0,3:2|3:2,0:0:0:0:
119,71,93831,2,0,P|127:106|132:156,1,71.5,6|0,3:2|0:0,0:0:0:0:
211,173,94133,2,0,P|216:108|228:23,1,143,2|12,3:2|0:0,0:0:0:0:
303,69,94585,2,0,P|344:99|377:94,1,71.5,2|0,0:3|3:2,0:0:0:0:
426,41,94886,1,2,3:3:0:0:
485,179,95188,6,0,P|479:219|477:268,1,71.5,2|0,3:3|0:0,0:0:0:0:
436,325,95489,1,2,3:0:0:0:
375,280,95640,1,8,0:0:0:0:
375,280,95715,1,8,0:0:0:0:
375,280,95791,102,0,B|303:264|343:232|241:220,1,143,6|0,3:2|3:2,0:0:0:0:
184,273,96243,1,12,0:0:0:0:
184,273,96394,1,0,3:2:0:0:
114,221,96545,1,12,0:0:0:0:
114,221,96695,1,2,3:2:0:0:
18,370,96997,102,0,P|57:325|133:344,1,143,6|0,3:2|3:2,0:0:0:0:
206,376,97449,1,12,0:0:0:0:
364,305,97751,1,0,3:2:0:0:
364,305,97901,1,12,0:0:0:0:
286,268,98052,102,0,P|285:234|280:187,1,71.5,0|0,3:2|0:0,0:0:0:0:
351,146,98354,1,12,0:0:0:0:
351,146,98504,1,0,3:2:0:0:
427,185,98655,1,0,0:0:0:0:
342,35,98957,5,14,0:0:0:0:
342,35,99107,2,0,P|305:42|263:47,1,71.5,10|0,0:0|3:2,0:0:0:0:
187,118,99409,6,0,P|160:155|219:228,1,143,4|0,3:2|3:2,0:0:0:0:
284,250,99861,2,0,P|278:288|274:334,1,71.5,12|2,0:0|3:2,0:0:0:0:
209,377,100163,1,6,0:0:0:0:
209,377,100313,1,2,3:2:0:0:
122,228,100615,6,0,P|89:218|43:212,1,71.5,2|8,3:2|0:0,0:0:0:0:
2,142,100916,2,0,P|8:104|12:58,1,71.5,2|8,3:2|0:0,0:0:0:0:
84,24,101218,2,0,P|122:30|168:34,1,71.5,2|12,3:2|0:0,0:0:0:0:
204,103,101520,2,0,P|198:141|194:187,1,71.5,10|4,0:3|0:3,0:0:0:0:
279,265,101821,102,0,P|303:226|404:253,1,143,6|2,3:2|3:2,0:0:0:0:
448,284,102273,1,14,0:0:0:0:
505,120,102575,2,0,P|508:84|515:35,1,71.5,2|0,3:2|0:0,0:0:0:0:
441,0,102876,1,14,0:0:0:0:
300,98,103178,102,0,P|234:104|190:49,1,143,14|2,0:0|3:2,0:0:0:0:
118,95,103630,2,0,P|124:130|127:174,1,71.5,10|0,0:3|0:0,0:0:0:0:
206,199,103932,2,0,P|200:234|197:278,1,71.5,6|0,0:3|3:2,0:0:0:0:
133,327,104233,1,6,3:2:0:0:
282,369,104534,101,0,3:2:0:0:
348,306,104685,1,4,3:2:0:0:
348,306,104836,1,0,3:2:0:0:
420,360,104987,2,0,P|456:356|496:353,1,65,4|0,3:2|3:2,0:0:0:0:
419,183,105439,6,0,P|384:177|342:172,1,65,12|0,0:0|3:2,0:0:0:0:
277,221,105740,2,0,P|231:194|251:120,1,130,14|2,0:0|3:0,0:0:0:0:
299,72,106193,1,0,0:0:0:0:
399,20,108002,5,8,0:0:0:0:
392,33,108304,6,0,P|400:66|406:110,1,71.5,2|0,3:0|3:2,0:0:0:0:
512,90,108605,1,2,3:0:0:0:
512,90,108756,1,0,3:2:0:0:
468,179,108907,102,0,P|459:246|456:324,1,143,6|10,0:2|0:0,0:0:0:0:
374,349,109359,2,0,P|336:365|293:354,1,71.5,2|0,0:0|3:2,0:0:0:0:
254,292,109660,2,0,P|219:272|183:278,1,71.5,2|8,0:0|0:0,0:0:0:0:
121,328,109962,5,2,3:2:0:0:
121,328,110113,1,12,0:0:0:0:
60,267,110263,2,0,P|60:232|54:187,1,71.5,2|8,3:2|0:3,0:0:0:0:
93,172,110489,1,4,0:3:0:0:
93,172,110565,2,0,P|165:186|220:126,1,143.000004364014,2|2,3:2|3:3,0:0:0:0:
253,126,110942,1,8,0:0:0:0:
253,126,111017,6,0,L|249:73,2,32.5,0|8|2,3:2|0:0|3:2,0:0:0:0:
321,176,111319,2,0,L|322:217,2,32.5,0|8|2,3:2|0:0|3:2,0:0:0:0:
383,119,111620,102,0,L|456:139,1,65,0|2,3:2|3:2,0:0:0:0:
486,123,111846,1,8,0:0:0:0:
486,123,111922,2,0,L|499:190,1,65,0|8,3:2|3:3,0:0:0:0:
512,278,112223,102,0,P|505:318|500:361,1,71.5,14|0,0:0|3:2,0:0:0:0:
409,363,112524,2,0,P|371:378|335:365,1,71.5,14|0,0:0|3:2,0:0:0:0:
303,295,112826,1,14,0:0:0:0:
303,295,112976,1,0,3:2:0:0:
234,347,113127,1,14,0:0:0:0:
145,199,113429,101,14,0:0:0:0:
145,199,113579,2,0,P|143:160|137:114,1,71.5,2|0,0:3|3:2,0:0:0:0:
214,72,113881,1,14,0:0:0:0:
73,28,114182,5,2,3:2:0:0:
6,76,114333,2,0,P|0:110|-4:153,1,71.5,2|0,3:0|3:2,0:0:0:0:
66,235,114635,85,2,3:0:0:0:
66,235,114785,1,0,3:2:0:0:
2,288,114936,1,2,3:0:0:0:
60,350,115087,1,0,3:2:0:0:
129,299,115238,2,0,P|202:287|274:282,1,143,2|8,3:0|0:0,0:0:0:0:
429,347,115841,5,4,3:2:0:0:
429,347,115991,2,0,P|479:320|461:242,1,143,0|0,3:2|3:2,0:0:0:0:
381,221,116444,2,0,P|381:191|375:140,1,71.5,12|0,0:0|3:2,0:0:0:0:
460,128,116745,2,0,P|460:98|466:47,1,71.5,12|0,0:0|3:2,0:0:0:0:
395,4,117047,1,12,0:0:0:0:
327,56,117197,6,0,P|295:71|260:66,1,71.5,0|8,3:2|0:0,0:0:0:0:
215,140,117499,2,0,P|186:119|172:86,1,71.5,0|12,3:2|0:0,0:0:0:0:
95,124,117800,2,0,P|79:92|84:57,1,71.5,0|8,3:2|0:0,0:0:0:0:
0,4,118102,6,0,P|3:81|6:159,1,143,4|0,3:2|3:2,0:0:0:0:
63,210,118554,1,12,0:0:0:0:
222,274,118856,102,0,P|217:306|214:347,1,71.5,12|0,0:0|3:2,0:0:0:0:
135,379,119157,1,8,0:0:0:0:
59,337,119308,102,0,P|73:310|119:295,1,71.5,4|8,3:2|0:0,0:0:0:0:
155,222,119609,2,0,P|185:220|221:252,1,71.5,0|12,3:2|0:0,0:0:0:0:
303,235,119911,2,0,P|319:260|309:307,2,71.5,0|12|0,3:2|0:0|3:2,0:0:0:0:
448,142,120514,101,0,3:2:0:0:
504,88,120665,2,0,P|507:53|518:-3,1,65,0|2,3:2|3:3,0:0:0:0:
440,4,120966,1,2,3:3:0:0:
440,4,121117,1,2,3:3:0:0:
381,69,121268,1,2,3:3:0:0:
381,69,121418,1,2,3:3:0:0:
317,12,121569,22,0,P|281:3|240:3,1,65,2|2,3:3|3:3,0:0:0:0:
211,68,121871,2,0,P|180:103|89:94,1,130,14|0,0:0|0:0,0:0:0:0:
17,41,122323,1,0,3:2:0:0:
17,41,122398,1,0,0:0:0:0:
17,41,122475,1,4,3:2:0:0:
17,41,125490,37,4,3:2:0:0:
17,41,128505,5,4,3:2:0:0:
17,41,131520,101,4,3:2:0:0:
486,27,137550,5,0,3:0:0:0:
481,36,137851,2,0,L|493:104,1,58.5000000000001,0|2,3:0|0:0,0:0:0:0:
415,117,138153,2,0,L|427:186,1,58.5000000000001,0|0,3:0|0:0,0:0:0:0:
349,193,138454,2,0,L|361:262,1,58.5000000000001,2|0,3:2|0:0,0:0:0:0:
405,314,138756,102,0,P|359:305|262:293,1,117,0|0,3:0|3:0,0:0:0:0:
136,359,139359,6,0,P|108:373|74:370,1,58.5000000000001,0|2,3:0|0:0,0:0:0:0:
26,319,139660,2,0,P|12:326|-13:335,2,29.25,2|0|0,3:0|0:0|0:0,0:0:0:0:
90,270,139962,2,0,P|92:241|100:197,2,58.5000000000001,2|0|2,3:0|0:0|3:0,0:0:0:0:
15,102,140565,54,0,P|14:73|10:38,1,65,8|0,0:0|3:0,0:0:0:0:
82,7,140866,1,8,0:3:0:0:
131,67,141017,6,0,P|170:91|201:86,1,65,4|0,0:3|3:0,0:0:0:0:
274,41,141318,1,2,3:0:0:0:
323,101,141469,2,0,P|362:125|393:120,1,65,0|8,3:0|0:3,0:0:0:0:
404,154,141695,1,8,0:3:0:0:
404,154,141771,1,4,0:3:0:0:
501,275,142072,6,0,P|498:307|496:339,1,65,8|0,0:0|3:0,0:0:0:0:
419,328,142374,1,8,0:3:0:0:
348,295,142524,102,0,P|309:319|278:314,1,65,4|0,0:3|3:0,0:0:0:0:
210,358,142826,1,2,3:0:0:0:
136,330,142977,2,0,P|97:354|66:349,1,65,0|8,3:0|0:3,0:0:0:0:
62,384,143203,1,8,0:3:0:0:
62,384,143278,1,4,0:3:0:0:
22,232,143580,69,4,3:2:0:0:
172,191,143881,2,0,P|205:196|259:212,2,65,2|8|2,3:0|0:0|0:0,0:0:0:0:
65,77,144484,2,0,P|71:40|74:5,1,65,10|0,0:0|0:0,0:0:0:0:
151,1,144786,2,0,P|185:43|272:27,1,130,10|6,0:0|3:2,0:0:0:0:
400,100,145389,102,0,P|401:113|410:189,1,65,2|8,3:0|0:0,0:0:0:0:
476,217,145690,1,2,0:0:0:0:
476,217,145841,1,0,3:0:0:0:
414,272,145992,1,10,0:0:0:0:
278,194,146293,2,0,P|281:179|285:156,2,32.5,10|8|8,3:2|0:0|0:3,0:0:0:0:
212,244,146595,86,0,P|180:233|107:282,1,117,4|0,3:2|0:0,0:0:0:0:
161,335,147047,2,0,P|226:344|286:357,1,117,2|2,0:3|0:3,0:0:0:0:
436,319,147650,1,0,0:0:0:0:
436,319,147801,6,0,P|433:255|424:195,1,117,2|2,0:3|0:3,0:0:0:0:
487,148,148253,2,0,P|490:114|496:78,2,58.5000000000001,2|0|2,3:3|0:0|0:3,0:0:0:0:
368,34,148856,2,0,P|341:41|301:46,1,58.5000000000001,0|2,0:0|0:3,0:0:0:0:
260,110,149157,1,2,3:3:0:0:
118,27,149459,101,0,0:0:0:0:
118,27,149534,1,0,0:0:0:0:
118,27,149610,2,0,P|61:30|20:88,1,117,4|2,3:2|0:3,0:0:0:0:
72,138,150062,2,0,P|75:169|76:204,1,58.5000000000001
152,225,150363,2,0,P|146:257|142:294,1,58.5000000000001,2|2,0:3|0:3,0:0:0:0:
97,351,150665,5,0,0:0:0:0:
97,351,150740,1,0,0:0:0:0:
97,351,150816,2,0,P|142:344|222:337,1,117,2|2,0:3|0:3,0:0:0:0:
262,272,151268,1,2,3:3:0:0:
389,374,151569,1,2,0:3:0:0:
389,374,151720,1,2,3:3:0:0:
498,252,152022,1,2,0:3:0:0:
498,252,152172,1,2,3:3:0:0:
375,159,152474,101,8,0:0:0:0:
375,159,152549,1,8,0:0:0:0:
375,159,152625,2,0,P|374:127|376:77,1,65,4|0,3:2|0:0,0:0:0:0:
308,52,152926,1,0,3:2:0:0:
308,52,153077,1,8,0:0:0:0:
267,118,153228,38,0,P|237:135|195:133,1,65,2|0,0:3|3:2,0:0:0:0:
161,199,153529,2,0,P|131:181|112:144,1,65,10|0,0:0|3:2,0:0:0:0:
36,163,153831,2,0,P|36:128|59:93,1,65,8|0,0:0|0:0,0:0:0:0:
6,37,154132,1,0,3:2:0:0:
159,8,154434,102,0,P|178:35|204:64,1,65,0|8,3:2|0:0,0:0:0:0:
276,47,154735,2,0,P|279:80|287:119,1,65,2|8,3:2|0:0,0:0:0:0:
356,143,155037,2,0,P|342:173|329:210,1,65,2|0,3:0|3:2,0:0:0:0:
337,281,155338,1,8,0:0:0:0:
196,348,155640,38,0,P|163:340|120:335,2,65,2|2|8,3:0|0:0|0:3,0:0:0:0:
268,376,156092,2,0,P|332:367|403:360,1,130,4|2,0:3|3:0,0:0:0:0:
460,314,156544,1,8,0:0:0:0:
385,176,156846,1,0,3:0:0:0:
385,176,156996,1,8,0:0:0:0:
445,126,157147,6,0,L|451:61,2,65,2|2|8,3:0|0:0|0:3,0:0:0:0:
362,87,157599,2,0,P|309:85|240:151,1,130,4|2,0:3|3:0,0:0:0:0:
247,208,158052,1,8,0:0:0:0:
109,97,158353,1,0,3:0:0:0:
109,97,158504,1,8,0:0:0:0:
23,118,158655,6,0,P|23:80|19:34,2,65,2|2|8,3:0|0:0|0:3,0:0:0:0:
96,181,159107,2,0,P|86:236|82:325,1,130,4|2,0:3|3:0,0:0:0:0:
14,350,159559,1,8,0:0:0:0:
170,384,159861,1,0,3:0:0:0:
170,384,160011,1,8,0:0:0:0:
249,329,160162,102,0,P|248:292|242:258,2,65,2|2|8,3:0|0:0|0:3,0:0:0:0:
315,377,160614,2,0,B|377:363|359:326|437:316,1,130,4|2,0:3|3:0,0:0:0:0:
493,269,161067,1,8,0:0:0:0:
396,140,161368,2,0,P|397:110|403:70,1,65,0|8,3:0|0:0,0:0:0:0:
372,48,161594,1,8,0:0:0:0:
372,48,161670,101,0,3:0:0:0:
241,126,161971,86,0,P|209:118|178:113,2,58.5000000000001,2|0|2,0:0|3:0|0:0,0:0:0:0:
356,225,162574,2,0,P|362:262|363:294,1,58.5000000000001,2|0,3:0|0:0,0:0:0:0:
308,336,162876,2,0,P|245:329|207:369,1,117,2|2,0:0|3:0,0:0:0:0:
62,321,163479,102,0,P|65:306|69:240,1,58.5000000000001,2|0,3:0|0:0,0:0:0:0:
145,226,163780,1,2,3:0:0:0:
145,226,163931,1,0,0:0:0:0:
199,284,164082,1,2,0:0:0:0:
287,160,164383,2,0,P|289:144|293:125,2,29.25,2|0|2,0:0|0:0|0:0,0:0:0:0:
346,215,164686,86,0,P|378:226|451:177,1,117,4|2,3:2|0:0,0:0:0:0:
491,119,165138,2,0,B|430:101|456:82|381:64,1,117,2|2,0:3|0:3,0:0:0:0:
233,27,165741,5,0,0:0:0:0:
233,27,165892,2,0,P|242:89|245:151,1,117,10|2,0:2|0:3,0:0:0:0:
296,207,166344,2,0,P|289:240|287:277,2,58.5000000000001,2|0|2,3:3|0:0|0:3,0:0:0:0:
171,313,166947,2,0,P|144:320|104:325,1,58.5000000000001,2|2,0:0|0:3,0:0:0:0:
41,284,167248,1,2,3:3:0:0:
163,174,167550,101,8,0:2:0:0:
163,174,167625,1,10,0:2:0:0:
163,174,167701,2,0,P|220:177|261:235,1,117,4|2,3:2|0:3,0:0:0:0:
338,234,168153,2,0,P|335:265|334:300,1,58.5000000000001,0|0,3:3|0:0,0:0:0:0:
383,357,168454,1,2,0:3:0:0:
227,383,168756,5,2,0:0:0:0:
227,383,168831,1,0,0:0:0:0:
227,383,168907,2,0,P|182:376|102:369,1,117,10|2,0:2|0:3,0:0:0:0:
48,315,169359,1,2,3:3:0:0:
193,237,169660,1,2,0:3:0:0:
193,237,169811,1,2,3:3:0:0:
46,175,170113,1,2,0:3:0:0:
46,175,170263,1,2,3:3:0:0:
183,81,170565,101,8,0:0:0:0:
183,81,170640,1,10,0:0:0:0:
183,81,170716,2,0,P|185:112|184:163,1,65,4|0,3:2|0:0,0:0:0:0:
193,237,171017,1,0,3:2:0:0:
193,237,171168,1,8,0:0:0:0:
259,174,171319,6,0,P|289:191|331:189,1,65,2|0,0:3|3:2,0:0:0:0:
368,268,171620,2,0,P|397:250|416:213,1,65,10|0,0:0|3:2,0:0:0:0:
505,217,171922,2,0,P|504:182|481:147,1,65,8|0,0:0|0:0,0:0:0:0:
500,65,172223,1,0,3:2:0:0:
326,8,172525,102,0,P|306:35|280:64,1,65,0|8,3:2|0:0,0:0:0:0:
194,61,172826,1,2,3:2:0:0:
194,61,172977,1,8,0:0:0:0:
146,138,173128,2,0,P|159:168|172:205,1,65,2|0,3:0|3:2,0:0:0:0:
176,289,173429,1,8,0:0:0:0:
345,356,173731,70,0,P|378:348|421:343,2,65,2|2|8,3:0|0:0|0:3,0:0:0:0:
258,383,174183,2,0,P|194:374|123:367,1,130,4|2,0:3|3:0,0:0:0:0:
53,317,174635,1,8,0:0:0:0:
142,159,174937,1,0,3:0:0:0:
142,159,175087,1,8,0:0:0:0:
68,105,175238,6,0,L|62:40,2,65,2|2|8,3:0|0:0|0:3,0:0:0:0:
151,68,175690,2,0,P|204:66|273:132,1,130,4|2,0:3|3:0,0:0:0:0:
330,172,176143,1,8,0:0:0:0:
427,81,176444,1,0,3:0:0:0:
427,81,176595,1,8,0:0:0:0:
509,118,176746,6,0,P|509:80|513:34,2,65,2|2|8,3:0|0:0|0:3,0:0:0:0:
432,167,177198,2,0,P|442:222|446:311,1,130,4|2,0:3|3:0,0:0:0:0:
497,363,177650,1,8,0:0:0:0:
341,382,177952,1,0,3:0:0:0:
341,382,178102,1,8,0:0:0:0:
279,308,178253,102,0,P|280:271|286:237,2,65,2|2|8,3:0|0:0|0:3,0:0:0:0:
205,339,178705,2,0,P|171:333|95:389,1,130,4|2,0:3|3:0,0:0:0:0:
9,331,179158,1,8,0:0:0:0:
85,204,179459,2,0,P|84:174|78:134,1,65,0|8,3:0|0:0,0:0:0:0:
111,115,179685,1,8,0:0:0:0:
111,115,179761,69,2,3:0:0:0:
222,0,180062,22,0,P|288:12|356:20,2,117
159,52,180816,1,2,0:3:0:0:
159,52,180967,2,0,P|100:59|43:70,2,117
230,101,181721,1,0,0:0:0:0:
230,101,181871,2,0,P|289:113|345:119,2,117,0|2|0,0:0|0:3|0:0,0:0:0:0:
165,146,182625,69,2,0:2:0:0:
165,146,182700,1,2,0:3:0:0:
165,146,182776,1,4,3:2:0:0:
