osu file format v14

[General]
AudioFilename: audio.ogg
AudioLeadIn: 0
PreviewTime: 105661
Countdown: 0
SampleSet: Soft
StackLeniency: 0.5
Mode: 0
LetterboxInBreaks: 0
WidescreenStoryboard: 1

[Editor]
Bookmarks: 53,7299,17248,24785,32313,40614,47991,48302,48604,48905,49207,49508,49810,50111,50413,50714,51016,51317,51619,51910,52221,52523,52824,53126,53427,53729,54030,54332,54633,54935,55236,55538,71808,91104,108289,134529,134830,135132,135433,135735,136036,136338,136639,136941,137242,137534,146589,155634,164679,173724,182769
DistanceSpacing: 2.3
BeatDivisor: 6
GridSize: 32
TimelineZoom: 2.619999

[Metadata]
Title:Latitudes
TitleUnicode:Latitudes
Artist:Good Game
ArtistUnicode:Good Game
Creator:shime
Version:collab insane
Source:
Tags:english math rock emo progressive don't dont blow it. it fackel announcerf q1x q1x_ 0pp 0ppinosu oppinosu opp riffy bakari
BeatmapID:3934456
BeatmapSetID:1907943

[Difficulty]
HPDrainRate:5
CircleSize:3.8
OverallDifficulty:8
ApproachRate:9
SliderMultiplier:1.6
SliderTickRate:1

[Events]
//Background and Video events
0,0,"bg.jpg",0,0
//Break Periods
2,48202,54897
2,131720,136799
//Storyboard Layer 0 (Background)
//Storyboard Layer 1 (Fail)
//Storyboard Layer 2 (Pass)
//Storyboard Layer 3 (Foreground)
//Storyboard Layer 4 (Overlay)
//Storyboard Sound Samples

[TimingPoints]
63,301.507537688442,4,2,1,65,1,0
63,-100,4,2,1,65,0,0
213,-111.111111111111,4,2,1,65,0,0
1269,301.507537688442,6,2,1,65,1,0
1269,-111.111111111111,6,2,1,65,0,0
4887,301.507537688442,4,2,1,65,1,0
5037,-111.111111111111,4,2,1,65,0,0
7299,301.507537688442,5,2,1,65,1,0
7299,-133.333333333333,5,2,1,65,0,0
10314,301.507537688442,4,2,1,65,1,0
10314,-125,4,2,1,65,0,0
15138,-111.111111111111,7,2,1,65,0,0
16193,-100,7,2,1,65,0,0
16645,-100,7,2,1,30,0,0
17248,301.507537688442,5,2,1,65,1,0
17248,-100,5,2,1,65,0,0
17398,-111.111111111111,5,2,1,65,0,0
18756,301.507537688442,4,2,1,65,1,0
18756,-111.111111111111,4,2,1,65,0,0
19962,-90.9090909090909,5,2,1,65,0,0
20263,-100,3,2,1,65,0,0
20715,-90.9090909090909,3,2,1,65,0,0
21168,-100,4,2,1,65,0,0
22374,301.507537688442,5,2,1,65,1,0
22374,-100,5,2,1,65,0,0
23730,-142.857142857143,5,2,1,65,0,0
23882,301.507537688442,4,2,1,65,1,0
23882,-142.857142857143,4,2,1,65,0,0
25389,-142.857142857143,4,2,1,30,0,0
26294,-100,5,2,1,55,0,0
26595,-133.333333333333,5,2,1,55,0,0
27047,-100,5,2,1,55,0,0
27349,-133.333333333333,5,2,1,55,0,0
27801,-100,5,2,1,55,0,0
28103,-133.333333333333,5,2,1,55,0,0
28555,-100,5,2,1,55,0,0
28856,-133.333333333333,5,2,1,55,0,0
29233,-133.333333333333,5,2,1,70,0,0
29309,-133.333333333333,5,2,1,70,0,0
29761,-100,5,2,1,70,0,0
30364,-100,5,2,1,40,0,0
31721,-100,5,2,1,55,0,0
32173,-100,5,2,1,65,0,0
32324,-100,4,2,1,65,0,0
34585,-90.9090909090909,4,2,1,65,0,0
38203,-100,4,2,1,65,0,0
40615,-90.9090909090909,4,2,1,65,0,0
43027,-142.857142857143,4,2,1,65,0,0
43479,-83.3333333333333,4,2,1,65,0,0
44233,-153.846153846154,4,2,1,65,0,0
44686,-100,4,2,1,65,0,0
46645,-142.857142857143,4,2,1,65,0,0
47098,-90.9090909090909,4,2,1,55,0,0
47399,-111.111111111111,4,2,1,55,0,0
47550,-111.111111111111,4,2,1,45,0,0
47701,-133.333333333333,4,2,1,45,0,0
48002,-133.333333333333,4,2,1,40,0,0
50414,301.507537688442,3,2,1,45,1,0
50414,-100,5,2,1,45,0,0
51319,301.507537688442,4,2,1,45,1,0
51922,-100,6,2,1,45,0,0
53427,324.324324324324,4,2,1,45,1,0
53427,-100,6,2,1,45,0,0
53751,307.692307692307,4,2,1,45,1,0
53751,-100,4,2,1,45,0,0
54366,319.148936170212,4,2,1,45,1,0
54366,-100,4,2,1,45,0,0
54897,311.203319502075,4,2,1,45,1,0
54897,-100,4,2,1,45,0,0
56142,301.507537688442,4,2,1,35,1,0
56142,-100,4,2,1,35,0,0
56443,-100,4,2,1,45,0,0
56745,-100,4,2,1,55,0,0
57348,-200,7,2,1,45,0,0
59610,301.507537688442,4,2,1,45,1,0
59610,-200,6,2,1,45,0,0
59911,301.507537688442,4,2,1,45,1,0
59911,-200,4,2,1,45,0,0
62021,-166.666666666667,6,2,1,45,0,0
63379,301.507537688442,4,2,1,45,1,0
63379,-166.666666666667,4,2,1,45,0,0
64585,301.507537688442,5,2,1,45,1,0
64585,-111.111111111111,5,2,1,45,0,0
67600,301.507537688442,7,2,1,65,1,0
67600,-100,7,2,1,65,0,0
71821,301.507537688442,4,2,1,65,1,0
71821,-100,5,2,1,65,0,0
72122,-83.3333333333333,5,2,1,65,0,0
74233,-90.9090909090909,5,2,1,65,0,0
74685,-83.3333333333333,5,2,1,65,0,0
75439,-100,5,2,1,65,0,0
76494,-90.9090909090909,5,2,1,65,0,0
77248,-83.3333333333333,5,2,1,65,0,0
77700,-90.9090909090909,5,2,1,65,0,0
78001,-100,5,2,1,65,0,0
78303,-111.111111111111,5,2,1,65,0,0
79660,-90.9090909090909,5,2,1,65,0,0
80866,-100,5,2,1,65,0,0
83730,-166.666666666667,5,2,1,65,0,0
83882,301.507537688442,5,2,1,65,1,0
83882,-250,5,2,1,65,0,0
83957,-250,5,2,2,65,0,0
86595,-250,5,2,1,65,0,0
86821,-250,5,2,2,65,0,0
86897,301.507537688442,7,2,1,75,1,0
86897,-100,7,2,1,75,0,0
88706,-100,7,2,1,75,0,0
91118,301.507537688442,4,2,1,75,1,0
91118,-86.9565217391304,4,2,1,75,0,0
93379,-111.111111111111,4,2,1,65,0,0
95791,-83.3333333333333,4,2,1,75,0,0
97449,-76.9230769230769,4,2,1,75,0,0
99409,-86.9565217391304,4,2,1,75,0,0
101821,-100,4,2,1,65,0,0
102273,-76.9230769230769,4,2,1,65,0,0
103178,-90.9090909090909,4,2,1,65,0,0
104233,-125,4,2,1,75,0,0
104384,301.507537688442,6,2,1,60,1,0
104384,-100,6,2,1,60,0,0
105439,-90.9090909090909,6,2,1,60,0,0
106193,301.507537688442,7,2,2,45,1,0
106193,-100,7,2,2,45,0,0
108002,-100,7,2,1,60,0,0
108152,-333.333333333333,7,2,1,60,0,0
108304,301.507537688442,4,2,1,75,1,0
108304,-86.9565217391304,4,2,1,75,0,0
108907,-100,4,2,1,75,0,0
110716,301.507537688442,5,2,1,65,1,0
110716,-100,5,2,1,65,0,0
110942,-100,5,2,1,85,0,0
111695,-80,5,2,1,85,0,0
112223,301.507537688442,4,2,1,80,1,0
112223,-86.9565217391304,6,2,1,80,0,0
114032,-86.9565217391304,6,2,1,65,0,0
114182,-100,6,2,1,65,0,0
115841,-100,4,2,1,65,0,0
120665,-100,6,2,1,55,0,0
122475,301.507537688442,4,2,1,65,1,0
122475,-100,4,2,1,65,0,0
123681,301.507537688442,6,2,1,50,1,0
123681,-100,6,2,1,50,0,0
125490,301.507537688442,4,2,1,50,1,0
125490,-100,4,2,1,50,0,0
126696,301.507537688442,6,2,1,50,1,0
126696,-100,6,2,1,50,0,0
128505,301.507537688442,4,2,2,65,1,0
128505,-100,4,2,2,65,0,0
129711,301.507537688442,6,2,2,50,1,0
129711,-100,6,2,2,50,0,0
131369,-100,6,2,2,50,0,0
131520,301.507537688442,4,2,2,65,1,0
131520,-100,4,2,2,65,0,0
132726,301.507537688442,6,2,2,50,1,0
132726,-100,6,2,2,50,0,0
134535,301.507537688442,4,2,2,50,1,0
134535,-100,4,2,2,50,0,0
135741,301.507537688442,6,2,2,50,1,0
135741,-100,6,2,2,50,0,0
137399,-100,6,2,2,50,0,0
137550,301.507537688442,5,2,0,55,1,0
137550,-100,5,2,0,55,0,0
137851,-142.857142857143,5,2,0,55,0,0
140565,-142.857142857143,5,2,1,60,0,0
141168,-100,5,2,1,60,0,0
146595,301.507537688442,4,2,1,55,1,0
146595,-76.9230769230769,4,2,1,55,0,0
147801,301.507537688442,6,2,1,55,1,0
147801,-76.9230769230769,6,2,1,55,0,0
148253,-142.857142857143,6,2,1,55,0,0
149610,301.507537688442,4,2,1,55,1,0
149610,-90.9090909090909,4,2,1,55,0,0
150816,301.507537688442,6,2,1,55,1,0
150816,-90.9090909090909,6,2,1,55,0,0
151268,-142.857142857143,6,2,1,55,0,0
152625,301.507537688442,5,2,1,60,1,0
152625,-100,5,2,1,60,0,0
155338,-111.111111111111,5,2,1,60,0,0
161670,-111.111111111111,5,2,1,55,0,0
164686,301.507537688442,4,2,1,60,1,0
164686,-100,4,2,1,60,0,0
164836,-153.846153846153,4,2,1,60,0,0
165892,301.507537688442,6,2,1,60,1,0
165892,-100,6,2,1,60,0,0
166495,-153.846153846153,6,2,1,60,0,0
167701,301.507537688442,4,2,1,60,1,0
167701,-125,4,2,1,60,0,0
168907,301.507537688442,6,2,1,60,1,0
168907,-100,6,2,1,60,0,0
169359,-142.857142857143,6,2,1,60,0,0
170716,301.507537688442,5,2,1,65,1,0
170716,-100,5,2,1,65,0,0
173731,-111.111111111111,5,2,1,65,0,0
182776,301.507537688442,4,2,2,65,1,0
182776,-800,4,2,2,65,0,0
190012,-800,4,2,2,20,0,0

[Colours]
Combo1 : 193,150,106
Combo2 : 172,156,153
Combo3 : 198,184,176
Combo4 : 161,145,130
Combo5 : 139,119,105
Combo6 : 115,86,68
Combo7 : 145,92,57
Combo8 : 147,113,85

[HitObjects]
157,40,63,53,14,0:0:0:0:
89,79,213,2,0,P|93:116|95:152,1,72.0000000000001,8|2,0:0|0:3,0:0:0:0:
177,146,515,102,0,B|91:149|114:194|50:220,1,144,8|0,0:0|3:0,0:0:0:0:
0,168,967,1,8,0:0:0:0:
2,160,1118,1,0,0:0:0:0:
138,218,1269,2,0,P|132:255|131:308,1,72.0000000000001,8|0,0:0|3:0,0:0:0:0:
34,384,1570,1,8,0:0:0:0:
48,302,1721,85,0,3:0:0:0:
130,289,1872,1,2,0:3:0:0:
184,349,2022,2,0,P|222:368|269:361,1,72.0000000000001,8|0,0:0|3:0,0:0:0:0:
334,219,2324,1,10,0:0:0:0:
324,208,2625,6,0,P|278:211|241:296,1,144,10|10,0:0|0:0,0:0:0:0:
346,380,3078,1,0,3:0:0:0:
346,380,3228,1,0,3:0:0:0:
423,319,3379,102,0,P|421:287|419:232,1,72.0000000000001,8|0,0:0|0:0,0:0:0:0:
340,298,3681,21,2,0:3:0:0:
340,298,3831,1,0,3:0:0:0:
430,174,3982,6,0,P|432:206|434:261,1,72.0000000000001,2|0,0:3|3:0,0:0:0:0:
404,88,4284,101,8,0:0:0:0:
401,52,4359,1,8,0:0:0:0:
400,16,4434,1,8,0:0:0:0:
484,111,4585,86,0,B|381:96|412:153|349:175,1,144.4776,8|8,0:0|0:0,0:0:0:0:
241,28,5037,6,0,P|272:35|323:46,1,72.0000000000001,2|0,0:2|3:0,0:0:0:0:
197,104,5339,1,2,0:2:0:0:
129,0,5490,101,2,3:0:0:0:
197,104,5640,1,2,0:2:0:0:
91,73,5791,1,6,0:3:0:0:
89,82,5866,1,4,0:3:0:0:
87,90,5942,1,2,0:2:0:0:
16,182,6093,22,0,B|109:177|73:232|146:250,1,144,2|10,3:2|0:0,0:0:0:0:
262,173,6545,1,0,0:0:0:0:
197,104,6696,2,0,P|190:134|171:183,1,72.0000000000001,10|0,0:0|0:0,0:0:0:0:
214,307,6997,1,2,0:3:0:0:
136,247,7148,1,8,0:0:0:0:
360,245,7299,38,0,P|266:226|145:384,1,300.000000000001,6|0,3:2|0:0,0:0:0:0:
140,382,8203,6,0,P|131:369|130:346,1,30.0000000000001,8|0,0:0|0:0,0:0:0:0:
286,67,8655,1,10,0:3:0:0:
289,75,8731,1,8,0:3:0:0:
292,82,8806,1,14,0:2:0:0:
392,28,8957,2,0,P|383:78|371:154,1,120,10|0,0:2|0:0,0:0:0:0:
285,187,9409,22,0,P|256:184|228:142,1,60.0000000000001,2|0,0:3|3:2,0:0:0:0:
372,146,9711,1,8,0:2:0:0:
214,27,10012,6,0,P|181:36|140:43,1,60.0000000000001,10|0,0:2|3:2,0:0:0:0:
80,114,10314,2,0,P|49:107|18:100,2,64,8|0|2,0:2|3:0|0:3,0:0:0:0:
200,199,10766,1,8,0:2:0:0:
157,265,10917,1,0,3:0:0:0:
87,231,11067,1,8,0:2:0:0:
209,181,11218,2,0,L|276:197,1,64,0|0,3:0|0:0,0:0:0:0:
410,291,11520,21,10,0:2:0:0:
304,359,11670,1,2,3:2:0:0:
211,302,11821,101,8,0:2:0:0:
216,308,11896,1,8,0:2:0:0:
223,310,11972,86,0,L|265:305,1,32,2|0,3:0|0:0,0:0:0:0:
380,206,12273,6,0,L|349:195,1,32,2|0,3:2|0:0,0:0:0:0:
368,220,12424,2,0,P|339:200|307:199,1,64,4|2,0:3|0:3,0:0:0:0:
203,225,12726,101,8,0:2:0:0:
203,225,12876,1,8,0:2:0:0:
203,225,13027,2,0,P|218:197|225:166,1,64,2|0,0:0|3:0,0:0:0:0:
305,117,13329,2,0,P|297:85|282:57,1,64,8|0,0:2|0:0,0:0:0:0:
195,14,13630,1,10,0:2:0:0:
209,92,13781,1,0,3:0:0:0:
394,11,13932,22,0,P|376:62|362:134,1,128,0|8,3:0|0:2,0:0:0:0:
362,134,14384,1,8,0:2:0:0:
477,300,14685,1,0,3:0:0:0:
401,249,14836,1,8,0:2:0:0:
318,331,14987,5,8,0:2:0:0:
310,331,15062,1,8,0:2:0:0:
303,333,15138,102,0,P|250:324|197:319,2,108,0|8|4,3:0|3:0|3:0,0:0:0:0:
414,366,15791,1,8,0:0:0:0:
405,359,15841,1,8,0:0:0:0:
256,192,16193,2,0,P|270:191|260:188,1,40,8|0,0:0|0:0,0:0:0:0:
9,111,17248,5,14,0:0:0:0:
40,37,17398,2,0,P|115:20|154:81,1,144,8|8,0:0|0:0,0:0:0:0:
206,133,17851,2,0,P|237:130|256:78,1,72.0000000000001,2|0,0:3|3:0,0:0:0:0:
122,143,18152,1,8,0:0:0:0:
400,47,18454,102,0,P|439:62|490:70,1,72.0000000000001,8|0,0:0|3:0,0:0:0:0:
496,161,18756,2,0,P|427:141|333:131,1,144,8|2,0:0|0:3,0:0:0:0:
244,175,19208,2,0,P|241:215|227:266,1,72.0000000000001,8|0,0:0|3:0,0:0:0:0:
283,308,19509,2,0,P|322:289|362:281,1,72.0000000000001,10|0,0:0|3:0,0:0:0:0:
396,340,19811,85,10,0:0:0:0:
416,332,19962,2,0,P|435:343|455:353,2,44,2|2|10,0:0|0:0|0:0,0:0:0:0:
217,349,20263,1,10,0:0:0:0:
227,368,20338,1,10,0:0:0:0:
240,384,20414,1,10,3:0:0:0:
29,190,20715,2,0,P|35:271|54:372,1,176,6|2,3:0|3:0,0:0:0:0:
74,270,21168,5,8,0:0:0:0:
29,190,21318,2,0,B|115:166|95:218|205:198,1,160,8|8,0:0|0:0,0:0:0:0:
260,239,21771,2,0,P|286:227|285:167,1,80,2|0,0:0|3:0,0:0:0:0:
187,281,22072,1,8,0:0:0:0:
260,108,22374,102,0,P|251:72|243:18,1,80,8|0,0:0|3:0,0:0:0:0:
35,29,22675,2,0,P|89:83|184:67,1,160,2|8,3:0|0:0,0:0:0:0:
327,15,23127,1,8,0:0:0:0:
400,61,23278,2,0,P|446:73|498:81,1,80,0|8,3:0|3:0,0:0:0:0:
455,120,23580,21,0,3:0:0:0:
470,136,23730,2,0,L|477:181,1,28,4|4,3:0|3:0,0:0:0:0:
378,216,23882,2,0,L|361:125,2,83.9999999999999,10|8|6,3:0|3:0|3:0,0:0:0:0:
457,325,24560,1,8,0:0:0:0:
460,338,24635,1,0,0:0:0:0:
457,325,24937,21,4,3:0:0:0:
17,373,26294,6,0,B|81:328|21:307|108:265,1,120,6|0,3:2|0:0,0:0:0:0:
90,206,26595,2,0,B|131:172|141:213|181:185,1,90.0000000000002,0|0,3:2|0:0,0:0:0:0:
240,226,26897,2,0,B|256:207|235:207|256:173,1,30.0000000000001,2|0,3:2|0:0,0:0:0:0:
222,118,27047,2,0,B|289:140|253:70|360:87,1,120,4|0,3:2|0:0,0:0:0:0:
370,14,27349,2,0,B|408:8|401:21|421:19,1,30.0000000000001,0|0,3:2|0:0,0:0:0:0:
464,59,27500,2,0,B|482:32|457:27|493:5,1,60.0000000000001,0|0,3:2|0:0,0:0:0:0:
330,85,27801,6,0,B|272:148|240:76|208:136,1,120,4|0,3:2|0:0,0:0:0:0:
246,197,28103,2,0,B|212:238|244:243|193:268,1,90.0000000000002,0|0,3:2|0:0,0:0:0:0:
136,216,28404,2,0,B|127:198|107:219|91:191,1,30.0000000000001,0|0,3:2|0:0,0:0:0:0:
104,298,28555,2,0,B|8:327|77:345|-10:389,1,120,6|0,3:2|0:0,0:0:0:0:
16,372,28856,1,0,3:2:0:0:
0,258,29007,102,0,L|10:183,1,60.0000000000001,0|0,3:2|0:0,0:0:0:0:
6,33,29309,5,8,0:0:0:0:
72,126,29459,1,0,3:2:0:0:
17,187,29610,1,8,0:0:0:0:
98,51,29761,102,0,B|182:5|178:106|232:123,1,160,4|0,3:2|0:0,0:0:0:0:
220,117,30213,1,0,0:0:0:0:
510,44,31721,37,8,0:0:0:0:
434,28,31871,1,0,3:0:0:0:
336,90,32022,1,4,3:0:0:0:
356,108,32173,70,0,B|279:93|291:72|185:59,1,160,4|0,3:2|3:2,0:0:0:0:
91,97,32625,2,0,L|70:20,1,80,12|0,0:0|0:0,0:0:0:0:
182,157,32927,2,0,L|203:79,1,80,2|0,3:0|0:0,0:0:0:0:
287,56,33228,1,14,0:0:0:0:
219,248,33379,6,0,L|197:170,1,80,2|2,0:0|3:0,0:0:0:0:
117,215,33680,1,2,3:2:0:0:
4,112,33831,1,8,0:0:0:0:
30,202,33982,2,0,P|59:276|82:352,1,160,2|2,3:0|3:0,0:0:0:0:
212,366,34434,1,8,0:3:0:0:
225,359,34510,1,8,0:0:0:0:
218,344,34585,6,0,B|306:323|306:323|303:320|303:320|397:299,1,176,6|0,3:2|3:2,0:0:0:0:
496,256,35037,2,0,L|462:337,1,88,14|0,0:0|3:2,0:0:0:0:
385,202,35339,1,12,0:0:0:0:
459,152,35490,1,0,3:2:0:0:
457,171,35640,1,2,0:0:0:0:
371,96,35791,54,0,B|451:70|423:27|535:25,1,176,6|0,3:2|3:2,0:0:0:0:
361,14,36243,2,0,L|264:-5,1,88,12|0,0:0|3:2,0:0:0:0:
191,39,36545,1,0,3:2:0:0:
86,98,36696,2,0,L|-18:81,2,88,12|0|0,0:0|3:2|0:0,0:0:0:0:
186,177,37148,53,12,0:0:0:0:
112,263,37299,2,0,L|8:280,2,88,0|0|0,3:2|3:2|3:2,0:0:0:0:
249,362,37751,1,12,0:0:0:0:
346,240,37902,1,8,0:0:0:0:
255,277,38052,1,0,3:2:0:0:
272,287,38203,102,0,P|271:208|254:130,1,160,4|0,3:2|3:2,0:0:0:0:
336,36,38655,2,0,P|334:75|339:115,1,80,12|2,0:0|3:2,0:0:0:0:
500,32,38957,1,14,0:0:0:0:
436,140,39108,2,0,P|441:179|449:218,1,80,2|0,3:2|0:0,0:0:0:0:
386,353,39409,102,0,P|348:354|319:326,1,80,6|0,3:2|0:0,0:0:0:0:
195,269,39711,2,0,P|201:305|204:353,1,80,2|4,3:2|0:0,0:0:0:0:
290,244,40012,1,2,3:2:0:0:
155,161,40163,1,12,0:0:0:0:
229,133,40314,2,0,P|268:140|307:145,1,80,10|4,3:0|3:0,0:0:0:0:
205,25,40615,6,0,P|294:19|387:62,1,176,4|2,3:2|3:2,0:0:0:0:
512,121,41067,2,0,P|467:116|416:106,1,88,14|0,0:0|0:0,0:0:0:0:
315,145,41369,2,0,P|270:140|219:130,1,88,14|0,0:0|0:0,0:0:0:0:
127,61,41670,2,0,P|82:56|31:46,1,88,14|0,0:0|0:0,0:0:0:0:
282,60,41972,6,0,P|268:146|258:238,1,176,14|2,0:0|3:2,0:0:0:0:
210,301,42424,1,10,3:0:0:0:
210,301,42575,1,0,3:0:0:0:
264,378,42726,1,6,3:0:0:0:
264,378,42876,1,0,3:0:0:0:
239,384,43027,54,0,P|230:324|251:262,1,112,6|2,3:2|3:0,0:0:0:0:
334,337,43479,2,0,P|378:354|430:368,1,96,14|2,0:0|3:0,0:0:0:0:
161,317,43781,1,14,0:0:0:0:
136,370,43932,1,10,0:0:0:0:
82,347,44083,1,0,0:0:0:0:
243,275,44233,54,0,P|269:235|258:163,1,104,2|0,3:0|3:0,0:0:0:0:
177,228,44686,2,0,L|75:248,1,80,12|2,0:0|0:0,0:0:0:0:
354,222,44987,2,0,L|456:242,1,80,12|2,0:0|0:0,0:0:0:0:
200,139,45289,2,0,L|96:150,1,80,12|2,0:0|0:0,0:0:0:0:
308,128,45590,2,0,L|411:139,1,80,12|2,0:0|0:0,0:0:0:0:
251,79,45892,2,0,L|239:-24,2,80,12|2|12,0:0|0:0|0:0,0:0:0:0:
237,260,46344,101,10,0:0:0:0:
237,260,46495,1,0,3:0:0:0:
266,180,46645,2,0,P|234:145|254:87,1,112,6|0,3:2|3:2,0:0:0:0:
237,260,47098,102,0,P|199:277|144:295,1,88,12|0,0:0|3:2,0:0:0:0:
306,310,47399,2,0,P|293:344|276:382,1,72.0000000000001,12|4,0:0|0:0,0:0:0:0:
384,314,47701,2,0,P|381:343|375:375,1,60.0000000000001,2|0,3:3|3:2,0:0:0:0:
442,357,47927,5,0,0:0:0:0:
440,342,48002,1,2,0:3:0:0:
323,336,56142,86,0,P|328:350|318:339,1,40,8|0,3:2|0:0,0:0:0:0:
237,207,56292,1,8,0:0:0:0:
315,249,56443,2,0,P|281:271|236:310,1,80,8|8,3:2|0:0,0:0:0:0:
110,304,56745,2,0,P|76:326|31:365,1,80,8|8,3:2|3:2,0:0:0:0:
170,114,57197,1,8,0:0:0:0:
170,114,57348,54,0,B|222:133|273:283|204:407|17:354|-2:142|97:62|147:122,1,520,2|2,3:2|0:0,0:0:0:0:
144,119,59610,2,0,P|144:92|147:66,1,40,2|0,3:2|0:0,0:0:0:0:
140,202,59911,2,0,B|118:250|80:273|38:256|7:289,1,160,2|0,3:2|3:2,0:0:0:0:
272,68,60815,6,0,B|281:137|306:198|463:94|507:149,1,280,0|0,3:2|0:0,0:0:0:0:
502,144,62021,102,0,P|495:163|478:195,1,47.9999999999999,2|2,3:2|0:0,0:0:0:0:
488,355,62323,6,0,L|458:287,2,71.9999999999999,2|2|2,3:2|0:0|0:0,0:0:0:0:
309,249,62926,1,0,3:2:0:0:
309,249,63076,102,0,L|372:260,1,47.9999999999999,2|0,0:0|0:0,0:0:0:0:
222,283,63379,2,0,P|170:321|132:352,2,95.9999999999998,2|2|2,3:2|3:2|3:2,0:0:0:0:
297,329,64283,1,2,3:2:0:0:
148,207,64585,6,0,B|104:76|212:16|262:125|232:205,1,288,2|2,3:2|3:2,0:0:0:0:
236,193,65489,2,0,P|205:190|171:152,1,72.0000000000001,0|0,3:2|0:0,0:0:0:0:
100,140,65791,2,0,P|84:115|103:61,1,72.0000000000001,0|0,3:2|0:0,0:0:0:0:
256,0,66092,101,2,3:0:0:0:
256,0,66243,1,0,0:0:0:0:
276,108,66544,5,2,0:0:0:0:
286,29,66997,1,2,3:0:0:0:
286,29,67147,1,0,0:0:0:0:
233,171,67449,1,2,0:0:0:0:
256,192,67600,101,2,3:0:0:0:
256,192,67750,1,0,0:0:0:0:
276,300,68052,5,2,0:0:0:0:
286,221,68504,1,2,3:0:0:0:
286,221,68655,1,0,0:0:0:0:
222,374,68956,1,2,0:0:0:0:
256,192,69409,1,2,3:0:0:0:
286,29,69710,1,0,3:2:0:0:
256,192,71821,22,0,L|192:210,1,40,0|0,3:2|0:0,0:0:0:0:
96,231,71971,1,0,3:2:0:0:
83,244,72047,1,0,3:2:0:0:
94,252,72122,2,0,L|284:306,1,192,12|2,0:0|0:0,0:0:0:0:
374,251,72574,1,0,3:2:0:0:
498,374,72725,2,0,L|478:267,1,96,10|8,0:0|0:0,0:0:0:0:
482,135,73027,101,0,3:2:0:0:
393,166,73177,1,0,3:2:0:0:
305,195,73328,2,0,L|261:57,1,144,8|0,0:0|0:0,0:0:0:0:
277,40,73630,1,2,3:2:0:0:
201,113,73780,1,2,3:0:0:0:
73,55,73931,1,8,0:0:0:0:
129,0,74082,85,0,3:2:0:0:
129,0,74233,2,0,L|104:119,1,88,0|0,0:0|3:2,0:0:0:0:
89,243,74534,1,8,0:0:0:0:
171,195,74685,2,0,L|191:306,1,96
101,249,74986,1,0,3:2:0:0:
65,340,75137,1,8,0:0:0:0:
158,380,75288,5,8,0:0:0:0:
158,380,75363,1,8,0:0:0:0:
158,380,75439,2,0,L|182:303,2,80,2|2|0,3:2|0:3|3:2,0:0:0:0:
270,271,75891,2,0,L|242:177,1,80,10|0,0:0|0:0,0:0:0:0:
184,45,76192,1,8,0:0:0:0:
184,45,76268,1,8,0:0:0:0:
184,45,76343,1,2,3:2:0:0:
313,134,76494,102,0,L|402:115,1,88,8|2,0:0|3:2,0:0:0:0:
247,194,76795,2,0,L|158:175,1,88,8|2,0:0|0:0,0:0:0:0:
42,112,77097,1,8,3:0:0:0:
47,120,77172,1,4,3:0:0:0:
51,134,77248,2,0,L|230:67,1,192,6|0,3:2|0:0,0:0:0:0:
322,32,77700,22,0,L|304:117,1,88,0|6,3:2|0:0,0:0:0:0:
396,171,78001,2,0,L|413:249,1,80,0|0,3:2|0:0,0:0:0:0:
500,299,78303,2,0,L|482:377,1,72.0000000000001,0|4,3:2|0:0,0:0:0:0:
495,273,78604,1,0,3:2:0:0:
373,369,78755,1,10,0:0:0:0:
413,249,78906,5,8,0:0:0:0:
323,215,79057,1,12,0:0:0:0:
241,171,79207,1,8,0:0:0:0:
312,192,79358,1,0,3:2:0:0:
206,316,79509,101,8,0:0:0:0:
125,176,79660,2,0,P|129:132|135:88,1,88,12|0,0:0|3:2,0:0:0:0:
270,26,79961,1,8,0:0:0:0:
266,50,80037,1,8,0:0:0:0:
241,51,80112,1,0,3:2:0:0:
106,17,80263,86,0,L|117:59,1,44,12|0,0:0|0:0,0:0:0:0:
250,237,80564,1,2,0:3:0:0:
250,237,80715,1,2,3:2:0:0:
250,237,80866,2,0,L|174:262,1,80,4|0,3:2|0:0,0:0:0:0:
29,217,81167,1,8,0:0:0:0:
46,311,81318,6,0,L|97:135,1,160,4|0,3:2|3:2,0:0:0:0:
12,18,81770,1,12,0:0:0:0:
106,153,81921,1,8,0:0:0:0:
192,109,82072,1,2,3:0:0:0:
114,43,82223,1,10,0:0:0:0:
196,113,82373,2,0,L|279:81,1,80
394,24,82675,101,8,0:0:0:0:
369,101,82826,1,8,0:0:0:0:
425,156,82976,1,0,3:2:0:0:
500,128,83127,1,8,0:0:0:0:
367,260,83278,2,0,L|273:241,1,80,0|0,3:2|3:2,0:0:0:0:
184,315,83579,1,10,0:0:0:0:
184,315,83730,2,0,L|161:307,1,24,2|0,3:2|0:0,0:0:0:0:
109,288,83882,70,0,L|422:212,1,320,4|0,3:2|0:0,0:0:0:0:
430,206,85841,1,0,0:0:0:0:
192,32,86595,1,0,3:2:0:0:
256,192,86746,1,12,0:0:0:0:
256,192,86897,12,0,88706,0:0:0:0:
104,182,88856,5,0,3:2:0:0:
94,190,88932,1,0,3:2:0:0:
84,195,89007,1,12,0:0:0:0:
137,98,89158,1,8,0:0:0:0:
254,196,89309,1,10,0:0:0:0:
222,59,89459,1,8,0:0:0:0:
266,217,89610,2,0,L|252:262,1,40,12|0,0:0|0:0,0:0:0:0:
396,39,90364,2,0,L|382:84,1,40,8|0,0:0|0:0,0:0:0:0:
263,299,91118,70,0,P|244:345|226:398,2,92.0000000000001,4|0|4,3:2|3:2|3:2,0:0:0:0:
266,217,91570,5,0,3:2:0:0:
358,293,91721,2,0,P|389:325|464:317,1,92.0000000000001,2|0,0:0|3:2,0:0:0:0:
508,303,92022,1,10,0:0:0:0:
266,217,92173,5,2,3:0:0:0:
263,299,92324,1,0,3:2:0:0:
149,260,92474,2,0,P|104:271|52:310,1,92.0000000000001,2|8,0:0|0:0,0:0:0:0:
149,260,92776,1,0,3:2:0:0:
133,340,92927,5,12,0:0:0:0:
15,195,93077,1,8,0:0:0:0:
93,144,93228,1,0,3:2:0:0:
74,9,93379,2,0,P|130:40|185:103,1,144,4|0,3:2|3:2,0:0:0:0:
96,129,93831,2,0,P|78:93|68:50,1,72.0000000000001,6|0,3:2|0:0,0:0:0:0:
255,70,94133,102,0,P|262:28|276:-15,1,72.0000000000001,2|0,3:2|0:0,0:0:0:0:
391,152,94434,2,0,P|410:113|437:81,2,72.0000000000001,12|2|0,0:0|0:3|3:2,0:0:0:0:
183,254,94886,2,0,P|165:224|175:168,1,72.0000000000001,2|12,3:3|0:0,0:0:0:0:
329,232,95188,2,0,P|329:267|311:298,1,72.0000000000001,2|0,3:3|0:0,0:0:0:0:
255,213,95489,101,2,3:0:0:0:
246,384,95640,1,8,0:0:0:0:
252,381,95715,1,8,0:0:0:0:
261,383,95791,2,0,P|230:302|255:173,1,192,6|0,3:2|3:2,0:0:0:0:
297,15,96243,1,12,0:0:0:0:
167,70,96394,1,0,3:2:0:0:
328,182,96545,1,12,0:0:0:0:
182,111,96695,102,0,P|143:126|73:142,1,96,2|0,3:2|0:0,0:0:0:0:
365,68,96997,2,0,B|427:73|427:73|403:144|453:198,1,192,6|0,3:2|3:2,0:0:0:0:
506,113,97449,2,0,P|491:156|444:198,1,104,12|0,0:0|3:2,0:0:0:0:
313,311,97751,1,0,3:2:0:0:
346,157,97901,1,12,0:0:0:0:
430,242,98052,1,0,3:2:0:0:
257,215,98203,5,0,0:0:0:0:
257,215,98354,2,0,P|205:206|144:211,1,104,12|0,0:0|3:2,0:0:0:0:
313,311,98655,2,0,P|261:294|206:284,1,104,0|0,0:0|3:2,0:0:0:0:
83,266,98957,1,14,0:0:0:0:
228,384,99107,2,0,P|186:356|126:328,1,104,10|0,0:0|3:2,0:0:0:0:
313,311,99409,6,0,B|447:213|372:343|442:368,1,184,4|0,3:2|3:2,0:0:0:0:
429,361,99861,1,12,0:0:0:0:
491,304,100012,5,2,3:2:0:0:
361,203,100163,2,0,P|333:161|345:100,1,92.0000000000001,6|2,0:0|3:2,0:0:0:0:
334,121,100464,1,8,0:0:0:0:
426,38,100615,2,0,L|450:144,1,92.0000000000001,2|8,3:2|0:0,0:0:0:0:
251,88,100916,2,0,L|259:192,1,92.0000000000001,2|8,3:2|0:0,0:0:0:0:
54,140,101218,2,0,L|34:253,1,92.0000000000001,2|12,3:2|0:0,0:0:0:0:
22,62,101520,101,10,0:3:0:0:
22,62,101670,1,4,0:3:0:0:
131,141,101821,2,0,L|108:269,1,120,6|0,3:2|0:0,0:0:0:0:
109,259,102123,1,2,3:2:0:0:
0,365,102273,2,0,P|54:350|124:339,1,104,14|0,0:0|0:0,0:0:0:0:
194,230,102575,2,0,P|248:215|318:204,1,104,2|0,3:2|0:0,0:0:0:0:
374,346,102876,2,0,P|428:331|498:320,1,104,14|0,0:0|0:0,0:0:0:0:
259,302,103178,102,0,P|248:219|228:122,1,176,14|2,0:0|3:2,0:0:0:0:
139,174,103630,2,0,L|20:155,1,88,10|0,0:3|0:0,0:0:0:0:
325,177,103932,2,0,L|441:164,1,88,6|0,0:3|3:2,0:0:0:0:
229,128,104233,102,0,P|243:61|247:-5,1,128,6|0,3:2|3:2,0:0:0:0:
139,174,104685,1,4,3:2:0:0:
311,132,104836,1,0,3:2:0:0:
149,81,104987,1,4,3:2:0:0:
259,234,105137,1,0,3:2:0:0:
299,311,105439,6,0,P|273:274|256:218,1,88,12|0,0:0|3:2,0:0:0:0:
215,358,105740,2,0,B|248:313|331:297|311:239|223:223,1,176,14|2,0:0|3:0,0:0:0:0:
244,384,106193,1,0,0:0:0:0:
245,4,108002,5,8,0:0:0:0:
286,23,108152,6,0,L|297:42,1,12
199,66,108304,102,0,L|164:110,1,46,2|0,3:0|0:0,0:0:0:0:
279,185,108454,1,0,3:2:0:0:
124,173,108605,1,2,3:0:0:0:
124,173,108756,1,0,3:2:0:0:
44,106,108907,6,0,B|105:123|72:183|106:246,1,160,6|10,0:2|0:0,0:0:0:0:
263,343,109359,2,0,P|264:328|276:252,1,80,2|0,0:0|3:2,0:0:0:0:
112,351,109660,1,2,0:0:0:0:
21,333,109811,1,8,0:0:0:0:
105,262,109962,6,0,P|146:278|185:290,1,80,2|12,3:2|0:0,0:0:0:0:
198,382,110263,1,2,3:2:0:0:
301,255,110414,101,8,0:3:0:0:
301,255,110489,1,4,0:3:0:0:
301,255,110565,2,0,P|339:261|426:291,1,120,2|0,3:2|0:0,0:0:0:0:
482,228,110866,101,2,3:3:0:0:
482,228,110942,2,0,P|470:207|460:181,1,40,8|0,0:0|3:2,0:0:0:0:
357,135,111092,2,0,P|381:137|407:143,1,40,8|2,0:0|3:2,0:0:0:0:
496,76,111243,2,0,P|483:98|467:117,1,40,8|0,0:0|3:2,0:0:0:0:
368,231,111394,102,0,L|317:226,3,40,8|2|8|0,0:0|3:2|0:0|3:2,0:0:0:0:
226,136,111695,2,0,P|234:159|248:184,1,50,8|2,0:0|3:2,0:0:0:0:
213,309,111846,2,0,P|232:287|248:255,4,50,8|0|8|8|4,0:0|3:2|0:0|3:3|3:3,0:0:0:0:
313,327,112223,6,0,P|261:331|215:340,1,92.0000000000001,14|0,0:0|3:2,0:0:0:0:
15,216,112524,2,0,B|117:211|94:332|126:350,1,184,14|14,0:0|0:0,0:0:0:0:
59,287,112976,1,0,3:2:0:0:
196,236,113127,1,14,0:0:0:0:
114,171,113278,1,0,3:2:0:0:
200,370,113429,5,14,0:0:0:0:
264,318,113579,2,0,L|280:214,1,92.0000000000001,2|0,0:3|3:2,0:0:0:0:
458,114,113881,6,0,L|366:146,1,92.0000000000001,14|0,0:0|3:2,0:0:0:0:
146,0,114182,102,0,P|216:25|289:88,1,160,2|0,3:2|3:2,0:0:0:0:
269,3,114635,1,2,3:0:0:0:
269,3,114785,1,0,3:2:0:0:
191,101,114936,1,2,3:0:0:0:
100,129,115087,1,0,3:2:0:0:
255,172,115238,69,2,3:0:0:0:
45,63,115539,5,8,0:0:0:0:
150,284,115841,6,0,P|151:242|160:179,1,80,4|0,3:2|3:2,0:0:0:0:
69,239,116142,1,0,3:2:0:0:
69,239,116293,1,0,3:2:0:0:
265,311,116444,6,0,P|276:272|296:225,1,80,12|0,0:0|3:2,0:0:0:0:
382,384,116745,2,0,P|418:333|464:286,1,120,12|0,0:0|0:0,0:0:0:0:
466,297,117047,101,12,0:0:0:0:
367,162,117197,2,0,P|381:217|424:225,1,80,0|8,3:2|0:0,0:0:0:0:
506,132,117499,2,0,B|450:97|503:61|392:19,1,160,0|0,3:2|3:2,0:0:0:0:
348,82,117951,1,8,0:0:0:0:
220,158,118102,102,0,P|147:172|53:204,1,160,4|0,3:2|3:2,0:0:0:0:
249,242,118554,2,0,P|215:265|179:300,1,80,12|0,0:0|3:2,0:0:0:0:
239,73,118856,102,0,P|206:61|146:49,1,80,12|0,0:0|3:2,0:0:0:0:
299,15,119157,1,8,0:0:0:0:
341,144,119308,6,0,P|359:176|381:238,1,80,4|8,3:2|0:0,0:0:0:0:
294,304,119609,1,0,3:2:0:0:
467,162,119760,6,0,P|467:198|458:263,1,80,12|0,0:0|3:2,0:0:0:0:
230,256,120062,2,0,P|260:275|309:320,1,80,12|0,0:0|3:2,0:0:0:0:
203,380,120363,1,0,0:0:0:0:
378,333,120514,6,0,P|382:263|396:153,1,160,0|2,3:2|3:3,0:0:0:0:
286,182,120966,102,0,L|305:144,3,40,2|0|2|0,3:3|0:0|3:3|0:0,0:0:0:0:
207,145,121268,2,0,L|213:94,3,40,2|0|2|0,3:3|0:0|3:3|0:0,0:0:0:0:
123,161,121569,2,0,L|106:109,3,40,2|0|2|0,3:3|0:0|3:3|0:0,0:0:0:0:
39,101,121871,86,0,P|87:99|182:22,1,160,14|0,0:0|0:0,0:0:0:0:
256,0,122323,101,0,3:2:0:0:
265,34,122398,1,0,0:0:0:0:
256,0,122475,1,4,3:2:0:0:
256,192,122550,12,0,125339,3:0:0:0:
356,79,125490,85,4,3:2:0:0:
256,192,125565,12,4,128505,3:2:0:0:
283,289,131369,5,0,3:2:0:0:
209,141,131520,1,4,3:2:0:0:
367,119,137399,101,2,0:0:0:0:
349,133,137474,1,2,0:3:0:0:
344,114,137550,1,0,3:0:0:0:
344,114,137851,6,0,L|288:104,1,55.9999999999999,0|2,3:0|0:0,0:0:0:0:
232,159,138153,2,0,L|196:108,1,55.9999999999999,0|0,3:0|0:0,0:0:0:0:
259,176,138454,2,0,L|240:237,1,55.9999999999999,2|0,3:2|0:0,0:0:0:0:
233,317,138756,2,0,L|301:297,1,55.9999999999999,0|2,3:0|0:0,0:0:0:0:
157,307,139057,102,0,L|28:281,1,112,0|0,3:0|3:0,0:0:0:0:
47,284,139509,1,2,0:0:0:0:
14,203,139660,1,2,3:0:0:0:
26,200,139735,1,0,0:0:0:0:
32,193,139811,1,0,0:0:0:0:
3,108,139962,2,0,L|78:95,1,55.9999999999999,2|0,3:0|0:0,0:0:0:0:
17,25,140263,2,0,L|-3:85,1,55.9999999999999,2|0,3:0|0:0,0:0:0:0:
122,205,140565,69,8,0:0:0:0:
250,121,140715,1,0,3:0:0:0:
220,209,140866,1,8,0:3:0:0:
155,137,141017,1,4,0:3:0:0:
272,32,141168,2,0,L|180:49,1,80,0|2,3:0|3:0,0:0:0:0:
291,5,141469,1,0,3:0:0:0:
339,101,141620,1,8,0:3:0:0:
348,105,141695,1,8,0:3:0:0:
359,106,141771,1,4,0:3:0:0:
483,363,142072,6,0,L|490:283,1,80,8|0,0:0|3:0,0:0:0:0:
437,215,142374,1,8,0:3:0:0:
364,243,142524,1,4,0:3:0:0:
321,308,142675,1,0,3:0:0:0:
246,331,142826,1,2,3:0:0:0:
328,329,142977,1,0,3:0:0:0:
283,237,143127,1,8,0:3:0:0:
269,239,143203,1,8,0:3:0:0:
255,231,143278,1,4,0:3:0:0:
60,72,143580,70,0,B|120:57|120:57|142:131,1,120,4|0,3:2|0:0,0:0:0:0:
70,149,143881,1,2,3:0:0:0:
216,97,144032,1,8,0:0:0:0:
155,146,144183,2,0,P|139:182|130:229,1,80,2|0,0:0|3:0,0:0:0:0:
49,305,144484,2,0,P|32:268|24:229,1,80,10|0,0:0|0:0,0:0:0:0:
219,201,144786,1,10,0:0:0:0:
190,284,144936,1,4,0:3:0:0:
190,297,145012,1,4,0:3:0:0:
184,308,145087,102,0,B|238:295|238:295|254:313|254:313|307:309,1,120,6|0,3:2|0:0,0:0:0:0:
364,278,145389,1,2,3:0:0:0:
502,380,145539,1,8,0:0:0:0:
440,306,145690,2,0,L|460:227,1,80,2|0,0:0|3:0,0:0:0:0:
314,214,145992,2,0,L|363:277,1,80,10|0,0:0|0:0,0:0:0:0:
433,133,146293,1,10,3:2:0:0:
433,133,146369,1,8,0:0:0:0:
433,133,146444,2,0,L|398:153,1,40,8|4,0:3|0:3,0:0:0:0:
239,169,146595,86,0,P|249:114|257:47,2,104,4|0|0,3:2|0:0|0:0,0:0:0:0:
165,193,147047,2,0,L|34:369,1,208,2|2,0:3|0:3,0:0:0:0:
283,358,147650,5,0,0:0:0:0:
283,358,147725,1,0,0:0:0:0:
283,358,147801,2,0,P|269:303|263:251,2,104,2|0|2,0:3|0:0|0:3,0:0:0:0:
344,213,148253,102,0,B|409:202|456:184|456:184|493:238,2,168,2|2|2,3:3|3:3|3:3,0:0:0:0:
193,90,149459,5,0,0:0:0:0:
193,90,149534,1,0,0:0:0:0:
193,90,149610,2,0,P|205:48|213:-19,2,88,4|0|2,3:2|0:0|0:3,0:0:0:0:
347,64,150062,2,0,L|211:187,1,176,0|2,0:0|0:3,0:0:0:0:
296,367,150665,101,0,0:0:0:0:
296,367,150740,1,0,0:0:0:0:
296,367,150816,2,0,P|283:315|279:258,2,88,2|0|2,0:3|0:0|0:3,0:0:0:0:
192,320,151268,6,0,B|99:276|99:276|81:248|81:248|40:273,2,168,2|2|2,3:3|3:3|3:3,0:0:0:0:
53,265,152474,101,8,0:0:0:0:
50,248,152549,1,8,0:0:0:0:
47,230,152625,1,4,3:2:0:0:
19,88,152926,37,0,3:2:0:0:
81,38,153077,1,8,0:0:0:0:
159,47,153228,101,2,0:3:0:0:
189,95,153378,1,0,3:2:0:0:
240,121,153529,85,10,0:0:0:0:
275,123,153680,1,0,3:2:0:0:
342,94,153831,5,8,0:0:0:0:
308,25,153981,1,0,0:0:0:0:
257,83,154132,1,0,3:2:0:0:
340,172,154283,101,8,0:0:0:0:
424,113,154434,21,0,3:2:0:0:
493,148,154584,1,8,0:0:0:0:
471,230,154735,5,2,3:2:0:0:
467,249,154810,1,0,0:0:0:0:
464,265,154886,1,8,0:0:0:0:
352,167,155037,101,2,3:0:0:0:
284,219,155187,1,0,3:2:0:0:
209,193,155338,2,0,L|114:211,1,72.0000000000001,8|0,0:0|0:0,0:0:0:0:
19,309,155640,38,0,L|77:259,1,72.0000000000001,2|2,3:0|0:0,0:0:0:0:
185,280,155941,1,8,0:3:0:0:
235,338,156092,2,0,L|328:374,1,72.0000000000001,4|0,0:3|3:0,0:0:0:0:
403,324,156393,2,0,L|406:364,2,36,2|0|8,3:0|0:0|0:0,0:0:0:0:
456,115,156846,2,0,L|398:197,1,72.0000000000001,0|8,3:0|0:0,0:0:0:0:
264,44,157147,6,0,L|346:22,1,72.0000000000001,2|2,3:0|0:0,0:0:0:0:
305,116,157449,1,8,0:3:0:0:
341,182,157599,2,0,L|371:15,1,144,4|2,0:3|3:0,0:0:0:0:
439,3,158052,1,8,0:0:0:0:
239,168,158353,2,0,L|155:136,1,72.0000000000001,0|8,3:0|0:0,0:0:0:0:
37,245,158655,6,0,L|60:171,1,72.0000000000001,2|2,3:0|0:0,0:0:0:0:
138,343,158956,1,8,0:3:0:0:
198,252,159107,2,0,L|116:273,1,72.0000000000001,4|0,0:3|3:0,0:0:0:0:
36,375,159408,2,0,L|9:338,2,36,2|0|8,3:0|0:0|0:0,0:0:0:0:
252,312,159861,2,0,L|298:387,1,72.0000000000001,0|8,3:0|0:0,0:0:0:0:
420,314,160162,102,0,L|478:188,1,108,2|0,3:0|0:0,0:0:0:0:
465,215,160464,1,8,0:3:0:0:
390,167,160614,2,0,L|304:206,1,72.0000000000001,4|0,0:3|3:0,0:0:0:0:
222,218,160916,2,0,L|185:201,2,36,2|0|8,3:0|0:0|0:0,0:0:0:0:
306,29,161368,2,0,L|346:99,1,72.0000000000001,0|8,3:0|0:0,0:0:0:0:
187,12,161670,102,0,L|94:126,1,144,0|2,3:0|0:0,0:0:0:0:
205,111,162122,1,0,3:0:0:0:
212,125,162273,1,2,0:0:0:0:
81,138,162574,1,2,3:0:0:0:
206,221,162876,1,2,0:0:0:0:
447,211,163177,85,2,3:0:0:0:
447,211,163479,1,2,3:0:0:0:
447,211,163780,1,2,3:0:0:0:
447,211,164082,2,0,P|435:180|422:131,1,72.0000000000001,2|0,0:0|3:0,0:0:0:0:
476,0,164383,2,0,P|453:51|428:80,1,72.0000000000001,2|2,0:0|0:0,0:0:0:0:
366,80,164609,1,2,0:3:0:0:
370,86,164686,70,0,L|321:75,1,40,4|0,3:2|0:0,0:0:0:0:
233,39,164836,2,0,B|271:100|243:85|265:143,1,104.000000000001,0|2,0:0|0:3,0:0:0:0:
207,212,165289,5,0,0:0:0:0:
207,212,165439,1,2,0:3:0:0:
121,26,165741,1,0,0:0:0:0:
121,26,165892,2,0,B|77:49|77:49|91:190|91:190|42:220,1,240,10|2,0:2|3:3,0:0:0:0:
0,253,166495,2,0,L|70:235,1,52.0000000000003,0|2,0:0|0:3,0:0:0:0:
99,281,166796,102,0,L|-23:246,1,104.000000000001,2|2,3:3|0:3,0:0:0:0:
167,170,167248,2,0,L|114:187,1,52.0000000000003,2|2,3:3|0:0,0:0:0:0:
203,260,167550,5,8,0:2:0:0:
237,257,167625,1,10,0:2:0:0:
267,279,167701,2,0,B|275:259|275:259|247:121|247:121|260:83,2,192,4|0|2,3:2|3:3|0:3,0:0:0:0:
232,190,168756,101,2,0:0:0:0:
338,303,168907,2,0,B|402:265|402:265|411:271|411:271|397:344,1,160,10|2,0:2|0:3,0:0:0:0:
411,235,169359,2,0,B|397:156|397:156|405:166|405:166|393:79,2,168,2|2|2,3:3|3:3|3:3,0:0:0:0:
293,146,170565,1,8,0:0:0:0:
275,152,170640,1,10,0:0:0:0:
240,140,170716,6,0,B|201:151|156:162|156:162|164:144|173:123,1,120,4|0,3:2|0:0,0:0:0:0:
188,93,171017,1,0,3:2:0:0:
20,47,171168,2,0,B|39:80|19:35|48:138,1,80,8|2,0:0|0:3,0:0:0:0:
154,214,171469,1,0,3:2:0:0:
0,183,171620,1,10,0:0:0:0:
63,243,171771,1,0,3:2:0:0:
0,368,171922,102,0,B|74:342|-62:370|287:307|50:367|174:331,1,160,8|0,0:0|3:2,0:0:0:0:
323,248,172374,1,8,0:0:0:0:
281,325,172525,2,0,L|288:245,1,80,0|8,3:2|0:0,0:0:0:0:
206,202,172826,2,0,L|195:154,2,40,2|0|8,3:2|0:0|0:0,0:0:0:0:
351,72,173128,21,2,3:0:0:0:
253,50,173278,1,0,3:2:0:0:
367,175,173429,2,0,B|411:171|347:186|445:167,1,80,8|0,0:0|0:0,0:0:0:0:
500,229,173731,38,0,L|516:321,2,72.0000000000001,2|2|8,3:0|0:0|0:3,0:0:0:0:
445,166,174183,2,0,P|479:109|459:9,1,144,4|2,0:3|3:0,0:0:0:0:
396,101,174635,1,8,0:0:0:0:
445,166,174937,5,0,3:0:0:0:
334,148,175087,1,8,0:0:0:0:
381,213,175238,2,0,P|378:252|370:297,2,72.0000000000001,2|2|8,3:0|0:0|0:3,0:0:0:0:
293,384,175690,2,0,L|272:218,1,144,4|2,0:3|3:0,0:0:0:0:
400,361,176143,1,8,0:0:0:0:
209,345,176444,5,0,3:0:0:0:
372,284,176595,1,8,0:0:0:0:
261,258,176746,2,0,P|272:219|272:156,2,72.0000000000001,2|2|8,3:0|0:0|0:3,0:0:0:0:
161,262,177198,2,0,P|95:294|69:370,1,144,4|2,0:3|3:0,0:0:0:0:
209,345,177650,1,8,0:0:0:0:
161,262,177952,101,0,3:0:0:0:
68,356,178102,2,0,P|50:321|39:280,1,72.0000000000001,8|2,0:0|3:0,0:0:0:0:
0,224,178404,2,0,P|8:189|46:165,1,72.0000000000001,2|8,0:0|0:3,0:0:0:0:
128,70,178705,2,0,L|100:222,1,144,4|2,0:3|3:0,0:0:0:0:
200,134,179158,1,8,0:0:0:0:
35,167,179459,101,0,3:0:0:0:
128,70,179610,1,8,0:0:0:0:
108,35,179685,1,8,0:0:0:0:
134,5,179761,1,2,3:0:0:0:
445,252,180062,5,0,0:0:0:0:
445,252,180364,1,0,0:0:0:0:
445,252,180665,1,0,0:0:0:0:
326,88,180967,53,0,0:0:0:0:
332,75,181268,1,0,0:0:0:0:
335,60,181570,1,0,0:0:0:0:
241,203,181871,85,0,0:0:0:0:
241,203,182173,1,2,0:3:0:0:
495,158,182474,5,0,0:0:0:0:
491,158,182550,101,0,0:0:0:0:
487,157,182625,21,2,0:2:0:0:
483,157,182700,85,2,0:3:0:0:
478,156,182776,54,0,B|388:358|191:-42|73:156,1,480,4|0,3:2|3:0,0:0:0:0:
