osu file format v14

[General]
AudioFilename: audio.ogg
AudioLeadIn: 0
PreviewTime: 105661
Countdown: 0
SampleSet: Soft
StackLeniency: 0.7
Mode: 0
LetterboxInBreaks: 0
WidescreenStoryboard: 1

[Editor]
Bookmarks: 53,8807,17248,26283,32313,47991,51910,54935,57337,71808
DistanceSpacing: 1
BeatDivisor: 6
GridSize: 4
TimelineZoom: 2.08

[Metadata]
Title:Latitudes
TitleUnicode:Latitudes
Artist:Good Game
ArtistUnicode:Good Game
Creator:shime
Version:advanced
Source:
Tags:english math rock emo progressive don't dont blow it. it fackel announcerf q1x q1x_ 0pp 0ppinosu oppinosu opp riffy bakari
BeatmapID:3934459
BeatmapSetID:1907943

[Difficulty]
HPDrainRate:3
CircleSize:3
OverallDifficulty:4
ApproachRate:6.4
SliderMultiplier:1
SliderTickRate:0.5

[Events]
//Background and Video events
0,0,"bg.jpg",0,0
//Break Periods
2,48654,54897
2,122675,124501
2,125690,127516
2,128705,130531
2,131720,136561
2,146795,148621
//Storyboard Layer 0 (Background)
//Storyboard Layer 1 (Fail)
//Storyboard Layer 2 (Pass)
//Storyboard Layer 3 (Foreground)
//Storyboard Layer 4 (Overlay)
//Storyboard Sound Samples

[TimingPoints]
63,301.507537688442,4,2,1,65,1,0
63,-100,4,2,1,65,0,0
1269,301.507537688442,6,2,1,65,1,0
4887,301.507537688442,4,2,1,65,1,0
7299,301.507537688442,5,2,1,65,1,0
7299,-100,5,2,1,65,0,0
10314,301.507537688442,4,2,1,65,1,0
10314,-100,4,2,1,65,0,0
15138,-100,7,2,1,65,0,0
15213,-100,7,2,2,65,0,0
15791,-100,7,2,1,65,0,0
16645,-100,7,2,1,30,0,0
17248,301.507537688442,5,2,1,65,1,0
17248,-100,5,2,1,65,0,0
18756,301.507537688442,4,2,1,65,1,0
20263,-100,3,2,1,65,0,0
21168,-100,4,2,1,65,0,0
22374,301.507537688442,5,2,1,65,1,0
22374,-100,5,2,1,65,0,0
23882,301.507537688442,4,2,1,65,1,0
23882,-100,4,2,1,65,0,0
23957,-100,4,2,2,65,0,0
24560,-100,4,2,1,65,0,0
25389,-100,4,2,1,30,0,0
26294,-100,5,2,1,55,0,0
29233,-100,5,2,1,70,0,0
29309,-100,5,2,1,70,0,0
30364,-100,5,2,1,40,0,0
31721,-100,5,2,1,55,0,0
32173,-100,5,2,1,65,0,0
32324,-100,4,2,1,65,0,0
47098,-100,4,2,1,55,0,0
47550,-100,4,2,1,45,0,0
48002,-100,4,2,1,40,0,0
50414,301.507537688442,3,2,1,45,1,0
50414,-100,5,2,1,45,0,0
51319,301.507537688442,4,2,1,45,1,0
51922,-100,6,2,1,45,0,0
53427,324.324324324324,4,2,1,45,1,0
53427,-100,6,2,1,45,0,0
53751,307.692307692307,4,2,1,45,1,0
53751,-100,4,2,1,45,0,0
54366,319.148936170212,4,2,1,45,1,0
54366,-100,4,2,1,45,0,0
54897,311.203319502075,4,2,1,45,1,0
54897,-100,4,2,1,45,0,0
56142,301.507537688442,4,2,1,35,1,0
56142,-100,4,2,1,35,0,0
56443,-100,4,2,1,45,0,0
56745,-100,4,2,1,55,0,0
57348,-125,7,2,1,45,0,0
59610,301.507537688442,4,2,1,45,1,0
59610,-125,6,2,1,45,0,0
59911,301.507537688442,4,2,1,45,1,0
59911,-125,4,2,1,45,0,0
63379,301.507537688442,4,2,1,45,1,0
63379,-125,4,2,1,45,0,0
64585,301.507537688442,5,2,1,45,1,0
64585,-125,5,2,1,45,0,0
67600,301.507537688442,7,2,1,65,1,0
67600,-100,7,2,1,65,0,0
68052,-125,7,2,1,65,0,0
71821,301.507537688442,4,2,1,65,1,0
71821,-100,5,2,1,65,0,0
83882,301.507537688442,5,2,1,65,1,0
83957,-100,5,2,2,65,0,0
86595,-100,5,2,1,65,0,0
86821,-100,5,2,2,65,0,0
86897,301.507537688442,7,2,1,75,1,0
86897,-100,7,2,1,75,0,0
88856,-100,7,2,1,75,0,0
91118,301.507537688442,4,2,1,75,1,0
91118,-90.9090909090909,4,2,1,75,0,0
93379,-90.9090909090909,4,2,1,65,0,0
95791,-90.9090909090909,4,2,1,75,0,0
101821,-90.9090909090909,4,2,1,65,0,0
104233,-90.9090909090909,4,2,1,75,0,0
104384,301.507537688442,6,2,1,60,1,0
104384,-100,6,2,1,60,0,0
104534,-100,6,2,1,60,0,0
106193,301.507537688442,7,2,2,45,1,0
106193,-100,7,2,2,45,0,0
108002,-100,7,2,1,60,0,0
108304,301.507537688442,4,2,1,75,1,0
108304,-90.9090909090909,4,2,1,75,0,0
110716,301.507537688442,5,2,1,65,1,0
110716,-100,5,2,1,65,0,0
110866,-100,5,2,1,65,0,0
110942,-100,5,2,1,85,0,0
111168,-100,5,2,1,85,0,0
111771,-90.9090909090909,5,2,1,85,0,0
112223,301.507537688442,4,2,1,80,1,0
112223,-100,6,2,1,80,0,0
112826,-90.9090909090909,6,2,1,80,0,0
114032,-90.9090909090909,6,2,1,65,0,0
115841,-90.9090909090909,4,2,1,65,0,0
120665,-100,6,2,1,55,0,0
122475,301.507537688442,4,2,1,65,1,0
122475,-100,4,2,1,65,0,0
123681,301.507537688442,6,2,1,50,1,0
123681,-100,6,2,1,50,0,0
125490,301.507537688442,4,2,1,50,1,0
125490,-100,4,2,1,50,0,0
126696,301.507537688442,6,2,1,50,1,0
126696,-100,6,2,1,50,0,0
128505,301.507537688442,4,2,2,65,1,0
128505,-100,4,2,2,65,0,0
129711,301.507537688442,6,2,2,50,1,0
129711,-100,6,2,2,50,0,0
131520,301.507537688442,4,2,2,65,1,0
131520,-100,4,2,2,65,0,0
132726,301.507537688442,6,2,2,50,1,0
132726,-100,6,2,2,50,0,0
134535,301.507537688442,4,2,2,50,1,0
134535,-100,4,2,2,50,0,0
135741,301.507537688442,6,2,2,50,1,0
135741,-100,6,2,2,50,0,0
137550,301.507537688442,5,2,0,55,1,0
137550,-100,5,2,0,55,0,0
137851,-142.857142857143,5,2,0,55,0,0
140565,-117.647058823529,5,2,1,60,0,0
143580,-133.333333333333,5,2,1,60,0,0
146595,301.507537688442,4,2,1,55,1,0
146595,-100,4,2,1,55,0,0
147801,301.507537688442,6,2,1,55,1,0
147801,-100,6,2,1,55,0,0
149610,301.507537688442,4,2,1,55,1,0
149610,-100,4,2,1,55,0,0
150816,301.507537688442,6,2,1,55,1,0
150816,-100,6,2,1,55,0,0
152625,301.507537688442,5,2,1,60,1,0
152625,-117.647058823529,5,2,1,60,0,0
161670,-117.647058823529,5,2,1,55,0,0
161971,-133.333333333333,5,2,1,55,0,0
164686,301.507537688442,4,2,1,60,1,0
164686,-100,4,2,1,60,0,0
165892,301.507537688442,6,2,1,60,1,0
165892,-142.857142857143,6,2,1,60,0,0
167701,301.507537688442,4,2,1,60,1,0
167701,-100,4,2,1,60,0,0
168907,301.507537688442,6,2,1,60,1,0
168907,-142.857142857143,6,2,1,60,0,0
170716,301.507537688442,5,2,1,65,1,0
170716,-142.857142857143,5,2,1,65,0,0
182776,301.507537688442,4,2,2,65,1,0
182776,-100,4,2,2,65,0,0
190012,-100,4,2,2,20,0,0

[Colours]
Combo1 : 193,150,106
Combo2 : 172,156,153
Combo3 : 198,184,176
Combo4 : 161,145,130
Combo5 : 139,119,105
Combo6 : 115,86,68
Combo7 : 145,92,57
Combo8 : 147,113,85

[HitObjects]
438,384,63,54,0,L|393:336,1,50,14|8,0:0|0:0,0:0:0:0:
376,311,364,1,2,0:3:0:0:
376,311,515,2,0,P|385:272|397:207,1,100,8|0,0:0|3:0,0:0:0:0:
440,188,967,1,8,0:0:0:0:
377,110,1269,1,8,0:0:0:0:
277,121,1570,1,8,0:0:0:0:
222,37,1872,1,2,0:3:0:0:
222,37,2022,2,0,P|194:42|162:51,1,50,8|0,0:0|3:0,0:0:0:0:
123,45,2324,1,10,0:0:0:0:
44,107,2625,102,0,P|75:160|99:209,1,100,10|10,0:0|0:0,0:0:0:0:
138,214,3078,2,0,P|131:272|118:335,1,100,0|8,3:0|0:0,0:0:0:0:
203,372,3681,1,2,0:3:0:0:
290,324,3982,2,0,P|340:321|401:315,1,100,2|8,0:3|0:0,0:0:0:0:
482,278,4585,2,0,P|501:303|522:324,2,50.1658333333333,8|2|8,0:0|0:3|0:0,0:0:0:0:
448,240,5037,2,0,P|444:216|441:184,1,50,2|0,0:2|3:0,0:0:0:0:
463,144,5339,1,2,0:2:0:0:
463,144,5490,2,0,P|466:96|475:39,1,100,2|6,3:0|0:3,0:0:0:0:
374,31,6093,86,0,P|351:56|276:51,1,100,2|10,3:2|0:0,0:0:0:0:
202,110,6696,1,10,0:0:0:0:
256,192,6997,1,2,0:3:0:0:
256,192,7299,12,8,8203,0:0:0:0:
503,259,8806,6,0,P|476:267|443:284,1,50,14|10,0:2|0:2,0:0:0:0:
383,343,9258,1,0,0:0:0:0:
383,343,9409,2,0,P|356:351|323:368,1,50,2|0,0:3|3:2,0:0:0:0:
295,331,9711,1,8,0:2:0:0:
205,375,10012,1,10,0:2:0:0:
130,308,10314,22,0,P|89:330|36:320,1,100,8|2,0:2|0:3,0:0:0:0:
10,279,10766,1,8,0:2:0:0:
10,279,10917,1,0,3:0:0:0:
48,186,11218,1,0,3:0:0:0:
130,129,11520,102,0,P|126:103|124:63,1,50,10|2,0:2|3:2,0:0:0:0:
89,51,11821,1,8,0:2:0:0:
89,51,11972,1,2,3:0:0:0:
176,2,12273,2,0,P|224:8|277:22,1,100,2|2,3:2|0:3,0:0:0:0:
298,70,12726,85,8,0:2:0:0:
298,70,12876,2,0,P|346:63|399:50,1,100,8|0,0:2|3:0,0:0:0:0:
436,20,13329,1,8,0:2:0:0:
464,115,13630,1,10,0:2:0:0:
386,177,13932,6,0,P|362:229|344:284,1,100,0|8,3:0|0:2,0:0:0:0:
332,317,14384,1,8,0:2:0:0:
250,268,14685,1,0,3:0:0:0:
250,268,14836,2,0,P|221:271|194:277,1,50,8|8,0:2|0:2,0:0:0:0:
168,236,15138,102,0,P|166:198|20:165,1,216.666666666667,0|8,3:0|0:0,0:0:0:0:
5,294,16193,1,8,0:0:0:0:
121,59,17248,37,14,0:0:0:0:
121,59,17398,2,0,P|193:87|220:101,1,100,8|8,0:0|0:0,0:0:0:0:
240,139,17851,1,2,0:3:0:0:
320,80,18152,1,8,0:0:0:0:
399,142,18454,102,0,P|402:172|409:197,1,50,8|0,0:0|3:0,0:0:0:0:
455,201,18756,2,0,L|445:309,1,100,8|2,0:0|0:3,0:0:0:0:
478,338,19208,1,8,0:0:0:0:
386,371,19509,1,10,0:0:0:0:
386,371,19660,2,0,P|366:359|334:346,1,50,0|10,3:0|0:0,0:0:0:0:
306,312,19962,86,0,B|273:328|273:328|212:341,1,100,2|10,0:0|0:0,0:0:0:0:
170,371,20414,1,10,3:0:0:0:
90,312,20715,2,0,P|100:271|111:206,1,100,6|2,3:0|3:0,0:0:0:0:
97,170,21168,5,8,0:0:0:0:
97,170,21318,1,8,0:0:0:0:
178,113,21620,1,8,0:0:0:0:
178,113,21771,2,0,P|227:139|264:165,1,100,2|8,0:0|0:0,0:0:0:0:
338,231,22374,102,0,P|384:227|408:177,1,100,8|2,0:0|3:0,0:0:0:0:
460,175,22826,1,0,0:0:0:0:
460,175,22977,2,0,P|456:149|452:116,1,50,8|8,0:0|0:0,0:0:0:0:
418,89,23278,1,0,3:0:0:0:
320,68,23580,2,0,P|316:42|312:9,1,50,0|4,3:0|3:0,0:0:0:0:
265,1,23882,22,0,P|210:106|115:92,1,225,10|8,3:0|0:0,0:0:0:0:
30,183,24937,1,4,3:0:0:0:
30,183,26294,22,0,P|53:245|61:279,1,100,6|0,3:2|3:2,0:0:0:0:
131,349,26897,1,2,3:2:0:0:
172,319,27047,2,0,B|227:255|292:335|310:345|356:291,1,200,4|0,3:2|0:0,0:0:0:0:
397,315,27801,21,4,3:2:0:0:
440,224,28103,1,0,3:2:0:0:
387,139,28404,1,0,3:2:0:0:
356,99,28555,2,0,B|264:96|285:172|244:185,1,150,6|0,3:2|3:2,0:0:0:0:
165,125,29309,102,0,P|140:117|116:104,1,50,8|0,0:0|3:2,0:0:0:0:
68,105,29610,1,8,0:0:0:0:
33,141,29761,1,4,3:2:0:0:
14,69,32173,6,0,P|56:56|109:30,1,100,4|0,3:2|3:2,0:0:0:0:
154,45,32625,1,12,0:0:0:0:
253,38,32927,2,0,P|282:39|302:108,1,100,2|14,3:0|0:0,0:0:0:0:
286,142,33379,2,0,P|274:196|269:246,1,100,2|2,0:0|3:2,0:0:0:0:
197,310,33982,1,2,3:0:0:0:
120,367,34284,2,0,L|72:348,1,50,2|8,3:0|0:3,0:0:0:0:
43,308,34585,6,0,P|55:262|61:202,1,100,6|0,3:2|3:2,0:0:0:0:
100,178,35037,1,14,0:0:0:0:
194,225,35339,1,12,0:0:0:0:
194,225,35490,1,0,3:2:0:0:
245,138,35791,54,0,P|323:109|341:98,1,100,6|0,3:2|3:2,0:0:0:0:
364,142,36243,1,12,0:0:0:0:
456,113,36545,2,0,P|488:107|509:81,2,50,0|12|0,3:2|0:0|3:2,0:0:0:0:
486,208,37148,54,0,P|471:234|463:262,1,50,12|0,0:0|3:2,0:0:0:0:
477,299,37449,1,0,3:2:0:0:
393,352,37751,1,12,0:0:0:0:
393,352,37902,1,8,0:0:0:0:
302,309,38203,102,0,P|265:270|287:220,1,100,4|0,3:2|3:2,0:0:0:0:
233,203,38655,1,12,0:0:0:0:
286,118,38957,1,14,0:0:0:0:
431,152,39409,102,0,P|453:101|385:50,1,150,6|4,3:2|0:0,0:0:0:0:
342,48,40012,1,2,3:2:0:0:
342,48,40163,2,0,L|354:0,2,50,12|10|4,0:0|3:0|3:0,0:0:0:0:
298,72,40615,1,4,3:2:0:0:
217,23,40917,5,2,3:2:0:0:
217,23,41067,2,0,P|166:43|104:59,1,100,14|14,0:0|0:0,0:0:0:0:
41,114,41670,1,14,0:0:0:0:
78,208,41972,2,0,P|113:253|89:307,1,100,14|2,0:0|3:2,0:0:0:0:
136,329,42424,1,10,3:0:0:0:
221,277,42726,2,0,B|233:285|243:287|288:286,1,50,6|0,3:0|3:0,0:0:0:0:
316,269,43027,6,0,B|362:289|332:321|384:336,1,100,6|2,3:2|3:0,0:0:0:0:
430,317,43479,1,14,0:0:0:0:
497,242,43781,2,0,P|490:220|485:190,1,50,14|10,0:0|0:0,0:0:0:0:
412,125,44233,2,0,P|451:110|467:42,1,100,2|0,3:0|3:0,0:0:0:0:
441,17,44686,53,12,0:0:0:0:
340,17,44987,1,12,0:0:0:0:
253,67,45289,1,12,0:0:0:0:
211,158,45590,1,12,0:0:0:0:
220,257,45892,1,12,0:0:0:0:
284,333,46193,2,0,P|317:343|352:348,2,50,12|10|0,0:0|0:0|3:0,0:0:0:0:
243,362,46645,54,0,P|201:346|143:374,1,100,6|0,3:2|3:2,0:0:0:0:
102,372,47098,1,12,0:0:0:0:
30,302,47399,1,12,0:0:0:0:
30,302,47550,2,0,P|51:262|76:206,1,100,4|0,0:0|3:2,0:0:0:0:
118,190,48002,5,2,0:3:0:0:
256,247,48454,1,2,0:3:0:0:
189,52,56142,54,0,L|229:92,1,50,8|8,3:2|0:0,0:0:0:0:
230,137,56443,2,0,L|210:198,1,50,8|8,3:2|0:0,0:0:0:0:
250,219,56745,1,8,3:2:0:0:
250,219,56895,1,8,3:2:0:0:
262,318,57197,1,8,0:0:0:0:
294,348,57348,54,0,P|339:317|446:260,2,160,2|0|0,3:2|3:2|3:2,0:0:0:0:
214,384,58855,1,0,3:2:0:0:
137,340,59157,1,0,3:2:0:0:
137,340,59307,1,2,0:0:0:0:
51,360,59610,1,2,3:2:0:0:
20,286,59911,2,0,L|42:123,1,160,2|0,3:2|3:2,0:0:0:0:
136,98,60815,2,0,P|166:134|194:170,1,80,0|0,3:2|3:2,0:0:0:0:
271,183,61418,1,0,3:2:0:0:
334,122,61720,1,0,3:2:0:0:
420,140,62021,2,0,P|440:128|465:104,1,40,2|2,3:2|0:0,0:0:0:0:
495,129,62323,6,0,L|481:10,1,120,2|2,3:2|0:0,0:0:0:0:
437,3,62926,1,0,3:2:0:0:
309,37,63379,2,0,P|291:48|227:85,2,80,2|2|2,3:2|3:2|3:2,0:0:0:0:
366,103,64283,1,2,3:2:0:0:
300,162,64585,2,0,P|273:252|258:327,1,160,2|2,3:2|3:2,0:0:0:0:
181,356,65489,2,0,P|164:337|101:324,1,80,0|0,3:2|3:2,0:0:0:0:
51,259,66092,101,2,3:0:0:0:
51,259,66243,1,0,0:0:0:0:
55,171,66544,2,0,P|69:141|152:138,1,120,2|2,0:0|3:0,0:0:0:0:
185,155,67147,2,0,P|202:212|207:244,1,80,0|2,0:0|0:0,0:0:0:0:
189,275,67600,5,2,3:0:0:0:
189,275,67750,1,0,0:0:0:0:
266,317,68052,2,0,P|299:306|354:293,1,80,2|0,0:0|0:0,0:0:0:0:
386,318,68504,1,2,3:0:0:0:
386,318,68655,1,0,0:0:0:0:
447,255,68956,101,2,0:0:0:0:
447,255,69107,1,0,3:2:0:0:
388,172,69409,2,0,L|365:76,1,80,2|0,3:0|3:2,0:0:0:0:
481,43,71821,38,0,L|468:115,1,50,0|0,3:2|3:2,0:0:0:0:
436,127,72122,2,0,L|326:161,1,100,12|2,0:0|0:0,0:0:0:0:
299,139,72574,1,0,3:2:0:0:
299,139,72725,1,10,0:0:0:0:
220,76,73027,2,0,L|191:26,1,50,0|0,3:2|3:2,0:0:0:0:
145,23,73328,1,8,0:0:0:0:
75,95,73630,102,0,L|107:141,1,50,2|2,3:2|3:0,0:0:0:0:
137,173,73931,1,8,0:0:0:0:
117,219,74082,2,0,L|78:325,1,100,0|0,3:2|3:2,0:0:0:0:
60,357,74534,2,0,L|10:347,2,50,8|0|0,0:0|0:0|0:0,0:0:0:0:
160,357,75137,2,0,L|222:370,1,50,8|8,0:0|0:0,0:0:0:0:
246,334,75439,86,0,P|300:333|337:371,1,100,2|0,3:2|3:2,0:0:0:0:
374,334,75891,1,10,0:0:0:0:
443,262,76192,1,8,0:0:0:0:
443,262,76343,2,0,L|398:228,1,50,2|8,3:2|0:0,0:0:0:0:
359,206,76645,1,2,3:2:0:0:
272,246,76946,1,2,0:0:0:0:
184,196,77248,6,0,P|172:110|159:43,1,150,6|0,3:2|3:2,0:0:0:0:
114,57,77851,1,6,0:0:0:0:
114,57,78001,2,0,P|89:105|60:143,1,100,0|0,3:2|3:2,0:0:0:0:
35,184,78454,1,4,0:0:0:0:
84,270,78755,2,0,P|110:275|145:287,1,50,10|8,0:0|0:0,0:0:0:0:
170,315,79057,2,0,L|177:368,2,50,12|8|0,0:0|0:0|3:2,0:0:0:0:
217,297,79509,101,8,0:0:0:0:
217,297,79660,1,12,0:0:0:0:
278,225,79961,1,8,0:0:0:0:
264,129,80263,1,12,0:0:0:0:
340,82,80564,2,0,P|362:99|388:125,1,50,2|2,0:3|3:2,0:0:0:0:
427,124,80866,22,0,L|378:236,1,100,4|8,3:2|0:0,0:0:0:0:
409,260,81318,1,4,3:2:0:0:
340,332,81619,1,0,3:2:0:0:
298,303,81770,1,12,0:0:0:0:
204,338,82072,2,0,L|160:374,1,50,2|10,3:0|0:0,0:0:0:0:
117,353,82373,6,0,L|87:247,1,100,0|8,0:0|0:0,0:0:0:0:
49,163,82976,2,0,L|92:122,1,50,0|8,3:2|0:0,0:0:0:0:
115,87,83278,2,0,P|93:76|56:51,2,50,0|0|10,3:2|3:2|0:0,0:0:0:0:
164,91,83730,1,2,3:2:0:0:
214,93,83882,21,4,3:2:0:0:
214,93,86595,5,0,3:2:0:0:
246,131,86746,1,12,0:0:0:0:
246,131,88856,101,0,3:2:0:0:
246,131,89007,2,0,L|280:183,1,50,12|8,0:0|0:0,0:0:0:0:
238,209,89309,2,0,L|206:268,1,50,10|8,0:0|0:0,0:0:0:0:
225,301,89610,5,12,0:0:0:0:
33,226,90364,1,8,0:0:0:0:
185,99,91118,2,0,L|245:137,2,55,4|0|4,3:2|3:2|3:2,0:0:0:0:
159,50,91570,1,0,3:2:0:0:
103,48,91721,70,0,L|-12:96,1,110,2|10,0:0|0:0,0:0:0:0:
31,136,92173,2,0,L|58:194,1,55,2|0,3:0|3:2,0:0:0:0:
152,236,92625,1,8,0:0:0:0:
89,320,92927,2,0,P|69:315|32:292,2,55,12|8|0,0:0|0:0|3:2,0:0:0:0:
112,369,93379,6,0,L|233:372,1,110,4|0,3:2|3:2,0:0:0:0:
271,347,93831,1,6,3:2:0:0:
380,362,94133,1,2,3:2:0:0:
445,275,94434,1,12,0:0:0:0:
445,275,94585,2,0,L|429:221,1,55,2|0,0:3|3:2,0:0:0:0:
411,170,94886,5,2,3:3:0:0:
301,156,95188,1,2,3:3:0:0:
233,242,95489,2,0,L|172:281,1,55,2|8,3:0|0:0,0:0:0:0:
153,315,95791,6,0,P|113:276|70:242,1,110,6|0,3:2|3:2,0:0:0:0:
15,238,96243,1,12,0:0:0:0:
0,127,96545,1,12,0:0:0:0:
0,127,96695,1,2,3:2:0:0:
78,50,96997,102,0,P|131:58|176:18,1,110,6|0,3:2|3:2,0:0:0:0:
222,48,97449,2,0,P|242:50|271:27,1,55,12|0,0:0|3:2,0:0:0:0:
317,65,97751,2,0,L|377:90,2,55,0|12|0,3:2|0:0|3:2,0:0:0:0:
260,159,98354,2,0,L|238:216,2,55,12|0|0,0:0|3:2|0:0,0:0:0:0:
163,118,98957,1,14,0:0:0:0:
163,118,99107,1,10,0:0:0:0:
118,218,99409,102,0,P|138:271|154:345,1,110,4|0,3:2|3:2,0:0:0:0:
205,320,99861,1,12,0:0:0:0:
272,380,100163,1,6,0:0:0:0:
272,380,100313,1,2,3:2:0:0:
376,344,100615,1,2,3:2:0:0:
426,322,100766,102,0,L|487:357,2,55,8|2|8,0:0|3:2|0:0,0:0:0:0:
372,225,101369,2,0,L|381:164,2,55,12|10|4,0:0|0:3|0:3,0:0:0:0:
324,252,101821,2,0,L|193:279,1,110,6|2,3:2|3:2,0:0:0:0:
167,249,102273,5,14,0:0:0:0:
64,208,102575,1,2,3:2:0:0:
69,98,102876,1,14,0:0:0:0:
165,44,103178,2,0,B|225:52|211:83|269:76,1,110,14|2,0:0|3:2,0:0:0:0:
319,58,103630,6,0,L|346:1,1,55,10|0,0:3|0:0,0:0:0:0:
397,8,103932,2,0,L|450:68,1,55,6|0,0:3|3:2,0:0:0:0:
486,62,104233,1,6,3:2:0:0:
452,155,104534,2,0,L|405:194,2,50,0|4|0,3:2|3:2|3:2,0:0:0:0:
498,174,104987,2,0,L|511:239,1,50,4|0,3:2|3:2,0:0:0:0:
497,322,105439,5,12,0:0:0:0:
402,352,105740,2,0,P|368:345|295:335,1,100,14|2,0:0|3:0,0:0:0:0:
201,29,108002,1,8,0:0:0:0:
97,66,108304,102,0,L|45:26,2,55,2|0|2,3:0|3:2|3:0,0:0:0:0:
132,108,108756,1,0,3:2:0:0:
96,150,108907,2,0,L|57:259,1,110,6|10,0:2|0:0,0:0:0:0:
94,302,109359,1,2,0:0:0:0:
94,302,109510,1,0,3:2:0:0:
203,310,109811,6,0,L|268:286,1,55,8|2,0:0|3:2,0:0:0:0:
286,335,110113,2,0,L|354:370,1,55,12|2,0:0|3:2,0:0:0:0:
389,361,110414,1,8,0:3:0:0:
437,334,110565,5,2,3:2:0:0:
353,262,110866,101,2,3:3:0:0:
322,156,111168,1,2,3:2:0:0:
370,57,111469,1,2,3:2:0:0:
479,42,111771,102,0,L|516:86,1,55,2|0,3:2|3:2,0:0:0:0:
486,131,112072,1,8,3:3:0:0:
430,128,112223,101,14,0:0:0:0:
322,156,112524,1,14,0:0:0:0:
256,67,112826,2,0,L|191:91,1,55,14|0,0:0|3:2,0:0:0:0:
180,135,113127,1,14,0:0:0:0:
139,237,113429,1,14,0:0:0:0:
92,265,113579,2,0,L|48:225,1,55,2|0,0:3|3:2,0:0:0:0:
9,191,113881,6,0,L|31:79,1,110,14|2,0:0|3:2,0:0:0:0:
20,28,114333,1,2,3:0:0:0:
129,34,114635,2,0,L|174:-4,2,55,2|0|2,3:0|3:2|3:0,0:0:0:0:
127,92,115087,1,0,3:2:0:0:
127,92,115238,2,0,L|137:207,1,110,2|8,3:0|0:0,0:0:0:0:
197,293,115841,86,0,L|257:330,2,55,4|0|0,3:2|3:2|3:2,0:0:0:0:
169,342,116293,1,0,3:2:0:0:
169,342,116444,1,12,0:0:0:0:
61,319,116745,1,12,0:0:0:0:
36,221,117047,5,12,0:0:0:0:
36,221,117197,2,0,P|58:204|85:189,1,55,0|8,3:2|0:0,0:0:0:0:
136,201,117499,2,0,P|142:150|156:84,1,110,0|0,3:2|3:2,0:0:0:0:
241,25,118102,6,0,B|293:33|272:63|343:70,1,110,4|0,3:2|3:2,0:0:0:0:
348,123,118554,2,0,L|385:191,1,55,12|0,0:0|3:2,0:0:0:0:
428,182,118856,2,0,L|482:153,2,55,12|0|8,0:0|3:2|0:0,0:0:0:0:
446,233,119308,1,4,3:2:0:0:
344,275,119609,6,0,L|334:344,1,55,0|12,3:2|0:0,0:0:0:0:
284,350,119911,2,0,P|236:338|166:334,1,110,0|0,3:2|3:2,0:0:0:0:
90,252,120514,101,0,3:2:0:0:
90,252,120665,2,0,L|106:197,1,50,0|2,3:2|3:3,0:0:0:0:
142,172,120966,2,0,L|206:176,1,50,2|2,3:3|3:3,0:0:0:0:
217,131,121268,2,0,L|264:81,1,50,2|2,3:3|3:3,0:0:0:0:
301,104,121569,2,0,L|408:138,1,100,2|14,3:3|0:0,0:0:0:0:
486,90,122172,2,0,L|471:32,1,50,0|0,0:0|3:2,0:0:0:0:
507,4,122475,37,4,3:2:0:0:
507,4,125490,5,4,3:2:0:0:
229,50,128505,101,4,3:2:0:0:
274,314,131520,5,4,3:2:0:0:
185,358,137550,101,0,3:0:0:0:
105,325,137851,1,0,3:0:0:0:
153,256,138153,2,0,P|150:230|135:181,1,69.9999999999999,0|2,3:0|3:2,0:0:0:0:
61,152,138756,2,0,L|23:161,2,35,0|2|0,3:0|0:0|3:0,0:0:0:0:
99,77,139359,1,0,3:0:0:0:
175,111,139660,2,0,L|244:130,1,69.9999999999999,2|2,3:0|3:0,0:0:0:0:
315,87,140263,1,2,3:0:0:0:
383,35,140565,70,0,P|425:51|470:62,1,85.0000000000003,8|8,0:0|0:3,0:0:0:0:
497,87,141017,2,0,P|492:123|490:176,1,85.0000000000003,4|2,0:3|3:0,0:0:0:0:
447,174,141469,1,0,3:0:0:0:
486,249,141771,1,4,0:3:0:0:
436,317,142072,6,0,P|399:302|345:290,1,85.0000000000003,8|8,0:0|0:3,0:0:0:0:
332,255,142524,2,0,P|288:265|243:271,1,85.0000000000003,4|2,0:3|3:0,0:0:0:0:
212,293,142977,1,0,3:0:0:0:
145,346,143278,1,4,0:3:0:0:
86,277,143580,70,0,P|81:246|75:203,1,75.0000000000002,4|2,3:2|3:0,0:0:0:0:
58,169,144032,1,8,0:0:0:0:
5,104,144333,1,0,3:0:0:0:
5,104,144484,2,0,P|14:70|47:34,1,75.0000000000002,10|10,0:0|0:0,0:0:0:0:
128,48,145087,102,0,P|169:54|205:64,1,75.0000000000002,6|2,3:2|3:0,0:0:0:0:
246,49,145539,1,8,0:0:0:0:
293,123,145841,1,0,3:0:0:0:
293,123,145992,2,0,P|302:162|304:199,1,75.0000000000002,10|10,0:0|3:2,0:0:0:0:
256,285,146595,85,4,3:2:0:0:
256,307,149610,5,4,3:2:0:0:
191,179,152474,101,8,0:0:0:0:
191,179,152625,2,0,L|198:88,1,85.0000000000003,4|0,3:2|3:2,0:0:0:0:
259,34,153228,2,0,L|297:51,1,42.5000000000001,2|0,0:3|3:2,0:0:0:0:
332,77,153529,1,10,0:0:0:0:
408,39,153831,2,0,L|438:-3,2,42.5000000000001,8|0|0,0:0|0:0|3:2,0:0:0:0:
480,96,154434,37,0,3:2:0:0:
512,179,154735,1,2,3:2:0:0:
466,250,155037,2,0,P|426:243|372:226,1,85.0000000000003,2|8,3:0|0:0,0:0:0:0:
316,283,155640,22,0,L|323:325,2,42.5000000000001,2|2|8,3:0|0:0|0:3,0:0:0:0:
275,269,156092,2,0,P|280:233|282:180,1,85.0000000000003,4|2,0:3|3:0,0:0:0:0:
246,160,156544,1,8,0:0:0:0:
300,94,156846,1,0,3:0:0:0:
232,43,157147,6,0,L|218:-3,2,42.5000000000001,2|2|8,3:0|0:0|0:3,0:0:0:0:
194,63,157599,2,0,P|150:73|105:79,1,85.0000000000003,4|2,0:3|3:0,0:0:0:0:
75,103,158052,1,8,0:0:0:0:
87,186,158353,2,0,P|93:218|100:244,1,42.5000000000001,0|8,3:0|0:0,0:0:0:0:
60,264,158655,6,0,L|16:250,2,42.5000000000001,2|2|8,3:0|0:0|0:3,0:0:0:0:
86,312,159107,2,0,P|135:329|171:349,1,85.0000000000003,4|2,0:3|3:0,0:0:0:0:
198,370,159559,1,8,0:0:0:0:
259,311,159861,2,0,P|282:309|312:295,1,42.5000000000001,0|8,3:0|0:0,0:0:0:0:
346,332,160162,102,0,P|337:360|332:382,2,42.5000000000001,2|2|8,3:0|0:0|0:3,0:0:0:0:
399,322,160614,2,0,L|423:223,1,85.0000000000003,4|2,0:3|3:0,0:0:0:0:
479,222,161067,1,8,0:0:0:0:
440,146,161368,2,0,L|429:95,1,42.5000000000001,0|8,3:0|0:0,0:0:0:0:
450,66,161670,101,0,3:0:0:0:
373,12,161971,2,0,P|337:19|294:31,1,75.0000000000002,2|2,0:0|0:0,0:0:0:0:
209,26,162574,2,0,P|192:53|170:99,1,75.0000000000002,2|2,3:0|0:0,0:0:0:0:
89,125,163177,85,2,3:0:0:0:
112,211,163479,1,2,3:0:0:0:
78,294,163780,102,0,P|112:322|138:340,1,75.0000000000002,2|2,3:0|0:0,0:0:0:0:
169,359,164233,1,0,3:0:0:0:
306,298,164686,85,4,3:2:0:0:
269,106,165892,6,0,P|304:64|354:24,1,105,10|2,0:2|3:3,0:0:0:0:
465,58,166796,1,2,3:3:0:0:
506,176,167248,1,2,3:3:0:0:
470,255,167550,1,8,0:2:0:0:
470,255,167701,1,4,3:2:0:0:
206,349,168907,102,0,P|155:348|101:352,2,105,10|2|2,0:2|3:3|3:3,0:0:0:0:
329,370,170263,1,2,3:3:0:0:
401,325,170565,1,8,0:0:0:0:
401,325,170716,2,0,L|417:243,1,69.9999999999999,4|0,3:2|3:2,0:0:0:0:
361,190,171319,5,2,0:3:0:0:
422,133,171620,2,0,L|434:89,1,35,10|0,0:0|3:2,0:0:0:0:
433,56,171922,2,0,L|467:71,2,35,8|0|0,0:0|0:0|3:2,0:0:0:0:
350,27,172525,102,0,L|313:46,1,35,0|8,3:2|0:0,0:0:0:0:
289,73,172826,1,2,3:2:0:0:
205,59,173128,2,0,P|182:35|143:6,1,69.9999999999999,2|8,3:0|0:0,0:0:0:0:
87,61,173731,70,0,L|93:101,1,35,2|2,3:0|0:0,0:0:0:0:
76,136,174032,1,8,0:3:0:0:
76,136,174183,2,0,P|78:171|82:217,1,69.9999999999999,4|2,0:3|3:0,0:0:0:0:
52,237,174635,1,8,0:0:0:0:
98,306,174937,1,0,3:0:0:0:
181,310,175238,6,0,L|197:276,1,35,2|2,3:0|0:0,0:0:0:0:
242,283,175540,1,8,0:3:0:0:
242,283,175690,2,0,P|267:302|302:335,1,69.9999999999999,4|2,0:3|3:0,0:0:0:0:
314,365,176143,1,8,0:0:0:0:
387,324,176444,2,0,L|376:278,1,35,0|8,3:0|0:0,0:0:0:0:
413,266,176746,5,2,3:0:0:0:
433,186,177047,1,8,0:3:0:0:
433,186,177198,2,0,P|384:169|360:155,1,69.9999999999999,4|2,0:3|3:0,0:0:0:0:
348,123,177650,1,8,0:0:0:0:
293,60,177952,2,0,P|271:65|247:74,1,35,0|8,3:0|0:0,0:0:0:0:
223,90,178253,101,2,3:0:0:0:
143,86,178555,1,8,0:3:0:0:
143,86,178705,2,0,L|134:160,1,69.9999999999999,4|2,0:3|3:0,0:0:0:0:
102,183,179158,1,8,0:0:0:0:
121,264,179459,2,0,L|123:314,1,35,0|8,3:0|0:0,0:0:0:0:
145,334,179761,101,2,3:0:0:0:
218,372,180062,2,0,P|254:365|297:353,1,69.9999999999999
370,351,180665,2,0,P|387:324|407:282,1,69.9999999999999
480,255,181268,69,0,0:0:0:0:
496,172,181570,1,0,0:0:0:0:
454,99,181871,1,0,0:0:0:0:
372,80,182173,1,2,0:3:0:0:
298,119,182474,2,0,L|277:161,1,35,0|2,0:0|0:2,0:0:0:0:
256,192,182776,21,4,3:2:0:0:
