osu file format v14

[General]
AudioFilename: audio.ogg
AudioLeadIn: 0
PreviewTime: 105661
Countdown: 0
SampleSet: Soft
StackLeniency: 0.5
Mode: 0
LetterboxInBreaks: 0
WidescreenStoryboard: 1

[Editor]
Bookmarks: 53,26283,32313,47991,57337,71808,83878,91114,106189,108299,114328,120660,122167,122318,122393,122469,122619,122770,137544,140559,143574,146589,152619,155634,161664,164679,170709,173724,179754,182769,190005
DistanceSpacing: 1
BeatDivisor: 6
GridSize: 16
TimelineZoom: 3.499999

[Metadata]
Title:Latitudes
TitleUnicode:Latitudes
Artist:Good Game
ArtistUnicode:Good Game
Creator:shime
Version:0pp's another
Source:
Tags:english math rock emo progressive don't dont blow it. it fackel announcerf q1x q1x_ 0pp 0ppinosu oppinosu opp riffy bakari
BeatmapID:4003871
BeatmapSetID:1907943

[Difficulty]
HPDrainRate:5.7
CircleSize:3.9
OverallDifficulty:8
ApproachRate:9.4
SliderMultiplier:2.22
SliderTickRate:1

[Events]
//Background and Video events
0,0,"bg.jpg",0,0
//Break Periods
2,70061,71281
2,134735,137010
//Storyboard Layer 0 (Background)
//Storyboard Layer 1 (Fail)
//Storyboard Layer 2 (Pass)
//Storyboard Layer 3 (Foreground)
//Storyboard Layer 4 (Overlay)
//Storyboard Sound Samples

[TimingPoints]
63,301.507537688442,4,2,1,65,1,0
63,-333.333333333334,4,2,1,65,0,0
364,-100,4,2,1,65,0,0
967,-125,4,2,1,65,0,0
1269,301.507537688442,6,2,1,65,1,0
2324,-83.3333333333333,4,2,1,65,0,0
2625,-100,4,2,1,65,0,0
3379,-142.857142857143,4,2,1,65,0,0
3681,-111.111111111111,4,2,1,65,0,0
4736,-99.9999999999999,4,2,1,65,0,0
4887,301.507537688442,4,2,1,65,1,0
5791,-166.666666666667,4,2,1,65,0,0
6696,-83.3333333333333,4,2,1,65,0,0
7299,301.507537688442,5,2,1,65,1,0
7299,-166.666666666667,5,2,1,65,0,0
7449,-166.666666666667,5,2,1,65,0,0
8052,-166.666666666667,5,2,1,65,0,0
9711,-100,5,2,1,65,0,0
10314,301.507537688442,4,2,1,65,1,0
10314,-83.3333333333333,4,2,1,65,0,0
11218,-142.857142857143,4,2,1,65,0,0
11821,-100,4,2,1,65,0,0
12726,-333.333333333333,4,2,1,65,0,0
13027,-83.3333333333333,4,2,1,65,0,0
13932,-90.9090909090909,4,2,1,65,0,0
14233,-111.111111111111,4,2,1,65,0,0
14685,-76.9230769230769,4,2,1,65,0,0
15138,-83.3333333333333,7,2,1,65,0,0
15741,-55.5555555555556,7,2,1,65,0,0
16645,-55.5555555555556,7,2,1,30,0,0
17248,301.507537688442,5,2,1,65,1,0
17248,-333.333333333334,5,2,1,65,0,0
17549,-100,5,2,1,65,0,0
18756,301.507537688442,4,2,1,65,1,0
19208,-142.857142857143,5,2,1,65,0,0
19509,-100,5,2,1,65,0,0
19962,-83.3333333333333,5,2,1,65,0,0
20263,-83.3333333333333,3,2,1,65,0,0
21168,-100,4,2,1,65,0,0
21771,-111.111111111111,4,2,1,65,0,0
22374,301.507537688442,5,2,1,65,1,0
22374,-100,5,2,1,65,0,0
22675,-125,5,2,1,65,0,0
23127,-100,5,2,1,65,0,0
23580,-76.9230769230769,5,2,1,65,0,0
23882,301.507537688442,4,2,1,65,1,0
23882,-76.9230769230769,4,2,1,65,0,0
24560,-66.6666666666667,4,2,1,65,0,0
24937,-50,4,2,1,65,0,0
25088,-66.6666666666667,4,2,1,65,0,0
25389,-66.6666666666667,4,2,1,30,0,0
26294,-100,5,2,1,55,0,0
26595,-90.9090909090909,5,2,1,55,0,0
29233,-90.9090909090909,5,2,1,70,0,0
29309,-90.9090909090909,5,2,1,70,0,0
30364,-90.9090909090909,5,2,1,40,0,0
31721,-90.9090909090909,5,2,1,55,0,0
32173,-76.9230769230769,5,2,1,65,0,0
32324,-100,4,2,1,65,0,1
32625,-250,4,2,1,65,0,1
33228,-100,4,2,1,65,0,1
34284,-100,4,2,1,65,0,0
34585,-71.4285714285714,4,2,1,65,0,1
35037,-100,4,2,1,65,0,1
35490,-100,4,2,1,65,0,0
35791,-80,4,2,1,65,0,1
37902,-100,4,2,1,65,0,1
38128,-100,4,2,1,65,0,0
38203,-83.3333333333333,4,2,1,65,0,1
39108,-76.9230769230769,4,2,1,65,0,1
39485,-100,4,2,1,65,0,1
40540,-100,4,2,1,65,0,0
40615,-76.9230769230769,4,2,1,65,0,1
41067,-100,4,2,1,65,0,1
42123,-250,4,2,1,65,0,0
43027,-71.4285714285714,4,2,1,65,0,1
43329,-83.3333333333333,4,2,1,65,0,1
43932,-111.111111111111,4,2,1,65,0,0
44233,-83.3333333333333,4,2,1,65,0,1
46193,-111.111111111111,4,2,1,65,0,1
46495,-111.111111111111,4,2,1,65,0,0
46645,-90.9090909090909,4,2,1,65,0,1
47098,-90.9090909090909,4,2,1,55,0,1
47550,-333.333333333333,4,2,1,45,0,0
48002,-250,4,2,2,40,0,0
48530,-250,4,2,2,40,0,0
50414,301.507537688442,3,2,2,45,1,0
50414,-222.222222222221,5,2,2,45,0,0
50564,-222.222222222221,5,2,2,45,0,0
51167,-222.222222222221,5,2,2,45,0,0
51319,301.507537688442,4,2,2,45,1,0
51922,-500,6,2,2,45,0,0
52072,-500,6,2,2,45,0,0
53427,324.324324324324,4,2,2,45,1,0
53427,-100,6,2,2,45,0,0
53751,307.692307692307,4,2,2,45,1,0
53751,-253.807106598985,4,2,2,45,0,0
53904,-250,4,2,2,45,0,0
54366,319.148936170212,4,2,2,45,1,0
54366,-100,4,2,2,45,0,0
54897,311.203319502075,4,2,2,45,1,0
54897,-1000,4,2,2,45,0,0
55052,-1000,4,2,2,45,0,0
56142,301.507537688442,4,2,1,35,1,0
56142,-333.333333333333,4,2,1,35,0,0
56443,-333.333333333333,4,2,1,45,0,0
56745,-333.333333333333,4,2,1,55,0,0
57348,-166.666666666666,7,2,1,45,0,0
59610,301.507537688442,4,2,1,45,1,0
59610,-166.666666666667,6,2,1,45,0,0
59911,301.507537688442,4,2,1,45,1,0
59911,-166.666666666667,4,2,1,45,0,0
63379,301.507537688442,4,2,1,45,1,0
63379,-166.666666666667,4,2,1,45,0,0
64585,301.507537688442,5,2,1,45,1,0
64585,-166.666666666667,5,2,1,45,0,0
67147,-125,5,2,1,45,0,0
67600,301.507537688442,7,2,1,65,1,0
67600,-100,7,2,1,65,0,0
68052,-166.666666666667,7,2,1,65,0,0
68655,-125,7,2,1,65,0,0
69409,-166.666666666667,7,2,1,65,0,0
71821,301.507537688442,4,2,1,65,1,0
71821,-90.9090909090909,5,2,1,65,0,0
72122,-71.4285714285714,5,2,1,65,0,0
72424,-100,5,2,1,65,0,0
72725,-83.3333333333333,5,2,1,65,0,0
73328,-111.111111111111,5,2,1,65,0,0
74685,-100,5,2,1,65,0,0
75137,-66.6666666666667,5,2,1,65,0,0
75589,-83.3333333333333,5,2,1,65,0,0
75891,-66.6666666666667,5,2,1,65,0,0
76192,-100,5,2,1,65,0,0
77248,-83.3333333333333,5,2,1,65,0,0
77700,-111.111111111111,5,2,1,65,0,0
78001,-166.666666666667,5,2,1,65,0,0
78755,-111.111111111111,5,2,1,65,0,0
80263,-100,5,2,1,65,0,0
80866,-125,5,2,1,65,0,0
81318,-90.9090909090909,5,2,1,65,0,0
83882,301.507537688442,5,2,1,65,1,0
83882,-277.777777777778,5,2,1,65,0,0
83957,-277.777777777778,5,2,2,65,0,0
86595,-277.777777777778,5,2,1,65,0,0
86746,-1000,5,2,1,65,0,0
86821,-1000,5,2,2,65,0,0
86897,301.507537688442,7,2,2,75,1,0
86897,-100,7,2,2,75,0,0
88706,-100,7,2,1,75,0,0
90364,-62.5,7,2,1,75,0,0
91118,301.507537688442,4,2,1,75,1,1
91118,-100,4,2,1,75,0,1
91570,-76.9230769230769,4,2,1,75,0,1
92022,-111.111111111111,4,2,1,75,0,1
92625,-90.9090909090909,4,2,1,75,0,1
93303,-90.9090909090909,4,2,1,75,0,0
93379,-76.9230769230769,4,2,1,65,0,1
93831,-250,4,2,1,65,0,1
94434,-100,4,2,1,65,0,1
95640,-100,4,2,1,65,0,0
95791,-71.4285714285714,4,2,1,75,0,1
96243,-100,4,2,1,75,0,1
96695,-100,4,2,1,75,0,0
96997,-80,4,2,1,75,0,1
99107,-100,4,2,1,75,0,1
99258,-100,4,2,1,75,0,0
99409,-83.3333333333333,4,2,1,75,0,1
100012,-100,4,2,1,75,0,1
101670,-100,4,2,1,75,0,0
101821,-76.9230769230769,4,2,1,65,0,1
102273,-100,4,2,1,65,0,1
103329,-250,4,2,1,65,0,1
104082,-250,4,2,1,65,0,0
104233,-71.4285714285714,4,2,1,75,0,1
104384,301.507537688442,6,2,1,60,1,1
104384,-100,6,2,1,60,0,1
104534,-166.666666666667,6,2,1,60,0,1
104685,-111.111111111111,6,2,1,60,0,1
104836,-71.4285714285714,6,2,1,60,0,1
104987,-55.5555555555556,6,2,1,60,0,1
105439,-100,6,2,1,60,0,1
105740,-83.3333333333333,6,2,1,60,0,1
106042,-66.6666666666667,6,2,1,60,0,1
106193,301.507537688442,7,2,2,45,1,0
106193,-500,7,2,2,45,0,0
108002,-133.333333333333,7,2,1,60,0,0
108304,301.507537688442,4,2,1,75,1,1
108304,-100,4,2,1,75,0,1
108756,-76.9230769230769,4,2,1,75,0,1
109208,-100,4,2,1,75,0,1
110414,-100,4,2,1,75,0,0
110565,-71.4285714285714,4,2,1,75,0,1
110716,301.507537688442,5,2,1,65,1,1
110716,-100,5,2,1,65,0,1
110942,-62.5,5,2,1,85,0,1
111017,-62.5,5,2,1,85,0,0
111092,-76.9230769230769,5,2,1,85,0,1
111168,-76.9230769230769,5,2,1,85,0,0
111243,-90.9090909090909,5,2,1,85,0,1
111319,-90.9090909090909,5,2,1,85,0,0
111394,-100,5,2,1,85,0,1
111469,-100,5,2,1,85,0,0
111545,-90.9090909090909,5,2,1,85,0,1
111620,-90.9090909090909,5,2,1,85,0,0
111695,-90.9090909090909,5,2,1,85,0,1
111771,-90.9090909090909,5,2,1,85,0,0
111846,-71.4285714285714,5,2,1,85,0,1
111922,-71.4285714285714,5,2,1,85,0,0
111997,-71.4285714285714,5,2,1,85,0,1
112072,-71.4285714285714,5,2,1,85,0,0
112223,301.507537688442,4,2,1,80,1,1
112223,-58.8235294117647,6,2,1,80,0,1
112524,-71.4285714285714,6,2,1,80,0,1
112826,-125,6,2,1,80,0,1
113127,-111.111111111111,6,2,1,80,0,1
114032,-111.111111111111,6,2,1,65,0,0
114182,-111.111111111111,6,2,1,65,0,1
114534,-111.111111111111,6,2,1,5,0,1
114635,-111.111111111111,6,2,1,65,0,1
114685,-111.111111111111,6,2,1,5,0,1
114785,-111.111111111111,6,2,1,65,0,1
114836,-111.111111111111,6,2,1,5,0,1
114936,-111.111111111111,6,2,1,65,0,1
114986,-111.111111111111,6,2,1,5,0,1
115087,-111.111111111111,6,2,1,65,0,1
115137,-111.111111111111,6,2,1,5,0,1
115238,-111.111111111111,6,2,1,65,0,1
115288,-111.111111111111,6,2,1,5,0,1
115539,-83.3333333333333,6,2,1,65,0,0
115841,-100,4,2,1,65,0,1
116142,-111.111111111111,4,2,1,65,0,1
116444,-83.3333333333333,4,2,1,65,0,1
116745,-125,4,2,1,65,0,1
117047,-83.3333333333333,4,2,1,65,0,0
118102,-80,4,2,1,65,0,1
118554,-90.9090909090909,4,2,1,65,0,1
118856,-83.3333333333333,4,2,1,65,0,1
119308,-111.111111111111,4,2,1,65,0,1
120062,-90.9090909090909,4,2,1,65,0,0
120514,-142.857142857143,4,2,1,65,0,1
120665,-100,6,2,1,55,0,1
121871,-100,6,2,1,55,0,0
122021,-250,6,2,1,55,0,0
122475,301.507537688442,4,2,1,65,1,1
122475,-181.818181818182,4,2,1,65,0,1
122625,-181.818181818182,4,2,1,65,0,0
123681,301.507537688442,6,2,1,50,1,0
123681,-100,6,2,1,50,0,0
125490,301.507537688442,4,2,1,50,1,0
125490,-227.272727272727,4,2,1,50,0,0
126696,301.507537688442,6,2,1,50,1,0
126696,-100,6,2,1,50,0,0
128505,301.507537688442,4,2,2,65,1,0
128505,-303.030303030303,4,2,2,65,0,0
129711,301.507537688442,6,2,2,50,1,0
129711,-100,6,2,2,50,0,0
131520,301.507537688442,4,2,2,65,1,0
131520,-666.666666666667,4,2,2,65,0,0
132726,301.507537688442,6,2,2,50,1,0
132726,-100,6,2,2,50,0,0
134535,301.507537688442,4,2,2,50,1,0
134535,-100,4,2,2,50,0,0
135741,301.507537688442,6,2,2,50,1,0
135741,-100,6,2,2,50,0,0
137550,301.507537688442,5,2,0,55,1,0
137550,-100,5,2,0,55,0,0
137851,-166.666666666667,5,2,0,55,0,0
138605,-125,5,2,0,55,0,0
139660,-100,5,2,0,55,0,0
140112,-142.857142857143,5,2,0,55,0,0
140565,-142.857142857143,5,2,1,60,0,0
143580,-100,5,2,1,60,0,0
143881,-111.111111111111,5,2,1,60,0,0
144183,-142.857142857143,5,2,1,60,0,0
144484,-111.111111111111,5,2,1,60,0,0
145690,-142.857142857143,5,2,1,60,0,0
145992,-111.111111111111,5,2,1,60,0,0
146595,301.507537688442,4,2,1,55,1,0
146595,-181.818181818182,4,2,1,55,0,0
147348,-151.515151515152,4,2,1,55,0,0
147801,301.507537688442,6,2,1,55,1,0
147801,-129.87012987013,6,2,1,55,0,0
149157,-181.818181818182,6,2,1,55,0,0
149610,301.507537688442,4,2,1,55,1,0
149610,-181.818181818182,4,2,1,55,0,0
150363,-151.515151515152,4,2,1,55,0,0
150816,301.507537688442,6,2,1,55,1,0
150816,-129.87012987013,6,2,1,55,0,0
151720,-454.545454545455,6,2,1,55,0,0
152625,301.507537688442,5,2,1,60,1,0
152625,-100,5,2,1,60,0,0
152926,-166.666666666667,5,2,1,60,0,0
153981,-111.111111111111,5,2,1,60,0,0
154434,-166.666666666667,5,2,1,60,0,0
155037,-125,5,2,1,60,0,0
156393,-142.857142857143,5,2,1,60,0,0
161670,-100,5,2,1,55,0,0
161971,-111.111111111111,5,2,1,55,0,0
162273,-142.857142857143,5,2,1,55,0,0
163177,-111.111111111111,5,2,1,55,0,0
163479,-142.857142857143,5,2,1,55,0,0
163780,-100,5,2,1,55,0,0
164686,301.507537688442,4,2,1,60,1,0
164686,-129.87012987013,4,2,1,60,0,0
165892,301.507537688442,6,2,1,60,1,0
165892,-151.515151515152,6,2,1,60,0,0
167248,-181.818181818182,6,2,1,60,0,0
167701,301.507537688442,4,2,1,60,1,0
167701,-113.636363636364,4,2,1,60,0,0
168153,-129.87012987013,4,2,1,60,0,0
168907,301.507537688442,6,2,1,60,1,0
168907,-151.515151515152,6,2,1,60,0,0
169359,-181.818181818182,6,2,1,60,0,0
169811,-227.272727272727,6,2,1,60,0,0
170716,301.507537688442,5,2,1,65,1,0
170716,-142.857142857143,5,2,1,65,0,0
171168,-100,5,2,1,65,0,0
171922,-142.857142857143,5,2,1,65,0,0
172977,-100,5,2,1,65,0,0
174635,-142.857142857143,5,2,1,65,0,0
182625,-100,5,2,1,65,0,0
182776,301.507537688442,4,2,2,65,1,1
182776,-217.391304347826,4,2,2,65,0,1
182851,-217.391304347826,4,2,2,65,0,0
190012,-217.391304347826,4,2,2,20,0,0

[Colours]
Combo1 : 193,150,106
Combo2 : 172,156,153
Combo3 : 198,184,176
Combo4 : 161,145,130
Combo5 : 139,119,105
Combo6 : 115,86,68
Combo7 : 145,92,57
Combo8 : 147,113,85

[HitObjects]
43,322,63,54,0,L|72:313,1,16.65,14|0,0:0|0:0,0:0:0:0:
137,298,213,2,0,L|166:289,1,16.65,8|0,0:0|0:0,0:0:0:0:
225,216,364,2,0,B|187:257|173:321,1,111,2|8,0:3|0:0,0:0:0:0:
304,285,666,2,0,B|386:301|367:352|465:370,1,166.5,2|0,0:3|0:0,0:0:0:0:
226,312,967,2,0,B|197:341|158:330|158:330|200:312|210:290,1,133.2,8|0,0:0|0:0,0:0:0:0:
228,298,1269,101,8,0:0:0:0:
351,365,1419,1,0,3:0:0:0:
383,285,1570,85,8,0:0:0:0:
512,230,1721,1,0,3:0:0:0:
500,252,1872,5,2,0:3:0:0:
446,233,2022,1,8,0:0:0:0:
413,142,2173,1,0,3:0:0:0:
512,48,2324,102,0,P|449:68|361:177,1,199.8,10|0,0:0|0:0,0:0:0:0:
182,147,2625,2,0,P|220:154|282:202,1,111,10|0,0:0|0:0,0:0:0:0:
390,17,2927,21,10,0:0:0:0:
259,84,3078,1,0,3:0:0:0:
309,26,3228,1,0,3:0:0:0:
320,183,3379,6,0,B|290:237|290:237|300:182,1,116.55,8|0,0:0|0:0,0:0:0:0:
449,175,3681,102,0,L|351:196,1,99.9000000000001,2|0,0:3|3:0,0:0:0:0:
342,210,3982,2,0,L|244:231,1,99.9000000000001,2|0,0:3|3:0,0:0:0:0:
238,248,4284,85,8,0:0:0:0:
227,222,4359,1,8,0:0:0:0:
216,197,4434,1,8,0:0:0:0:
166,282,4585,1,8,0:0:0:0:
91,164,4736,6,0,P|72:201|51:272,1,111.7363,2|8,0:3|0:0,0:0:0:0:
230,156,5037,2,0,P|283:101|279:3,1,166.5,2|0,0:2|0:0,0:0:0:0:
271,8,5339,1,2,0:2:0:0:
141,165,5490,2,0,P|93:140|70:66,1,111,2|2,3:0|0:2,0:0:0:0:
317,270,5791,2,0,L|361:279,2,33.2999999999999,6|4|2,0:3|0:3|0:2,0:0:0:0:
139,332,6093,101,2,3:2:0:0:
61,355,6243,1,0,0:0:0:0:
214,205,6394,2,0,L|232:275,1,66.5999999999999,10|0,0:0|0:0,0:0:0:0:
461,318,6696,22,0,P|383:278|311:186,1,199.8,10|0,0:0|0:0,0:0:0:0:
306,178,6997,1,2,0:3:0:0:
457,210,7148,1,8,0:0:0:0:
230,380,7299,38,0,P|158:256|154:63,1,332.999999999999,6|0,3:2|0:0,0:0:0:0:
139,332,8203,1,8,0:0:0:0:
142,324,8655,37,10,0:3:0:0:
168,295,8731,1,8,0:3:0:0:
213,306,8806,5,14,0:2:0:0:
296,292,8957,1,10,0:2:0:0:
217,127,9108,101,2,0:3:0:0:
245,211,9258,1,0,0:0:0:0:
363,154,9409,5,2,0:3:0:0:
447,178,9560,1,0,3:2:0:0:
252,17,9711,102,0,P|275:69|375:118,1,166.5,8|0,0:2|0:0,0:0:0:0:
207,125,10012,2,0,P|174:134|95:172,1,111,10|0,0:2|3:2,0:0:0:0:
406,32,10314,38,0,B|432:76|492:82|492:82|474:18|419:18,1,199.8,8|0,0:2|0:0,0:0:0:0:
396,17,10615,1,2,0:3:0:0:
286,131,10766,101,8,0:2:0:0:
322,215,10917,1,0,3:0:0:0:
303,122,11067,1,8,0:2:0:0:
103,133,11218,2,0,P|160:150|200:164,1,77.6999999999999,0|0,3:0|0:0,0:0:0:0:
181,175,11444,1,0,0:0:0:0:
174,176,11520,85,10,0:2:0:0:
48,37,11670,5,2,3:2:0:0:
239,253,11821,2,0,P|197:258|161:282,1,55.5,8|8,0:2|0:2,0:0:0:0:
126,327,11972,101,2,3:0:0:0:
0,140,12273,2,0,P|35:182|54:234,1,111,2|4,3:2|0:3,0:0:0:0:
181,175,12575,1,2,0:3:0:0:
256,249,12726,22,0,L|274:244,1,16.65,8|0,0:2|0:0,0:0:0:0:
348,228,12876,2,0,L|366:223,1,16.65,8|0,0:2|0:0,0:0:0:0:
481,19,13027,6,0,P|392:47|352:149,1,199.8,2|0,0:0|0:0,0:0:0:0:
500,303,13329,2,0,P|443:297|374:239,1,133.2,8|0,0:2|0:0,0:0:0:0:
472,159,13630,1,10,0:2:0:0:
479,164,13781,1,0,3:0:0:0:
458,171,13932,2,0,B|356:154|392:222|283:252,1,183.15,0|0,3:0|0:0,0:0:0:0:
220,229,14233,102,0,B|180:193|180:193|193:147,1,99.9000000000001,8|8,0:2|0:2,0:0:0:0:
0,0,14535,2,0,P|-3:24|2:48,1,49.9500000000001,2|0,0:3|0:0,0:0:0:0:
84,75,14685,2,0,P|114:56|126:22,1,72.15,0|0,3:0|0:0,0:0:0:0:
17,131,14836,2,0,P|41:204|52:270,1,144.3,8|8,0:2|0:2,0:0:0:0:
15,340,15062,85,8,0:2:0:0:
5,343,15138,2,0,P|32:287|94:295,1,133.2,0|0,3:0|0:0,0:0:0:0:
259,294,15364,2,0,B|139:303|188:366|89:385,1,199.8,8|4,3:0|3:0,0:0:0:0:
130,218,15791,54,0,P|138:195|145:171,1,66.6,8|0,0:0|0:0,0:0:0:0:
376,291,16193,2,0,L|472:318,1,99.8999999999999,8|0,0:0|0:0,0:0:0:0:
260,200,16645,5,2,0:3:0:0:
255,192,16947,1,2,0:3:0:0:
512,117,17248,86,0,L|483:126,1,16.65,14|0,0:0|0:0,0:0:0:0:
418,141,17398,2,0,L|389:150,1,16.65,8|0,0:0|0:0,0:0:0:0:
308,111,17549,2,0,P|277:65|268:10,1,111,2|8,0:3|0:0,0:0:0:0:
338,216,17851,2,0,B|420:232|401:283|483:301,1,166.5,2|0,0:3|0:0,0:0:0:0:
289,313,18152,102,0,B|245:324|214:351|214:351|237:312|277:304,1,166.5,8|0,0:0|0:0,0:0:0:0:
338,299,18454,1,8,0:0:0:0:
367,371,18604,1,0,3:0:0:0:
129,317,18756,86,0,P|64:242|61:226,1,111,8|0,0:0|3:0,0:0:0:0:
164,94,19057,1,2,0:3:0:0:
221,170,19208,2,0,P|183:179|138:191,1,77.6999999999999,8|0,0:0|3:0,0:0:0:0:
250,64,19509,2,0,P|324:119|400:138,1,166.5,10|0,0:0|0:0,0:0:0:0:
418,135,19811,1,10,0:0:0:0:
409,19,19962,6,0,P|377:30|344:31,1,66.6,2|2,0:0|0:0,0:0:0:0:
304,196,20112,1,10,0:0:0:0:
461,253,20263,2,0,P|472:221|493:196,1,66.6,10|10,0:0|0:0,0:0:0:0:
493,96,20414,102,0,L|461:106,1,44.4,10|0,3:0|0:0,0:0:0:0:
240,278,20715,2,0,L|208:266,1,44.4,6|0,3:0|0:0,0:0:0:0:
105,184,21017,1,2,3:0:0:0:
94,233,21168,21,8,0:0:0:0:
39,220,21318,1,8,0:0:0:0:
36,141,21469,5,2,0:3:0:0:
98,247,21620,1,8,0:0:0:0:
196,165,21771,2,0,P|259:142|320:133,1,99.9000000000001,2|0,0:0|3:0,0:0:0:0:
135,238,22072,2,0,B|116:279|72:300|72:300|105:231,1,149.85,8|0,0:0|0:0,0:0:0:0:
179,166,22374,101,8,0:0:0:0:
268,271,22524,1,0,3:0:0:0:
417,213,22675,2,0,P|457:202|513:191,1,88.8,2|0,3:0|0:0,0:0:0:0:
351,0,22977,85,8,0:0:0:0:
233,57,23127,2,0,P|274:149|359:176,1,166.5,8|0,0:0|0:0,0:0:0:0:
401,119,23429,2,0,P|422:75|438:39,1,55.5,8|0,3:0|0:0,0:0:0:0:
284,90,23580,2,0,P|248:87|212:92,1,72.15,0|0,3:0|0:0,0:0:0:0:
323,179,23730,5,4,3:0:0:0:
367,194,23806,1,4,3:0:0:0:
417,213,23882,102,0,P|485:211|511:143,1,144.3,10|0,3:0|0:0,0:0:0:0:
310,177,24108,2,0,P|354:276|374:392,1,216.45,8|6,3:0|3:0,0:0:0:0:
194,295,24560,2,0,P|232:280|252:245,1,83.25,8|0,0:0|0:0,0:0:0:0:
456,348,24937,54,0,B|447:345|447:345|412:362|403:358|403:358|392:354|361:374|361:374|349:369,1,111,4|0,3:0|0:0,0:0:0:0:
353,372,26294,5,6,3:2:0:0:
328,297,26444,1,0,0:0:0:0:
504,223,26595,2,0,P|395:262|303:263,1,183.15,0|0,3:2|0:0,0:0:0:0:
316,257,26897,1,2,3:2:0:0:
283,10,27047,6,0,P|264:99|242:188,1,183.15,4|0,3:2|0:0,0:0:0:0:
231,235,27349,1,0,3:2:0:0:
138,193,27500,2,0,P|43:160|-5:153,1,122.1,0|0,3:2|0:0,0:0:0:0:
255,88,27801,101,4,3:2:0:0:
280,165,27952,1,0,0:0:0:0:
349,342,28103,2,0,P|437:320|506:261,1,183.15,0|0,3:2|0:0,0:0:0:0:
505,243,28404,1,0,3:2:0:0:
286,283,28555,6,0,P|272:223|257:164,1,122.1,6|0,3:2|0:0,0:0:0:0:
395,222,28856,1,0,3:2:0:0:
210,338,29007,2,0,P|163:341|93:317,1,122.1,0|0,3:2|0:0,0:0:0:0:
69,95,29309,101,8,0:0:0:0:
150,222,29459,1,0,3:2:0:0:
151,136,29610,5,8,0:0:0:0:
44,333,29761,2,0,P|95:280|268:241,1,244.2,4|0,3:2|0:0,0:0:0:0:
338,261,30213,1,0,0:0:0:0:
466,130,31721,21,8,0:0:0:0:
404,216,31871,1,0,3:0:0:0:
327,240,32022,1,4,3:0:0:0:
197,217,32173,70,0,B|301:192|268:289|391:317,1,216.45,4|0,3:2|0:0,0:0:0:0:
389,309,32474,1,0,3:2:0:0:
512,184,32625,2,0,L|499:138,1,44.4,12|0,0:0|0:0,0:0:0:0:
308,375,32927,2,0,L|258:386,1,44.4,2|0,3:0|0:0,0:0:0:0:
504,278,33228,6,0,L|471:384,1,111,14|2,0:0|0:0,0:0:0:0:
378,211,33530,1,2,3:0:0:0:
459,181,33680,1,2,3:2:0:0:
389,309,33831,1,8,0:0:0:0:
262,207,33982,2,0,P|180:219|111:264,1,166.5,2|0,3:0|0:0,0:0:0:0:
75,281,34284,2,0,L|164:304,1,55.5,2|0,3:0|0:0,0:0:0:0:
183,241,34434,1,8,0:3:0:0:
171,225,34510,1,8,0:0:0:0:
153,201,34585,6,0,P|281:245|356:354,1,233.1,6|0,3:2|0:0,0:0:0:0:
349,359,34887,1,0,3:2:0:0:
229,311,35037,2,0,L|282:296,1,55.5,14|0,0:0|0:0,0:0:0:0:
429,352,35188,2,0,L|482:366,1,55.5,0|0,3:2|0:0,0:0:0:0:
383,196,35339,1,12,0:0:0:0:
410,270,35490,2,0,P|419:240|461:167,1,111,0|2,3:2|0:0,0:0:0:0:
502,18,35791,54,0,P|460:70|319:105,1,208.125,6|0,3:2|0:0,0:0:0:0:
293,93,36093,1,0,3:2:0:0:
135,17,36243,54,0,L|161:94,1,69.375,12|0,0:0|0:0,0:0:0:0:
220,131,36394,1,0,3:2:0:0:
271,15,36545,1,0,3:2:0:0:
76,120,36696,102,0,L|51:198,1,69.375,12|0,0:0|0:0,0:0:0:0:
124,268,36846,1,0,3:2:0:0:
218,152,36997,1,0,0:0:0:0:
75,272,37148,102,0,L|140:293,1,69.375,12|0,0:0|0:0,0:0:0:0:
220,318,37299,1,0,3:2:0:0:
116,374,37449,1,0,3:2:0:0:
193,359,37600,1,0,3:2:0:0:
347,129,37751,5,12,0:0:0:0:
308,329,37902,2,0,P|290:273|266:217,1,111,8|0,0:0|3:2,0:0:0:0:
424,166,38203,6,0,B|499:134|486:75|486:75|476:124|440:144,1,199.8,4|0,3:2|0:0,0:0:0:0:
343,174,38505,1,0,3:2:0:0:
215,65,38655,1,12,0:0:0:0:
347,129,38806,53,2,3:2:0:0:
347,129,38881,1,0,0:0:0:0:
347,129,38957,1,14,0:0:0:0:
255,189,39108,2,0,P|177:170|98:57,1,216.45,2|0,3:2|0:0,0:0:0:0:
201,87,39409,53,6,3:2:0:0:
212,93,39485,2,0,P|276:63|289:25,1,111
107,132,39711,1,2,3:2:0:0:
97,144,39786,2,0,P|43:150|1:115,1,111
129,53,40012,101,2,3:2:0:0:
129,53,40088,1,0,0:0:0:0:
129,53,40163,1,12,0:0:0:0:
97,246,40314,1,10,3:0:0:0:
128,176,40464,1,4,3:0:0:0:
226,309,40615,102,0,B|356:352|321:257|438:236,1,216.45,4|0,3:2|0:0,0:0:0:0:
478,286,40917,1,2,3:2:0:0:
282,236,41067,2,0,B|239:213|236:151|236:151|301:206,1,166.5,14|0,0:0|0:0,0:0:0:0:
301,274,41369,6,0,L|251:411,1,111,14|0,0:0|0:0,0:0:0:0:
97,246,41670,2,0,P|124:306|126:385,1,111,14|0,0:0|0:0,0:0:0:0:
464,339,41972,2,0,P|443:357|427:380,1,55.5,14|0,0:0|0:0,0:0:0:0:
353,368,42123,6,0,L|336:310,1,44.4,0|2,0:0|3:2,0:0:0:0:
259,347,42424,53,10,3:0:0:0:
271,298,42575,1,0,3:0:0:0:
180,368,42726,1,6,3:0:0:0:
161,320,42876,1,0,3:0:0:0:
0,185,43027,54,0,P|35:239|203:281,1,233.1,6|0,3:2|0:0,0:0:0:0:
237,216,43329,2,0,L|308:189,1,66.6,2|0,3:0|0:0,0:0:0:0:
370,240,43479,101,14,0:0:0:0:
221,132,43630,1,2,3:0:0:0:
286,234,43781,1,14,0:0:0:0:
432,144,43932,2,0,P|445:105|471:42,1,99.9000000000001,10|0,0:0|0:0,0:0:0:0:
325,142,44233,102,0,B|214:126|261:67|150:57,1,199.8,2|0,3:0|0:0,0:0:0:0:
98,71,44535,1,0,3:0:0:0:
20,219,44686,5,12,0:0:0:0:
167,147,44836,1,2,0:0:0:0:
98,309,44987,1,12,0:0:0:0:
0,262,45138,1,2,0:0:0:0:
0,182,45289,1,12,0:0:0:0:
179,129,45439,5,2,0:0:0:0:
179,129,45515,53,2,0:0:0:0:
179,129,45590,53,12,0:0:0:0:
272,307,45741,1,2,0:0:0:0:
372,192,45892,1,12,0:0:0:0:
284,217,46042,1,2,0:0:0:0:
399,341,46193,102,0,P|418:299|449:237,2,99.9000000000001,12|10|0,0:0|0:0|3:0,0:0:0:0:
173,245,46645,2,0,P|266:273|319:346,1,183.15,6|0,3:2|0:0,0:0:0:0:
324,375,46947,1,0,3:2:0:0:
512,335,47098,1,12,0:0:0:0:
441,250,47248,1,0,3:2:0:0:
394,324,47399,101,12,0:0:0:0:
399,341,47550,2,0,P|409:354|423:368,2,33.3,4|2|0,0:0|3:3|3:2,0:0:0:0:
291,307,48002,2,0,P|260:315|197:324,1,88.8,2|2,0:3|0:2,0:0:0:0:
324,375,48454,38,0,B|349:292|387:180|448:95|500:40|439:136|410:170|410:170|382:201|326:229|302:194|308:173,1,488.4,2|0,0:3|0:0,0:0:0:0:
226,220,50414,6,0,B|285:280|294:385|161:349|130:216|130:216|128:208|110:227|104:206|104:206|87:210|82:203|82:203|76:194|55:258|3:270,1,466.199985772706,2|2,3:0|0:0,0:0:0:0:
71,232,51922,2,0,P|94:199|199:73,1,199.8,2|0,0:0|0:0,0:0:0:0:
198,0,53751,102,0,B|224:118|189:130|137:97|130:102|130:102|129:134|99:83|115:131|102:121|102:121|72:108|31:107|31:158,1,295.715729,2|0,0:3|0:0,0:0:0:0:
76,160,54897,2,0,P|61:128|33:85,1,83.25,2|0,0:3|0:0,0:0:0:0:
37,64,56142,54,0,L|8:79,4,33.3,8|8|8|8|8,3:2|0:0|3:2|0:0|3:2,0:0:0:0:
27,82,56895,1,8,3:2:0:0:
15,60,57197,5,8,0:0:0:0:
79,0,57348,38,0,P|154:20|224:21,1,133.200000000001,2|0,3:2|3:2,0:0:0:0:
384,29,57951,2,0,P|323:11|308:66,1,133.200000000001,0|0,3:2|3:2,0:0:0:0:
379,156,58403,1,0,0:0:0:0:
392,155,58554,2,0,P|374:91|338:35,1,133.200000000001,0|0,3:2|3:2,0:0:0:0:
428,231,59157,1,0,3:2:0:0:
499,196,59307,1,2,0:0:0:0:
507,183,59458,1,0,0:0:0:0:
488,166,59610,6,0,P|455:158|423:149,1,66.5999999999999,2|0,3:2|0:0,0:0:0:0:
344,184,59911,2,0,P|313:264|261:284,1,133.2,2|0,3:2|3:2,0:0:0:0:
138,71,60514,2,0,P|164:132|180:197,1,133.2,0|0,3:2|3:2,0:0:0:0:
178,281,60966,102,0,L|142:337,1,66.5999999999999,0|0,0:0|3:2,0:0:0:0:
171,339,61267,2,0,L|154:274,1,66.5999999999999,0|0,0:0|3:2,0:0:0:0:
127,297,61569,2,0,L|191:311,1,66.5999999999999,0|0,0:0|3:2,0:0:0:0:
257,363,61870,1,0,0:0:0:0:
327,327,62021,5,2,3:2:0:0:
324,317,62172,1,2,0:0:0:0:
315,288,62323,2,0,L|401:310,1,66.5999999999999,2|0,3:2|0:0,0:0:0:0:
484,207,62624,2,0,L|420:227,1,66.5999999999999,0|2,3:2|0:0,0:0:0:0:
357,267,62926,2,0,P|436:222|449:181,1,133.2,0|0,3:2|0:0,0:0:0:0:
396,128,63379,102,0,P|377:64|359:0,3,133.2,2|2|2|2,3:2|3:2|3:2|3:2,0:0:0:0:
379,25,64434,1,0,0:0:0:0:
380,36,64585,2,0,P|370:67|361:100,1,66.5999999999999,2|0,3:2|0:0,0:0:0:0:
319,168,64886,6,0,P|294:147|262:140,1,66.5999999999999,0|0,3:2|0:0,0:0:0:0:
200,82,65188,2,0,P|169:93|148:119,1,66.5999999999999,2|0,3:2|0:0,0:0:0:0:
0,130,65489,102,0,P|33:128|68:143,1,66.5999999999999,0|0,3:2|0:0,0:0:0:0:
93,64,65791,2,0,L|74:-3,1,66.5999999999999,0|0,3:2|0:0,0:0:0:0:
148,118,66092,1,2,3:0:0:0:
209,74,66243,2,0,P|251:60|314:45,1,99.8999999999998
343,21,66544,2,0,L|324:85,1,66.5999999999999,2|0,0:0|3:2,0:0:0:0:
332,94,66997,5,2,3:0:0:0:
387,150,67147,2,0,P|441:143|478:78,1,133.2
462,78,67449,1,2,0:0:0:0:
305,172,67600,101,2,3:0:0:0:
222,189,67750,1,0,0:0:0:0:
211,194,68052,6,0,L|193:258,1,66.5999999999999,2|0,0:0|3:2,0:0:0:0:
207,270,68504,101,2,3:0:0:0:
275,309,68655,2,0,B|350:292|311:246|417:227,1,133.2
429,229,68956,2,0,P|363:212|247:185,1,177.6,2|0,0:0|0:0,0:0:0:0:
182,143,69409,2,0,P|167:81|162:66,1,66.5999999999999,2|0,3:0|0:0,0:0:0:0:
175,229,69710,5,0,3:2:0:0:
145,304,69861,1,0,0:0:0:0:
300,137,71821,22,0,P|351:194|410:206,1,122.1,0|0,3:2|3:2,0:0:0:0:
466,179,72047,1,0,3:2:0:0:
443,147,72122,2,0,B|313:147|353:243|226:271,1,233.1,12|0,0:0|0:0,0:0:0:0:
174,229,72424,102,0,P|164:186|150:151,1,55.5,2|0,0:0|0:0,0:0:0:0:
92,274,72574,1,0,3:2:0:0:
0,183,72725,2,0,P|31:96|77:-1,1,199.8,10|0,0:0|0:0,0:0:0:0:
39,4,73027,85,0,3:2:0:0:
62,93,73177,1,0,3:2:0:0:
211,55,73328,2,0,L|83:24,1,99.9000000000001,8|0,0:0|0:0,0:0:0:0:
189,166,73630,1,2,3:2:0:0:
272,146,73780,1,2,3:0:0:0:
341,46,73931,5,8,0:0:0:0:
468,103,74082,1,0,3:2:0:0:
436,28,74233,101,0,0:0:0:0:
368,127,74383,1,0,3:2:0:0:
230,71,74534,22,0,L|216:17,1,49.9500000000001,8|0,0:0|0:0,0:0:0:0:
434,190,74685,2,0,B|513:166|505:99|505:99|483:144|433:176,1,222,0|0,0:0|3:2,0:0:0:0:
212,197,75137,2,0,P|242:159|286:154,1,83.25,8|0,0:0|0:0,0:0:0:0:
365,229,75288,1,8,0:0:0:0:
336,243,75363,1,8,0:0:0:0:
313,226,75439,5,2,3:2:0:0:
195,168,75589,2,0,B|87:187|119:240|5:257,1,199.8,2|0,0:3|0:0,0:0:0:0:
15,214,75891,2,0,P|33:165|72:148,1,83.25,10|0,0:0|0:0,0:0:0:0:
169,264,76042,1,0,0:0:0:0:
113,337,76192,2,0,P|85:339|59:328,2,55.5,8|8|2,0:0|0:0|3:2,0:0:0:0:
206,266,76494,1,8,0:0:0:0:
273,327,76645,101,2,3:2:0:0:
485,206,76795,2,0,P|403:220|335:266,1,166.5,8|0,0:0|0:0,0:0:0:0:
364,340,77097,1,8,3:0:0:0:
376,342,77172,1,4,3:0:0:0:
383,332,77248,2,0,P|312:301|251:192,1,199.8,6|0,3:2|0:0,0:0:0:0:
311,146,77549,86,0,P|333:111|356:81,1,66.6
193,28,77700,2,0,B|146:-13|146:-13|192:69,1,149.85,0|0,3:2|0:0,0:0:0:0:
227,67,78001,2,0,L|290:93,2,66.5999999999999,0|0|0,3:2|0:0|3:2,0:0:0:0:
204,35,78454,1,4,0:0:0:0:
89,89,78604,1,0,3:2:0:0:
0,0,78755,6,0,P|34:7|52:24,1,49.9500000000001,10|0,0:0|0:0,0:0:0:0:
160,140,78906,2,0,P|154:177|130:195,1,49.9500000000001,8|0,0:0|0:0,0:0:0:0:
64,173,79057,1,12,0:0:0:0:
0,254,79207,2,0,L|117:289,1,99.9000000000001,8|0,0:0|3:2,0:0:0:0:
245,155,79509,101,8,0:0:0:0:
270,287,79660,2,0,P|267:339|246:401,1,99.9000000000001,12|0,0:0|3:2,0:0:0:0:
442,271,79961,2,0,L|496:255,2,49.9500000000001,8|8|0,0:0|0:0|3:2,0:0:0:0:
251,319,80263,2,0,P|238:252|247:142,1,166.5,12|0,0:0|0:0,0:0:0:0:
262,137,80564,1,2,0:3:0:0:
273,86,80715,1,2,3:2:0:0:
321,208,80866,22,0,P|377:196|418:136,1,133.2,4|0,3:2|0:0,0:0:0:0:
402,121,81167,1,8,0:0:0:0:
154,142,81318,2,0,P|88:113|41:4,1,183.15,4|0,3:2|0:0,0:0:0:0:
57,3,81619,1,0,3:2:0:0:
0,151,81770,6,0,L|61:137,1,61.05,12|0,0:0|0:0,0:0:0:0:
156,46,81921,2,0,L|289:73,1,122.1,8|2,0:0|3:0,0:0:0:0:
278,241,82223,2,0,L|243:-8,1,244.2,10|0,0:0|0:0,0:0:0:0:
296,159,82675,101,8,0:0:0:0:
246,217,82826,1,8,0:0:0:0:
288,254,82976,1,0,3:2:0:0:
233,99,83127,85,8,0:0:0:0:
272,281,83278,1,0,3:2:0:0:
275,292,83429,1,0,3:2:0:0:
383,235,83579,5,10,0:0:0:0:
161,195,83730,1,2,3:2:0:0:
292,151,83882,54,0,B|368:176|458:124|472:-7|417:0|110:5|402:86|295:191|262:258|21:141|35:63|49:-85|136:-17|218:21|216:84|216:84,1,679.32,4|0,3:2|0:0,0:0:0:0:
254,71,86595,1,0,3:2:0:0:
319,311,86746,2,0,B|294:287|294:287|258:276|258:276|224:245|224:245|198:232,1,144.37363,12|0,0:0|0:0,0:0:0:0:
262,371,88856,5,0,3:2:0:0:
262,371,88932,1,0,3:2:0:0:
262,371,89007,1,12,0:0:0:0:
385,258,89158,1,8,0:0:0:0:
476,319,89309,101,10,0:0:0:0:
397,304,89459,1,8,0:0:0:0:
312,183,89610,6,0,L|294:96,1,55.5,12|0,0:0|0:0,0:0:0:0:
220,157,90364,102,0,P|162:116|162:62,1,88.8,8|0,0:0|0:0,0:0:0:0:
157,102,91118,85,4,3:2:0:0:
295,66,91268,1,0,3:2:0:0:
357,148,91419,5,4,3:2:0:0:
512,75,91570,2,0,P|409:102|365:211,1,216.45,0|0,3:2|0:0,0:0:0:0:
401,218,91871,1,0,3:2:0:0:
383,96,92022,2,0,P|376:58|351:-18,1,99.9000000000001,10|2,0:0|3:0,0:0:0:0:
457,129,92324,5,0,3:2:0:0:
295,66,92474,1,2,0:0:0:0:
185,141,92625,2,0,L|3:181,1,183.15,8|0,0:0|0:0,0:0:0:0:
30,202,92927,1,12,0:0:0:0:
77,63,93077,1,8,0:0:0:0:
103,136,93228,1,0,3:2:0:0:
295,66,93379,6,0,B|417:64|366:138|489:166,1,216.45,4|0,3:2|0:0,0:0:0:0:
485,147,93680,1,0,3:2:0:0:
331,250,93831,2,0,L|318:296,1,44.4,6|0,3:2|0:0,0:0:0:0:
474,60,94133,2,0,L|463:10,1,44.4,2|0,3:2|0:0,0:0:0:0:
381,141,94434,102,0,L|271:169,1,111,12|2,0:0|0:3,0:0:0:0:
381,184,94736,1,0,3:2:0:0:
229,85,94886,1,2,3:3:0:0:
178,190,95037,1,12,0:0:0:0:
223,256,95188,2,0,P|147:223|105:153,1,166.5,2|0,3:3|0:0,0:0:0:0:
97,114,95489,2,0,P|86:127|80:173,1,55.5,2|0,3:0|0:0,0:0:0:0:
221,337,95640,1,8,0:0:0:0:
255,334,95715,1,8,0:0:0:0:
297,327,95791,102,0,P|429:259|465:172,1,233.1,6|0,3:2|0:0,0:0:0:0:
459,172,96092,1,0,3:2:0:0:
512,273,96243,102,0,L|459:258,1,55.5,12|0,0:0|0:0,0:0:0:0:
287,167,96394,2,0,L|234:181,1,55.5,0|0,3:2|0:0,0:0:0:0:
356,271,96545,1,12,0:0:0:0:
378,158,96695,2,0,P|393:108|429:40,1,111,2|0,3:2|0:0,0:0:0:0:
233,161,96997,6,0,P|131:162|52:97,1,208.125,6|0,3:2|0:0,0:0:0:0:
62,89,97298,1,0,3:2:0:0:
324,132,97449,6,0,P|369:100|370:58,1,69.375,12|0,0:0|0:0,0:0:0:0:
225,0,97600,1,0,3:2:0:0:
258,78,97751,1,0,3:2:0:0:
495,15,97901,6,0,P|433:22|414:49,1,69.375,12|0,0:0|0:0,0:0:0:0:
391,217,98052,1,0,3:2:0:0:
474,265,98203,1,0,0:0:0:0:
512,175,98354,102,0,P|508:140|488:112,1,69.375,12|0,0:0|0:0,0:0:0:0:
383,198,98504,1,0,3:2:0:0:
344,280,98655,1,0,0:0:0:0:
374,214,98806,1,0,3:2:0:0:
455,347,98957,101,14,0:0:0:0:
397,195,99107,2,0,P|379:139|358:79,1,111,10|0,0:0|3:2,0:0:0:0:
72,25,99409,2,0,B|185:-9|158:59|252:87,1,199.8,4|0,3:2|0:0,0:0:0:0:
284,62,99710,101,0,3:2:0:0:
116,102,99861,1,12,0:0:0:0:
71,170,100012,2,0,L|54:226,2,55.5,2|0|6,3:2|0:0|0:0,0:0:0:0:
0,98,100313,5,2,3:2:0:0:
210,164,100464,1,8,0:0:0:0:
284,62,100615,2,0,L|301:6,2,55.5,2|0|8,3:2|0:0|0:0,0:0:0:0:
127,69,100916,6,0,L|141:128,1,55.5,2|0,3:2|0:0,0:0:0:0:
273,229,101067,2,0,L|327:216,1,55.5,8|0,0:0|0:0,0:0:0:0:
410,262,101218,5,2,3:2:0:0:
410,262,101293,1,0,0:0:0:0:
410,262,101369,1,12,0:0:0:0:
459,159,101520,1,10,0:3:0:0:
409,220,101670,1,4,0:3:0:0:
264,125,101821,102,0,P|364:169|410:265,1,216.45,6|0,3:2|0:0,0:0:0:0:
394,276,102123,1,2,3:2:0:0:
301,375,102273,2,0,B|248:352|245:298|245:298|272:340|306:349,1,166.5,14|0,0:0|0:0,0:0:0:0:
385,358,102575,102,0,P|445:346|479:309,1,111,2|0,3:2|0:0,0:0:0:0:
258,322,102876,2,0,P|247:267|253:212,1,111,14|0,0:0|0:0,0:0:0:0:
138,367,103178,2,0,P|113:352|97:329,1,55.5,14|0,0:0|0:0,0:0:0:0:
19,302,103329,102,0,L|1:366,1,66.6
36,374,103630,5,10,0:3:0:0:
0,216,103781,1,0,0:0:0:0:
81,253,103932,5,6,0:3:0:0:
125,182,104082,1,0,3:2:0:0:
236,158,104233,6,0,P|123:136|46:51,1,233.099992886353,6|0,3:2|0:0,0:0:0:0:
40,29,104534,102,0,P|26:47|26:60,1,33.2999999999999,0|0,3:2|0:0,0:0:0:0:
28,69,104685,2,0,P|49:55|84:56,1,49.9500000000001,4|0,3:2|0:0,0:0:0:0:
118,71,104836,2,0,P|86:95|71:143,1,77.7,0|0,3:2|0:0,0:0:0:0:
132,187,104987,2,0,P|166:151|226:142,1,99.8999999999999,4|0,3:2|0:0,0:0:0:0:
338,178,105137,1,0,3:2:0:0:
351,182,105439,102,0,P|336:133|321:68,1,111,12|0,0:0|3:2,0:0:0:0:
308,254,105740,102,0,P|271:293|124:331,1,199.8,14|0,0:0|0:0,0:0:0:0:
428,236,106042,2,0,P|474:257|518:252,1,83.25,2|0,3:0|0:0,0:0:0:0:
512,217,106193,6,0,B|516:209|516:209|511:206|511:206|512:202|512:202|507:201|507:201|509:195|509:195|503:196|503:196|505:189|505:189|500:186|500:186|504:181|504:181|497:177,1,66.6,0|2,0:0|0:0,0:0:0:0:
475,237,106796,2,0,B|479:244|479:244|474:247|474:247|475:251|475:251|470:252|470:252|472:258|472:258|466:257|466:257|468:264|468:264|463:267|463:267|465:271,1,55.5
469,301,107248,1,2,0:0:0:0:
347,222,107700,1,2,0:3:0:0:
347,222,108002,6,0,L|263:250,1,83.2500000000002,8|0,0:0|0:0,0:0:0:0:
29,96,108304,5,2,3:0:0:0:
192,153,108454,1,0,3:2:0:0:
178,66,108605,101,2,3:0:0:0:
365,120,108756,2,0,P|468:93|512:-16,1,216.45,0|0,3:2|0:0,0:0:0:0:
491,0,109057,1,0,3:2:0:0:
241,84,109208,2,0,P|185:40|174:-14,1,111,10|2,0:0|0:0,0:0:0:0:
319,52,109510,5,0,3:2:0:0:
192,153,109660,1,2,0:0:0:0:
155,143,109736,1,0,0:0:0:0:
124,166,109811,1,8,0:0:0:0:
46,142,109962,5,2,3:2:0:0:
261,220,110113,2,0,P|277:171|298:115,1,111,12|2,0:0|3:2,0:0:0:0:
176,234,110414,101,8,0:3:0:0:
172,240,110489,1,4,0:3:0:0:
164,262,110565,2,0,P|293:261|440:371,1,310.799990515137,2|2,3:2|3:3,0:0:0:0:
427,374,110942,102,0,B|412:344|379:333|379:333|370:291,1,88.8,8|0,0:0|3:2,0:0:0:0:
256,237,111092,2,0,B|263:259|263:259|321:279,1,72.15,8|2,0:0|3:2,0:0:0:0:
381,346,111243,102,0,B|370:315|370:315|360:312|360:312|352:282,1,61.05,8|0,0:0|3:2,0:0:0:0:
343,247,111394,2,0,B|370:266|370:266|369:307,1,55.5,8|2,0:0|3:2,0:0:0:0:
359,358,111545,6,0,B|351:337|351:337|358:330|358:330|375:291,1,61.05,8|0,0:0|3:2,0:0:0:0:
394,211,111695,2,0,B|406:247|406:247|390:297,1,61.05,8|2,0:0|3:2,0:0:0:0:
226,323,111846,6,0,B|255:308|255:308|261:298|261:298|301:291,1,77.7,8|0,0:0|3:2,0:0:0:0:
512,324,111997,2,0,B|478:316|478:316|469:308|469:308|453:313|453:313|406:299,1,77.7,8|8,0:0|3:3,0:0:0:0:
243,190,112148,1,4,3:3:0:0:
219,136,112223,6,0,P|293:41|458:22,1,283.05,14|0,0:0|0:0,0:0:0:0:
162,194,112524,2,0,P|118:162|-14:167,1,155.4,14|0,0:0|3:2,0:0:0:0:
394,211,112826,2,0,L|487:186,1,88.8,14|0,0:0|3:2,0:0:0:0:
139,82,113127,2,0,B|103:53|119:14|119:14|158:35|156:83,1,149.85,14|0,0:0|0:0,0:0:0:0:
154,98,113429,101,14,0:0:0:0:
254,42,113579,1,2,0:3:0:0:
310,102,113730,101,0,3:2:0:0:
67,18,113881,1,14,0:0:0:0:
80,25,114182,101,2,3:2:0:0:
310,102,114333,2,0,P|317:114|316:127,1,33.3,2|0,3:0|0:0,0:0:0:0:
254,42,114484,2,0,P|266:43|277:52,1,33.3,0|0,3:2|0:0,0:0:0:0:
154,98,114635,2,0,P|162:83|174:75,1,33.3,2|0,3:0|0:0,0:0:0:0:
224,213,114785,2,0,P|211:211|200:198,1,33.3,0|0,3:2|0:0,0:0:0:0:
411,161,114936,2,0,P|389:161|379:169,1,33.3,2|0,3:0|0:0,0:0:0:0:
456,279,115087,2,0,P|462:266|458:252,1,33.3,0|0,3:2|0:0,0:0:0:0:
362,302,115238,2,0,P|380:311|388:311,1,33.3,2|0,3:0|0:0,0:0:0:0:
351,291,115539,102,0,B|266:283|260:343|168:359,1,199.8,8|0,0:0|0:0,0:0:0:0:
154,334,115841,5,4,3:2:0:0:
71,261,115991,1,0,3:2:0:0:
240,235,116142,2,0,P|251:180|265:127,1,99.9000000000001,0|0,3:2|3:2,0:0:0:0:
124,137,116444,2,0,P|60:118|19:67,1,133.2,12|0,0:0|3:2,0:0:0:0:
211,114,116745,2,0,L|311:94,1,88.8,12|0,0:0|3:2,0:0:0:0:
512,151,117047,6,0,P|458:190|393:202,1,133.2,12|0,0:0|3:2,0:0:0:0:
342,211,117273,1,0,0:0:0:0:
330,199,117348,2,0,P|361:184|398:186,1,66.6,8|0,0:0|0:0,0:0:0:0:
468,230,117499,2,0,L|485:294,1,66.6,0|0,3:2|0:0,0:0:0:0:
251,234,117650,1,12,0:0:0:0:
190,328,117800,1,0,3:2:0:0:
83,297,117951,1,8,0:0:0:0:
22,347,118102,6,0,P|112:298|158:207,1,208.125,4|0,3:2|0:0,0:0:0:0:
153,191,118403,1,0,3:2:0:0:
339,308,118554,2,0,P|284:283|250:232,1,122.1,12|0,0:0|3:2,0:0:0:0:
187,117,118780,1,0,0:0:0:0:
167,109,118856,2,0,P|177:139|190:183,1,66.6,12|0,0:0|0:0,0:0:0:0:
332,198,119006,1,0,3:2:0:0:
392,119,119157,1,8,0:0:0:0:
241,279,119308,102,0,L|218:385,1,99.9000000000001,4|8,3:2|0:0,0:0:0:0:
415,251,119609,2,0,L|518:227,1,99.9000000000001,0|12,3:2|0:0,0:0:0:0:
339,308,119911,1,0,3:2:0:0:
187,172,120062,2,0,B|77:164|127:229|7:254,1,183.15,12|0,0:0|0:0,0:0:0:0:
13,232,120363,1,0,0:0:0:0:
314,320,120514,2,0,L|401:339,1,77.6999999999999,0|0,3:2|3:2,0:0:0:0:
137,316,120815,5,2,3:3:0:0:
211,361,120966,1,2,3:3:0:0:
281,303,121117,1,2,3:3:0:0:
259,217,121268,101,2,3:3:0:0:
150,212,121418,1,2,3:3:0:0:
100,106,121569,1,2,3:3:0:0:
287,0,121720,5,2,3:3:0:0:
240,110,121871,1,14,0:0:0:0:
240,110,122021,2,0,L|172:126,1,66.6
154,129,122323,69,0,3:2:0:0:
132,103,122398,1,0,0:0:0:0:
100,106,122475,2,0,B|118:172|-12:211|-12:211|96:291|286:126|286:126|157:193|91:359|91:359|255:150|183:386|395:291|316:148|237:216,1,1159.95003539887,4|0,3:2|3:0,0:0:0:0:
187,236,125490,70,0,B|102:275|19:346|19:346|260:197|444:158|366:296|366:296|315:374|490:369|536:323|489:229|444:308,1,927.960028319093,4|0,3:2|0:0,0:0:0:0:
352,289,128505,6,0,B|347:345|78:390|164:245|334:238|288:105|288:105|268:62|400:274|203:269,1,659.339997987854,4|0,3:2|0:0,0:0:0:0:
194,262,131369,1,0,3:2:0:0:
206,351,131520,102,0,P|223:318|392:67,1,332.999989837647,4|0,3:2|0:0,0:0:0:0:
16,165,137550,6,0,B|108:150|87:193|183:220,1,166.5,0|0,3:0|0:0,0:0:0:0:
167,199,137851,2,0,L|191:128,1,66.5999999999999,0|2,3:0|0:0,0:0:0:0:
332,240,138153,2,0,L|308:169,1,66.5999999999999,0|0,3:0|0:0,0:0:0:0:
238,250,138454,1,2,3:2:0:0:
310,284,138605,102,0,L|421:308,1,88.8,0|0,0:0|3:0,0:0:0:0:
418,281,138831,1,2,0:0:0:0:
441,313,138906,1,2,0:0:0:0:
361,382,139057,1,0,3:0:0:0:
358,372,139359,5,0,3:0:0:0:
310,284,139509,1,2,0:0:0:0:
304,292,139585,1,0,0:0:0:0:
300,300,139660,2,0,B|194:338|116:242|151:175|196:217,1,222,2|2,3:0|3:0,0:0:0:0:
136,308,140112,2,0,P|114:343|131:299,1,155.4,2|0,0:0|0:0,0:0:0:0:
166,292,140565,53,8,0:0:0:0:
80,215,140715,1,0,3:0:0:0:
76,203,140866,1,8,0:3:0:0:
0,257,141017,1,4,0:3:0:0:
4,245,141168,1,0,3:0:0:0:
23,132,141318,2,0,L|0:51,1,77.6999999999999,2|0,3:0|3:0,0:0:0:0:
176,205,141620,2,0,L|220:219,2,38.85,8|8|4,0:3|0:3|0:3,0:0:0:0:
91,181,141921,1,0,0:0:0:0:
238,55,142072,5,8,0:0:0:0:
370,124,142223,1,0,3:0:0:0:
366,112,142374,1,8,0:3:0:0:
288,157,142524,1,4,0:3:0:0:
292,145,142675,1,0,3:0:0:0:
373,70,142826,6,0,L|459:48,1,77.6999999999999,2|0,3:0|3:0,0:0:0:0:
303,190,143127,2,0,L|288:236,2,38.85,8|8|4,0:3|0:3|0:3,0:0:0:0:
168,108,143429,1,0,0:0:0:0:
168,108,143504,1,0,0:0:0:0:
168,108,143580,54,0,P|96:157|9:163,1,166.5,4|0,3:2|0:0,0:0:0:0:
0,151,143881,2,0,P|8:119|68:82,1,99.9000000000001,2|8,3:0|0:0,0:0:0:0:
32,245,144183,2,0,L|9:326,1,77.6999999999999,2|0,0:0|3:0,0:0:0:0:
135,195,144484,2,0,P|189:196|266:256,1,149.85,10|0,0:0|0:0,0:0:0:0:
258,264,144786,1,10,0:0:0:0:
415,208,144936,2,0,P|378:222|365:239,1,49.9500000000001,4|4,0:3|0:3,0:0:0:0:
289,262,145087,102,0,P|275:310|261:361,1,99.9000000000001,6|0,3:2|0:0,0:0:0:0:
135,195,145389,2,0,P|169:155|219:142,1,99.9000000000001,2|8,3:0|0:0,0:0:0:0:
170,275,145690,2,0,L|90:295,1,77.6999999999999,2|0,0:0|3:0,0:0:0:0:
306,164,145992,2,0,P|358:159|447:217,1,149.85,10|0,0:0|0:0,0:0:0:0:
415,208,146293,85,10,3:2:0:0:
410,163,146369,1,8,0:0:0:0:
422,154,146444,1,8,0:3:0:0:
439,155,146519,1,4,0:3:0:0:
490,178,146595,6,0,B|549:99|474:-18|413:7|410:68|472:84,1,244.2,4|0,3:2|0:0,0:0:0:0:
413,147,147348,2,0,P|330:114|242:88,1,146.52,2|0,0:3|0:0,0:0:0:0:
199,79,147801,2,0,B|200:101|179:179|101:176|61:120|107:85|150:111,1,170.94,2|2,0:3|0:3,0:0:0:0:
143,0,148253,2,0,B|40:181|268:64|316:245,1,341.88,2|0,3:3|0:0,0:0:0:0:
385,259,149007,1,2,0:3:0:0:
395,251,149157,2,0,L|416:189,1,61.05,2|0,3:3|0:0,0:0:0:0:
474,317,149459,1,0,0:0:0:0:
474,308,149534,1,0,0:0:0:0:
470,299,149610,102,0,B|434:244|315:269|287:374|351:395|381:343,1,244.2,4|0,3:2|0:0,0:0:0:0:
264,267,150363,2,0,B|219:223|239:163|289:199|282:260,1,146.52,2|0,0:3|0:0,0:0:0:0:
301,335,150816,2,0,P|221:285|118:277,1,170.94,2|2,0:3|0:3,0:0:0:0:
9,266,151268,2,0,P|89:280|103:209,1,170.94,2|2,3:3|0:3,0:0:0:0:
146,274,151720,2,0,P|167:301|225:282,1,97.6799999999999,2|0,3:3|0:0,0:0:0:0:
227,252,152474,5,8,0:0:0:0:
227,252,152549,1,8,0:0:0:0:
227,252,152625,2,0,B|312:253|288:303|386:330,1,166.5,4|0,3:2|0:0,0:0:0:0:
388,300,152926,2,0,L|459:282,1,66.5999999999999,0|8,3:2|0:0,0:0:0:0:
253,220,153228,2,0,L|229:142,1,66.5999999999999,2|0,0:3|3:2,0:0:0:0:
146,274,153529,1,10,0:0:0:0:
67,299,153680,1,0,3:2:0:0:
7,180,153831,21,8,0:0:0:0:
84,208,153981,2,0,P|102:147|108:107,1,99.9000000000001,0|0,0:0|3:2,0:0:0:0:
4,219,154283,1,8,0:0:0:0:
178,187,154434,2,0,L|252:207,1,66.5999999999999,0|8,3:2|0:0,0:0:0:0:
79,89,154735,2,0,L|62:15,1,66.5999999999999,2|8,3:2|0:0,0:0:0:0:
107,290,155037,2,0,P|89:351|80:385,2,88.8,2|0|8,3:0|3:2|0:0,0:0:0:0:
443,223,155640,21,2,3:0:0:0:
322,263,155790,1,2,0:0:0:0:
318,275,155941,1,8,0:3:0:0:
390,314,156092,1,4,0:3:0:0:
394,326,156243,1,0,3:0:0:0:
245,238,156393,2,0,L|163:258,1,77.6999999999999,2|8,3:0|0:0,0:0:0:0:
120,191,156695,1,0,0:0:0:0:
318,275,156846,2,0,L|338:199,1,77.6999999999999,0|8,3:0|0:0,0:0:0:0:
169,256,157147,5,2,3:0:0:0:
27,171,157298,1,2,0:0:0:0:
31,159,157449,1,8,0:3:0:0:
120,191,157599,1,4,0:3:0:0:
116,179,157750,1,0,3:0:0:0:
75,273,157901,2,0,L|0:292,1,77.6999999999999,2|8,3:0|0:0,0:0:0:0:
139,339,158202,1,0,0:0:0:0:
203,291,158353,2,0,L|224:210,1,77.6999999999999,0|8,3:0|0:0,0:0:0:0:
409,230,158655,5,2,3:0:0:0:
313,264,158805,1,2,0:0:0:0:
317,276,158956,1,8,0:3:0:0:
391,310,159107,1,4,0:3:0:0:
387,322,159258,1,0,3:0:0:0:
442,183,159408,1,2,3:0:0:0:
460,257,159559,2,0,L|477:337,1,77.6999999999999,8|0,0:0|0:0,0:0:0:0:
399,104,159861,1,0,3:0:0:0:
427,176,160011,2,0,L|444:96,1,77.6999999999999,8|2,0:0|3:0,0:0:0:0:
286,218,160313,101,2,0:0:0:0:
290,230,160464,1,8,0:3:0:0:
368,247,160614,1,4,0:3:0:0:
364,259,160765,1,0,3:0:0:0:
278,137,160916,1,2,3:0:0:0:
235,205,161067,102,0,L|263:291,1,77.6999999999999,8|0,0:0|0:0,0:0:0:0:
298,140,161368,2,0,L|311:98,1,38.85,0|0,3:0|0:0,0:0:0:0:
321,37,161519,1,8,0:0:0:0:
321,64,161594,1,8,0:0:0:0:
343,94,161670,6,0,P|415:143|502:149,1,166.5,0|0,3:0|0:0,0:0:0:0:
507,133,161971,2,0,P|499:101|439:64,1,99.9000000000001,2|0,0:0|3:0,0:0:0:0:
426,248,162273,2,0,P|482:244|501:229,1,77.6999999999999,2|0,0:0|0:0,0:0:0:0:
358,201,162574,2,0,L|237:224,1,116.55,2|0,3:0|0:0,0:0:0:0:
227,208,162876,2,0,P|191:189|179:149,1,77.6999999999999,2|0,0:0|0:0,0:0:0:0:
321,96,163177,70,0,P|328:163|270:209,1,99.9000000000001,2|0,3:0|0:0,0:0:0:0:
174,124,163479,2,0,L|80:99,1,77.6999999999999,2|0,3:0|0:0,0:0:0:0:
297,12,163780,2,0,P|372:22|426:102,1,166.5,2|0,3:0|0:0,0:0:0:0:
436,105,164082,1,2,0:0:0:0:
491,35,164233,101,0,3:0:0:0:
370,161,164383,1,2,0:0:0:0:
399,239,164534,2,0,L|433:251,2,37,2|0|0,0:0|0:0|0:0,0:0:0:0:
491,170,164686,86,0,B|333:191|254:274|244:341|246:364|246:364|266:208|421:335|417:141|358:150,1,598.289999999999,4|0,3:2|0:0,0:0:0:0:
316,148,165892,2,0,B|259:112|222:78|222:78|319:173|367:317,1,366.299999999999,10|2,0:2|0:3,0:0:0:0:
372,365,166796,2,0,B|456:377|475:296|423:272,1,146.52,2|2,3:3|0:3,0:0:0:0:
309,236,167248,2,0,B|363:228|367:281|323:296,1,91.5749999999999,2|0,3:3|0:0,0:0:0:0:
253,290,167550,1,8,0:2:0:0:
245,306,167625,1,10,0:2:0:0:
229,286,167701,6,0,B|163:187|265:68,1,195.359999999999,4|2,3:2|0:3,0:0:0:0:
296,29,168153,2,0,B|360:90|286:180|151:179|151:19|235:-16|292:41,1,341.88,0|2,3:3|0:0,0:0:0:0:
397,250,168907,102,0,P|341:204|319:135,1,146.52,10|2,0:2|0:3,0:0:0:0:
48,98,169359,2,0,P|108:96|159:62,1,122.1,2|2,3:3|0:3,0:0:0:0:
281,32,169811,2,0,B|316:134|275:133|215:98|175:162,1,195.36,2|2,3:3|0:0,0:0:0:0:
249,207,170565,5,8,0:0:0:0:
249,207,170640,1,10,0:0:0:0:
249,207,170716,2,0,P|231:152|217:111,1,77.6999999999999,4|0,3:2|0:0,0:0:0:0:
167,233,171017,1,0,3:2:0:0:
319,140,171168,2,0,P|442:169|473:210,1,166.5,8|0,0:0|0:0,0:0:0:0:
447,212,171469,101,0,3:2:0:0:
318,275,171620,1,10,0:0:0:0:
259,211,171771,5,0,3:2:0:0:
424,316,171922,2,0,B|472:284|472:284|411:289,1,116.55,8|0,0:0|0:0,0:0:0:0:
387,331,172223,1,0,3:2:0:0:
241,369,172374,2,0,P|234:330|233:291,1,77.6999999999999,8|0,0:0|3:2,0:0:0:0:
125,352,172675,1,8,0:0:0:0:
29,227,172826,5,2,3:2:0:0:
29,227,172901,1,0,0:0:0:0:
29,227,172977,2,0,B|112:233|143:294|117:335|94:345|72:327,1,166.5,8|0,0:0|0:0,0:0:0:0:
81,329,173278,1,0,3:2:0:0:
176,232,173429,1,8,0:0:0:0:
189,260,173580,1,0,0:0:0:0:
378,196,173731,37,2,3:0:0:0:
295,225,173881,1,2,0:0:0:0:
291,237,174032,1,8,0:3:0:0:
396,277,174183,1,4,0:3:0:0:
400,289,174334,1,0,3:0:0:0:
478,130,174484,1,2,3:0:0:0:
468,207,174635,2,0,L|439:122,1,77.6999999999999,8|0,0:0|0:0,0:0:0:0:
298,143,174937,2,0,L|327:58,1,77.6999999999999,0|8,3:0|0:0,0:0:0:0:
194,179,175238,5,2,3:0:0:0:
129,128,175389,1,2,0:0:0:0:
128,116,175540,1,8,0:3:0:0:
4,173,175690,1,4,0:3:0:0:
0,185,175841,1,0,3:0:0:0:
57,28,175992,1,2,3:0:0:0:
47,105,176143,2,0,L|18:20,1,77.6999999999999,8|0,0:0|0:0,0:0:0:0:
184,203,176444,2,0,L|269:174,1,77.6999999999999,0|8,3:0|0:0,0:0:0:0:
57,315,176746,5,2,3:0:0:0:
79,222,176896,1,2,0:0:0:0:
83,234,177047,1,8,0:3:0:0:
217,316,177198,1,4,0:3:0:0:
213,328,177349,1,0,3:0:0:0:
59,367,177499,1,2,3:0:0:0:
139,351,177650,2,0,L|53:333,1,77.6999999999999,8|0,0:0|0:0,0:0:0:0:
211,239,177952,1,0,3:0:0:0:
277,190,178102,2,0,L|294:110,1,77.6999999999999,8|2,0:0|3:0,0:0:0:0:
347,252,178404,101,2,0:0:0:0:
359,249,178555,1,8,0:3:0:0:
500,308,178705,1,4,0:3:0:0:
512,311,178856,1,0,3:0:0:0:
423,300,179007,1,2,3:0:0:0:
429,384,179158,2,0,L|409:310,1,77.6999999999999,8|0,0:0|0:0,0:0:0:0:
267,277,179459,1,0,3:0:0:0:
307,146,179610,1,8,0:0:0:0:
307,146,179685,1,8,0:0:0:0:
307,146,179761,1,2,3:0:0:0:
256,192,179836,12,0,182474,0:0:0:0:
291,147,182625,54,0,L|297:120,2,37,2|0|0,0:2|0:0|0:0,0:0:0:0:
265,240,182776,22,0,B|228:259|73:107|167:-88|404:139|419:242|340:250|340:250|344:285|439:381|439:381|249:219|16:231|16:231|-68:240|67:237|158:273|268:362|268:362|220:324|220:324|24:181|66:-11|175:-111|498:47|451:251|451:251|436:302|550:228|457:272|511:349,1,2450.88,4|0,3:2|3:0,0:0:0:0:
