osu file format v14

[General]
AudioFilename: audio.mp3
AudioLeadIn: 0
PreviewTime: -1
Countdown: 1
SampleSet: None
StackLeniency: 0.4
Mode: 0
LetterboxInBreaks: 0
WidescreenStoryboard: 0

[Editor]
Bookmarks: 197528
DistanceSpacing: 1.4
BeatDivisor: 4
GridSize: 8
TimelineZoom: 2.5

[Metadata]
Title:Flying high
TitleUnicode:Flying high
Artist:Good 4 Nothing
ArtistUnicode:Good 4 Nothing
Creator:M P I
Version:HIGH
Source:
Tags:
BeatmapID:1992972
BeatmapSetID:954635

[Difficulty]
HPDrainRate:5.3
CircleSize:4
OverallDifficulty:8.4
ApproachRate:9
SliderMultiplier:2
SliderTickRate:1

[Events]
//Background and Video events
0,0,"Flying-High-960x1440.jpg",0,0
//Break Periods
//Storyboard Layer 0 (Background)
//Storyboard Layer 1 (Fail)
//Storyboard Layer 2 (Pass)
//Storyboard Layer 3 (Foreground)
//Storyboard Sound Samples

[TimingPoints]
87,348.837209302326,4,1,0,75,1,0
24156,-66.6666666666667,4,1,0,75,0,0
43691,-133.333333333333,4,1,0,75,0,0
46482,-100,4,1,0,90,0,1
68807,-133.333333333333,4,1,0,75,0,0
75784,-133.333333333333,4,1,0,75,0,0
89738,-66.6666666666667,4,1,0,75,0,0
90784,-100,4,1,0,75,0,0
91133,-66.6666666666667,4,1,0,90,0,1
121831,-40,4,1,0,90,0,1
123226,-33.3333333333333,4,1,0,90,0,1
126017,-28.5714285714286,4,1,0,90,0,1
131598,-66.6666666666667,4,1,0,90,0,1
132993,-200,4,1,0,75,0,0
144156,-133.333333333333,4,1,0,75,0,0
152528,-133.333333333333,4,1,0,90,0,1
155319,-100,4,1,0,90,0,1
169273,-100,4,1,0,75,0,0
174854,-66.6666666666667,4,1,0,75,0,0
180610,-100,4,1,0,75,0,0

[Colours]
Combo1 : 247,157,157
Combo2 : 255,0,0
Combo3 : 131,180,252
Combo4 : 192,192,192

[HitObjects]
446,96,435,5,0,0:0:0:0:
272,132,610,1,0,0:0:0:0:
272,132,959,1,0,0:0:0:0:
272,132,1307,1,0,0:0:0:0:
124,50,1482,1,0,0:0:0:0:
100,93,1569,1,0,0:0:0:0:
90,142,1656,1,0,0:0:0:0:
97,191,1743,1,0,0:0:0:0:
120,240,1831,6,0,P|115:328|27:314,1,200
388,50,2354,1,0,0:0:0:0:
384,240,2528,2,0,P|372:327|461:331,1,200
160,120,3052,1,0,0:0:0:0:
64,128,3226,2,0,P|136:40|256:56,1,200
416,192,3749,1,0,0:0:0:0:
160,120,3924,2,0,L|216:224,1,100
416,192,4273,1,0,0:0:0:0:
328,64,4621,6,0,P|296:120|184:192,1,200
208,264,5145,1,0,0:0:0:0:
328,64,5319,2,0,L|384:296,1,200
448,240,5842,1,0,0:0:0:0:
328,64,6017,2,0,B|416:56|416:56|448:208,1,200
176,80,6540,1,0,0:0:0:0:
328,64,6714,5,0,0:0:0:0:
112,192,6889,1,0,0:0:0:0:
400,152,7063,1,0,0:0:0:0:
136,336,7412,6,0,P|120:256|176:328,1,200
408,40,7935,1,0,0:0:0:0:
408,40,8110,2,0,P|336:88|200:112,1,200
104,40,8633,1,0,0:0:0:0:
104,40,8808,2,0,P|152:112|176:248,1,200
104,344,9331,1,0,0:0:0:0:
104,344,9506,2,0,P|160:296|208:288,1,100
256,192,9854,1,0,0:0:0:0:
392,48,10203,6,0,P|376:104|408:272,1,200
464,144,10726,1,0,0:0:0:0:
464,144,10900,2,0,L|248:144,1,200
208,48,11424,1,0,0:0:0:0:
208,48,11598,1,0,0:0:0:0:
120,144,11773,1,0,0:0:0:0:
121,193,11860,1,0,0:0:0:0:
149,233,11947,1,0,0:0:0:0:
195,251,12034,1,0,0:0:0:0:
243,242,12121,1,0,0:0:0:0:
208,48,12296,5,0,0:0:0:0:
272,168,12470,5,0,0:0:0:0:
306,111,12557,1,0,0:0:0:0:
359,71,12644,1,0,0:0:0:0:
423,54,12731,1,0,0:0:0:0:
488,56,12819,1,0,0:0:0:0:
448,256,12993,6,0,B|376:312|376:312|264:312,1,200
152,208,13517,1,0,0:0:0:0:
416,168,13691,6,0,B|344:224|344:224|232:224,1,200
152,208,14214,1,0,0:0:0:0:
384,80,14389,6,0,B|312:136|312:136|200:136,1,200
152,208,14912,1,0,0:0:0:0:
376,192,15087,6,0,B|336:224|336:224|272:224,1,100
152,208,15435,1,0,0:0:0:0:
336,48,15784,6,0,P|256:112|128:120,1,200
285,172,16307,1,0,0:0:0:0:
161,126,16482,6,0,P|225:206|233:334,1,200
285,172,17005,1,0,0:0:0:0:
239,300,17180,6,0,P|319:236|447:228,1,200
285,172,17703,1,0,0:0:0:0:
425,116,17877,5,0,0:0:0:0:
145,85,18051,1,0,0:0:0:0:
287,46,18226,1,0,0:0:0:0:
168,264,18575,6,0,P|256:304|357:248,1,200
360,144,19098,1,0,0:0:0:0:
254,109,19273,6,0,P|347:60|465:78,1,200
148,144,19796,1,0,0:0:0:0:
254,109,19971,6,0,P|161:60|43:78,1,200
256,192,20493,1,0,0:0:0:0:
256,272,20668,6,0,L|144:272,1,100
184,192,21017,2,0,L|72:192,1,100
152,112,21366,5,0,0:0:0:0:
384,64,21540,1,0,0:0:0:0:
224,48,21714,1,0,0:0:0:0:
320,240,21889,1,0,0:0:0:0:
304,88,22063,5,0,0:0:0:0:
384,312,22237,1,0,0:0:0:0:
400,152,22411,1,0,0:0:0:0:
208,248,22586,1,0,0:0:0:0:
48,120,22761,5,0,0:0:0:0:
144,64,23110,5,0,0:0:0:0:
272,56,23284,1,0,0:0:0:0:
272,56,23371,1,0,0:0:0:0:
272,56,23459,1,0,0:0:0:0:
288,176,23633,1,0,0:0:0:0:
448,80,23807,1,0,0:0:0:0:
288,176,23982,1,0,0:0:0:0:
80,296,24156,6,0,P|200:280|200:256,1,150.000005722046
136,224,24505,1,0,0:0:0:0:
232,152,24680,1,0,0:0:0:0:
80,296,24854,6,0,P|200:280|200:256,1,150.000005722046
136,224,25203,1,0,0:0:0:0:
232,152,25378,1,0,0:0:0:0:
456,64,25552,6,0,L|352:200,1,150.000005722046
328,248,25900,1,0,0:0:0:0:
328,248,26075,1,0,0:0:0:0:
456,64,26249,6,0,L|352:200,1,150.000005722046
328,248,26597,1,0,0:0:0:0:
328,248,26773,1,0,0:0:0:0:
88,200,26947,6,0,B|165:104|165:104|208:88,1,150.000005722046
320,64,27296,1,0,0:0:0:0:
320,64,27470,1,0,0:0:0:0:
88,200,27645,6,0,B|165:104|165:104|208:88,1,150.000005722046
320,64,27994,1,0,0:0:0:0:
320,64,28168,1,0,0:0:0:0:
344,160,28342,5,0,0:0:0:0:
168,232,28517,1,0,0:0:0:0:
208,88,28691,1,0,0:0:0:0:
208,88,28866,1,0,0:0:0:0:
256,192,29040,5,0,0:0:0:0:
384,48,29214,1,0,0:0:0:0:
472,248,29389,1,0,0:0:0:0:
312,120,29563,1,0,0:0:0:0:
168,344,29738,6,0,P|256:320|304:248,1,150.000005722046
408,280,30087,2,0,P|384:192|312:144,1,150.000005722046
344,40,30435,2,0,P|256:64|208:136,1,150.000005722046
104,104,30784,2,0,P|128:192|200:240,1,150.000005722046
341,228,31133,6,0,P|393:176|407:103,1,150.000005722046
170,155,31482,2,0,P|118:207|104:280,1,150.000005722046
292,106,31831,2,0,P|240:54|167:40,1,150.000005722046
219,277,32180,2,0,P|271:329|344:343,1,150.000005722046
292,106,32528,6,0,B|334:106|334:106|430:58,1,150.000005722046
332,250,32877,2,0,B|374:250|374:250|470:202,1,150.000005722046
308,178,33226,2,0,B|350:178|350:178|446:130,1,150.000005722046
356,322,33575,2,0,B|398:322|398:322|494:274,1,150.000005722046
184,64,33924,5,0,0:0:0:0:
48,264,34098,1,0,0:0:0:0:
304,96,34273,1,0,0:0:0:0:
304,96,34447,1,0,0:0:0:0:
128,152,34621,5,0,0:0:0:0:
216,272,34796,1,0,0:0:0:0:
128,240,34970,1,0,0:0:0:0:
256,192,35145,1,0,0:0:0:0:
400,40,35319,6,0,P|360:112|272:136,1,150.000005722046
304,48,35668,2,0,P|237:78|204:144,1,150.000005722046
300,136,36017,2,0,P|260:208|172:232,1,150.000005722046
204,144,36366,2,0,P|137:174|104:240,1,150.000005722046
424,216,36714,6,0,P|391:150|324:120,1,150.000005722046
300,312,37063,2,0,P|233:281|200:215,1,150.000005722046
448,185,37412,2,0,P|415:119|348:89,1,150.000005722046
272,345,37761,2,0,P|205:314|172:248,1,150.000005722046
136,112,38110,6,0,B|225:185|225:185|221:154|234:123,1,150.000005722046
301,171,38459,2,0,B|390:244|390:244|386:213|399:182,1,150.000005722046
390,209,38807,2,0,B|301:136|301:136|305:167|292:198,1,150.000005722046
225,150,39156,2,0,B|136:77|136:77|140:108|127:139,1,150.000005722046
400,56,39505,5,0,0:0:0:0:
208,240,39680,1,0,0:0:0:0:
272,64,39854,1,0,0:0:0:0:
272,64,40028,1,0,0:0:0:0:
400,216,40203,5,0,0:0:0:0:
112,144,40377,1,0,0:0:0:0:
384,128,40552,1,0,0:0:0:0:
184,88,40726,1,0,0:0:0:0:
120,304,40900,6,0,B|224:304|224:304|272:272,1,150.000005722046
56,248,41249,2,0,B|94:222|94:222|198:222,1,150.000005722046
272,112,41598,6,0,B|376:112|376:112|424:80,1,150.000005722046
208,64,41947,2,0,B|246:38|246:38|350:38,1,150.000005722046
448,152,42296,5,0,0:0:0:0:
304,208,42470,1,0,0:0:0:0:
440,216,42645,5,0,0:0:0:0:
240,152,42819,1,0,0:0:0:0:
408,264,42993,5,0,0:0:0:0:
336,80,43168,1,0,0:0:0:0:
352,280,43342,5,0,0:0:0:0:
416,40,43517,1,0,0:0:0:0:
120,200,43691,5,0,0:0:0:0:
120,200,43778,1,0,0:0:0:0:
120,200,43866,1,0,0:0:0:0:
312,72,44040,1,0,0:0:0:0:
128,56,44214,5,0,0:0:0:0:
400,296,44389,1,0,0:0:0:0:
136,272,44563,5,0,0:0:0:0:
456,56,44738,1,0,0:0:0:0:
232,144,44912,1,0,0:0:0:0:
336,64,45087,5,0,0:0:0:0:
336,64,45261,1,0,0:0:0:0:
184,272,45435,5,0,0:0:0:0:
184,272,45610,1,0,0:0:0:0:
424,192,45784,5,0,0:0:0:0:
208,88,45959,1,0,0:0:0:0:
320,144,46133,1,0,0:0:0:0:
96,328,46482,6,0,P|184:288|296:280,1,200
336,280,47005,1,0,0:0:0:0:
384,256,47180,2,0,P|408:176|368:48,1,200
328,56,47703,1,0,0:0:0:0:
280,80,47877,2,0,P|216:120|72:112,1,200
56,160,48400,1,0,0:0:0:0:
80,208,48575,2,0,P|176:256|232:376,1,200
272,344,49098,1,0,0:0:0:0:
320,320,49273,2,0,P|374:237|463:195,1,200
448,144,49796,1,0,0:0:0:0:
408,96,49970,2,0,P|344:88|168:112,1,200
184,152,50493,1,0,0:0:0:0:
232,192,50668,2,0,P|296:200|472:176,1,200
430,187,51191,1,0,0:0:0:0:
72,112,51366,5,0,0:0:0:0:
288,328,51540,1,0,0:0:0:0:
184,128,51714,1,0,0:0:0:0:
336,104,52063,5,0,0:0:0:0:
408,80,52238,2,0,P|392:152|352:176,1,100
336,104,52587,1,0,0:0:0:0:
152,240,52761,5,0,0:0:0:0:
88,152,52935,2,0,P|136:136|192:144,1,100
152,240,53284,1,0,0:0:0:0:
376,112,53459,5,0,0:0:0:0:
428,267,53633,2,0,P|358:289|317:267,1,100
376,112,53982,1,0,0:0:0:0:
136,271,54156,5,0,0:0:0:0:
80,80,54331,2,0,P|150:57|191:80,1,100
136,271,54680,1,0,0:0:0:0:
373,40,54854,5,0,0:0:0:0:
298,59,55028,2,0,B|244:64|244:64|169:91,1,100
373,40,55377,1,0,0:0:0:0:
90,135,55552,5,0,0:0:0:0:
165,154,55726,2,0,B|219:159|219:159|294:186,1,100
90,135,56075,1,0,0:0:0:0:
276,255,56249,1,0,0:0:0:0:
315,93,56424,1,0,0:0:0:0:
343,115,56511,1,0,0:0:0:0:
367,141,56598,1,0,0:0:0:0:
387,171,56685,1,0,0:0:0:0:
402,204,56772,1,0,0:0:0:0:
368,327,56947,5,0,0:0:0:0:
236,287,57122,5,0,0:0:0:0:
204,247,57209,1,0,0:0:0:0:
182,202,57296,1,0,0:0:0:0:
169,154,57383,1,0,0:0:0:0:
166,104,57470,1,0,0:0:0:0:
441,47,57645,5,0,0:0:0:0:
375,87,57819,1,0,0:0:0:0:
456,128,57993,1,0,0:0:0:0:
360,176,58168,1,0,0:0:0:0:
112,296,58342,5,0,0:0:0:0:
184,320,58517,1,0,0:0:0:0:
152,232,58691,1,0,0:0:0:0:
240,224,58866,1,0,0:0:0:0:
432,40,59040,5,0,0:0:0:0:
392,112,59214,1,0,0:0:0:0:
352,48,59389,1,0,0:0:0:0:
304,144,59563,1,0,0:0:0:0:
88,48,59738,5,0,0:0:0:0:
152,104,59912,1,0,0:0:0:0:
72,128,60087,1,0,0:0:0:0:
152,208,60261,1,0,0:0:0:0:
400,176,60435,5,0,0:0:0:0:
400,176,60523,1,0,0:0:0:0:
400,176,60610,2,0,P|360:240|304:264,1,100
256,152,60959,1,0,0:0:0:0:
80,320,61133,5,0,0:0:0:0:
96,312,61220,1,0,0:0:0:0:
112,304,61307,2,0,P|168:272|208:232,1,100
256,152,61656,1,0,0:0:0:0:
320,24,61831,5,0,0:0:0:0:
272,40,61918,1,0,0:0:0:0:
232,56,62005,2,0,P|184:96|168:136,1,100
256,152,62354,1,0,0:0:0:0:
448,288,62528,5,0,0:0:0:0:
376,272,62616,1,0,0:0:0:0:
304,264,62703,2,0,P|240:272|176:248,1,100
256,152,63052,1,0,0:0:0:0:
400,80,63226,5,0,0:0:0:0:
392,184,63575,1,0,0:0:0:0:
64,168,63924,5,0,0:0:0:0:
192,104,64273,1,0,0:0:0:0:
208,344,64621,5,0,0:0:0:0:
280,176,64970,1,0,0:0:0:0:
464,48,65319,5,0,0:0:0:0:
192,192,65668,1,0,0:0:0:0:
224,64,66017,6,0,L|272:40,1,50
424,168,66191,2,0,L|352:136,1,50
288,128,66366,2,0,L|240:184,1,50
304,256,66540,2,0,L|368:216,1,50
144,160,66714,2,0,L|144:224,1,50
448,256,66889,2,0,L|400:304,1,50
208,256,67063,2,0,L|240:200,1,50
368,88,67238,2,0,L|392:144,1,50
248,128,67412,1,0,0:0:0:0:
88,144,67761,5,0,0:0:0:0:
200,56,67935,1,0,0:0:0:0:
232,48,68023,1,0,0:0:0:0:
264,48,68110,1,0,0:0:0:0:
304,192,68284,1,0,0:0:0:0:
376,168,68459,1,0,0:0:0:0:
440,216,68633,1,0,0:0:0:0:
176,104,68807,6,0,L|144:192,2,75.0000028610231
288,144,70203,2,0,P|336:184|368:192,2,75.0000028610231
152,256,71598,2,0,P|120:288|104:312,2,75.0000028610231
144,248,72993,2,0,L|216:224,2,75.0000028610231
215,224,73691,2,0,L|287:200,2,75.0000028610231
400,64,74389,5,0,0:0:0:0:
328,128,74563,1,0,0:0:0:0:
312,48,74738,1,0,0:0:0:0:
88,224,75784,5,0,0:0:0:0:
120,144,75959,1,0,0:0:0:0:
176,216,76133,1,0,0:0:0:0:
344,72,77180,5,0,0:0:0:0:
384,144,77354,1,0,0:0:0:0:
424,72,77529,1,0,0:0:0:0:
296,144,78575,5,0,0:0:0:0:
376,88,78750,1,0,0:0:0:0:
384,224,78924,1,0,0:0:0:0:
299,129,79272,5,0,0:0:0:0:
391,96,79447,1,0,0:0:0:0:
364,229,79621,1,0,0:0:0:0:
312,112,79796,1,0,0:0:0:0:
144,56,79970,6,0,L|144:152,1,75.0000028610231
216,56,80319,2,0,L|216:152,1,75.0000028610231
288,56,80668,2,0,L|288:152,1,75.0000028610231
360,56,81017,2,0,L|360:152,1,75.0000028610231
296,328,81366,6,0,P|328:296|368:280,1,75.0000028610231
240,272,81714,2,0,P|272:240|312:224,1,75.0000028610231
176,224,82063,2,0,P|208:192|248:176,1,75.0000028610231
112,176,82412,2,0,P|144:144|184:128,1,75.0000028610231
384,80,82761,6,0,P|336:96|304:128,1,75.0000028610231
144,64,83110,2,0,P|160:112|192:144,1,75.0000028610231
128,304,83459,2,0,P|176:288|208:256,1,75.0000028610231
368,320,83807,2,0,P|352:272|320:240,1,75.0000028610231
264,293,84156,6,0,P|256:329|235:360,1,75.0000028610231
154,200,84504,2,0,P|118:192|87:171,1,75.0000028610231
247,90,84853,2,0,P|255:54|276:23,1,75.0000028610231
357,183,85202,2,0,P|393:191|424:212,1,75.0000028610231
152,176,85552,5,0,0:0:0:0:
280,200,85726,1,0,0:0:0:0:
152,176,85900,1,0,0:0:0:0:
280,200,86075,1,0,0:0:0:0:
464,48,86249,5,0,0:0:0:0:
280,200,86423,1,0,0:0:0:0:
464,48,86598,1,0,0:0:0:0:
280,200,86772,1,0,0:0:0:0:
160,88,86947,5,0,0:0:0:0:
376,248,87121,1,0,0:0:0:0:
192,80,87296,5,0,0:0:0:0:
352,288,87470,1,0,0:0:0:0:
120,272,87645,5,0,0:0:0:0:
448,104,87819,1,0,0:0:0:0:
104,232,87993,5,0,0:0:0:0:
464,144,88168,1,0,0:0:0:0:
184,88,88342,5,0,0:0:0:0:
344,64,88691,5,0,0:0:0:0:
240,240,88866,1,0,0:0:0:0:
440,40,89040,1,0,0:0:0:0:
272,328,89214,1,0,0:0:0:0:
80,96,89389,1,0,0:0:0:0:
448,304,89563,1,0,0:0:0:0:
304,88,89738,2,0,P|256:168|208:216,1,150.000005722046
208,88,90087,2,0,P|256:168|304:216,1,150.000005722046
144,288,90435,1,0,0:0:0:0:
448,48,90610,1,0,0:0:0:0:
416,192,90784,2,0,L|232:224,1,150
240,216,91133,6,0,P|168:208|96:160,1,150.000005722046
200,128,91481,1,0,0:0:0:0:
200,128,91656,1,0,0:0:0:0:
402,63,91831,1,0,0:0:0:0:
460,145,92005,1,0,0:0:0:0:
370,138,92180,1,0,0:0:0:0:
484,63,92354,1,0,0:0:0:0:
287,116,92528,6,0,P|215:109|171:166,1,150.000005722046
297,344,92877,1,0,0:0:0:0:
297,344,93052,1,0,0:0:0:0:
394,50,93226,1,0,0:0:0:0:
136,73,93400,1,0,0:0:0:0:
402,216,93575,1,0,0:0:0:0:
256,38,93749,1,0,0:0:0:0:
181,282,93924,6,0,P|134:225|62:216,1,150.000005722046
86,306,94272,1,0,0:0:0:0:
86,306,94447,1,0,0:0:0:0:
343,145,94621,1,0,0:0:0:0:
260,176,94796,1,0,0:0:0:0:
329,226,94970,1,0,0:0:0:0:
232,254,95145,1,0,0:0:0:0:
391,286,95319,6,0,P|447:237|472:168,1,150.000005722046
285,87,95667,1,0,0:0:0:0:
285,87,95842,1,0,0:0:0:0:
72,216,96017,5,0,0:0:0:0:
384,112,96191,1,0,0:0:0:0:
152,56,96366,1,0,0:0:0:0:
280,136,96714,5,0,0:0:0:0:
184,264,96889,1,0,0:0:0:0:
304,224,97063,1,0,0:0:0:0:
280,56,97238,1,0,0:0:0:0:
232,200,97412,1,0,0:0:0:0:
312,296,97587,1,0,0:0:0:0:
256,128,97761,1,0,0:0:0:0:
328,152,97935,1,0,0:0:0:0:
128,240,98110,5,0,0:0:0:0:
320,72,98284,1,0,0:0:0:0:
256,240,98459,1,0,0:0:0:0:
192,72,98633,1,0,0:0:0:0:
384,240,98807,1,0,0:0:0:0:
256,32,98982,1,0,0:0:0:0:
128,240,99156,1,0,0:0:0:0:
256,32,99331,1,0,0:0:0:0:
256,182,99505,6,0,L|256:32,1,150.000005722046
328,192,99854,2,0,L|488:192,1,150.000005722046
192,192,100203,6,0,L|192:342,1,150.000005722046
190,120,100552,2,0,L|40:120,1,150.000005722046
272,32,100900,5,0,0:0:0:0:
440,72,101075,5,0,0:0:0:0:
440,118,101162,1,0,0:0:0:0:
430,163,101249,1,0,0:0:0:0:
410,205,101336,1,0,0:0:0:0:
380,241,101423,1,0,0:0:0:0:
256,120,101598,5,0,0:0:0:0:
88,152,101773,1,0,0:0:0:0:
97,181,101860,1,0,0:0:0:0:
113,207,101947,1,0,0:0:0:0:
134,229,102034,1,0,0:0:0:0:
160,245,102121,1,0,0:0:0:0:
416,48,102296,6,0,P|328:80|288:168,1,150.000005722046
96,336,102645,2,0,P|184:304|224:216,1,150.000005722046
96,48,102993,2,0,L|208:160,1,150.000005722046
416,336,103342,2,0,L|280:224,1,150.000005722046
296,48,103691,6,0,L|464:48,1,150.000005722046
88,192,104040,2,0,L|256:192,1,150.000005722046
264,336,104389,2,0,L|96:336,1,150.000005722046
472,192,104738,2,0,L|304:192,1,150.000005722046
168,96,105087,6,0,P|216:80|256:96,1,75.0000028610231
432,48,105261,2,0,L|368:112,1,75.0000028610231
288,152,105435,1,0,0:0:0:0:
288,152,105610,1,0,0:0:0:0:
111,351,105784,6,0,L|87:255,1,75.0000028610231
136,120,105959,2,0,L|35:169,1,75.0000028610231
208,240,106133,1,0,0:0:0:0:
208,240,106307,1,0,0:0:0:0:
424,56,106482,6,0,L|320:88,1,75.0000028610231
424,320,106656,2,0,L|392:224,1,75.0000028610231
376,168,106831,1,0,0:0:0:0:
376,168,107005,1,0,0:0:0:0:
104,72,107180,6,0,L|152:144,1,75.0000028610231
88,240,107354,2,0,L|136:312,1,75.0000028610231
192,208,107528,1,0,0:0:0:0:
192,208,107703,1,0,0:0:0:0:
392,64,107877,5,0,0:0:0:0:
184,112,108226,5,0,0:0:0:0:
408,264,108575,5,0,0:0:0:0:
160,296,108924,5,0,0:0:0:0:
184,112,109273,5,0,0:0:0:0:
424,72,109447,5,0,0:0:0:0:
454,139,109534,1,0,0:0:0:0:
441,211,109621,1,0,0:0:0:0:
389,263,109708,1,0,0:0:0:0:
316,275,109795,5,0,0:0:0:0:
249,244,109883,1,0,0:0:0:0:
213,179,109970,1,0,0:0:0:0:
208,104,110057,1,0,0:0:0:0:
268,107,110144,5,0,0:0:0:0:
320,139,110231,1,0,0:0:0:0:
349,193,110318,1,0,0:0:0:0:
348,254,110405,1,0,0:0:0:0:
318,306,110493,1,0,0:0:0:0:
265,338,110580,1,0,0:0:0:0:
205,340,110667,5,0,0:0:0:0:
120,184,110842,1,0,0:0:0:0:
205,340,111017,5,0,0:0:0:0:
120,184,111191,1,0,0:0:0:0:
304,208,111366,5,0,0:0:0:0:
344,64,111541,1,0,0:0:0:0:
304,208,111715,1,0,0:0:0:0:
344,64,111889,1,0,0:0:0:0:
112,128,112063,5,0,0:0:0:0:
248,64,112238,1,0,0:0:0:0:
112,128,112412,1,0,0:0:0:0:
248,64,112587,1,0,0:0:0:0:
456,64,112761,5,0,0:0:0:0:
88,296,112935,1,0,0:0:0:0:
456,64,113110,1,0,0:0:0:0:
88,296,113284,1,0,0:0:0:0:
212,72,113459,5,0,0:0:0:0:
375,148,113633,1,0,0:0:0:0:
299,311,113807,1,0,0:0:0:0:
136,235,113982,1,0,0:0:0:0:
278,66,114156,5,0,0:0:0:0:
381,214,114330,1,0,0:0:0:0:
233,317,114504,1,0,0:0:0:0:
130,169,114679,1,0,0:0:0:0:
337,94,114854,5,0,0:0:0:0:
353,273,115028,1,0,0:0:0:0:
174,289,115202,1,0,0:0:0:0:
158,110,115377,1,0,0:0:0:0:
375,148,115552,5,0,0:0:0:0:
299,311,115726,1,0,0:0:0:0:
136,235,115900,1,0,0:0:0:0:
212,72,116075,1,0,0:0:0:0:
464,80,116249,5,0,0:0:0:0:
392,176,116424,1,0,0:0:0:0:
336,80,116598,1,0,0:0:0:0:
488,176,116773,1,0,0:0:0:0:
296,176,116947,5,0,0:0:0:0:
400,24,117121,1,0,0:0:0:0:
400,272,117296,1,0,0:0:0:0:
464,80,117470,1,0,0:0:0:0:
336,80,117645,5,0,0:0:0:0:
464,224,117819,1,0,0:0:0:0:
336,224,117993,1,0,0:0:0:0:
464,80,118168,1,0,0:0:0:0:
464,224,118342,5,0,0:0:0:0:
160,96,118517,1,0,0:0:0:0:
400,152,118691,5,0,0:0:0:0:
64,320,118866,1,0,0:0:0:0:
384,288,119040,5,0,0:0:0:0:
176,128,119214,1,0,0:0:0:0:
130,264,119389,5,0,0:0:0:0:
304,72,119563,1,0,0:0:0:0:
248,24,119738,5,0,0:0:0:0:
464,288,119912,1,0,0:0:0:0:
472,216,120087,5,0,0:0:0:0:
184,312,120261,1,0,0:0:0:0:
112,80,120435,5,0,0:0:0:0:
312,64,120610,5,0,0:0:0:0:
280,131,120697,1,0,0:0:0:0:
231,188,120784,1,0,0:0:0:0:
169,229,120871,1,0,0:0:0:0:
98,253,120958,1,0,0:0:0:0:
408,40,121133,5,0,0:0:0:0:
376,112,121307,1,0,0:0:0:0:
360,155,121394,1,0,0:0:0:0:
357,201,121481,1,0,0:0:0:0:
366,247,121568,1,0,0:0:0:0:
388,288,121655,1,0,0:0:0:0:
176,40,121831,6,0,L|40:304,1,250
285,60,122180,6,0,L|397:308,1,250
80,56,122528,6,0,P|168:176|128:304,1,250
432,328,122877,6,0,P|344:208|384:80,1,250
272,48,123226,6,0,P|168:152|312:96,1,300.000011444092
240,336,123575,6,0,P|344:232|200:288,1,300.000011444092
496,122,123924,2,0,P|384:226|216:138,1,300.000011444092
16,262,124273,2,0,P|128:158|296:246,1,300.000011444092
120,48,124621,6,0,B|360:48|208:96|456:96,1,300.000011444092
72,341,124970,6,0,B|72:101|120:253|120:5,1,300.000011444092
192,32,125319,6,0,B|192:272|144:120|144:368,1,300.000011444092
436,277,125668,6,0,B|197:276|349:324|144:324,1,300.000011444092
88,128,126017,6,0,P|215:48|252:194,1,350.00000333786
416,260,126366,6,0,P|288:339|252:194,1,350.00000333786
88,128,126714,2,0,L|440:272,1,350.00000333786
488,208,127063,2,0,L|164:75,1,350.00000333786
376,48,127412,5,0,0:0:0:0:
120,248,127587,1,0,0:0:0:0:
168,72,127761,5,0,0:0:0:0:
392,296,127935,1,0,0:0:0:0:
288,64,128110,5,0,0:0:0:0:
144,352,128284,1,0,0:0:0:0:
432,72,128459,5,0,0:0:0:0:
80,216,128633,1,0,0:0:0:0:
160,80,128807,5,0,0:0:0:0:
368,344,128982,1,0,0:0:0:0:
464,48,129156,5,0,0:0:0:0:
56,184,129331,1,0,0:0:0:0:
424,48,129505,5,0,0:0:0:0:
32,368,129680,1,0,0:0:0:0:
192,32,129854,1,0,0:0:0:0:
480,376,130028,1,0,0:0:0:0:
312,104,130203,5,0,0:0:0:0:
200,296,130377,5,0,0:0:0:0:
440,160,130552,5,0,0:0:0:0:
136,192,130726,5,0,0:0:0:0:
248,64,130900,5,0,0:0:0:0:
376,296,131075,5,0,0:0:0:0:
288,176,131249,5,0,0:0:0:0:
392,56,131424,5,0,0:0:0:0:
376,160,131598,2,0,P|344:232|256:256,1,150.000005722046
288,176,131947,1,0,0:0:0:0:
192,56,132296,5,0,0:0:0:0:
400,352,132470,1,0,0:0:0:0:
380,75,132993,6,0,P|361:125|324:157,1,100
253,177,133517,1,0,0:0:0:0:
164,182,133691,2,0,L|149:237,1,50
337,144,134040,1,0,0:0:0:0:
429,136,134214,2,0,P|437:165|428:204,1,50
353,290,134563,1,0,0:0:0:0:
295,222,134738,2,0,P|256:231|195:212,1,100
92,112,135435,6,0,L|79:140,2,25
175,59,135784,2,0,P|206:101|208:162,1,100
196,227,136307,1,0,0:0:0:0:
285,200,136482,2,0,P|321:177|328:164,1,50
261,129,136831,1,0,0:0:0:0:
323,78,137005,2,0,P|351:101|357:124,1,50
378,189,137354,1,0,0:0:0:0:
322,245,137528,2,0,P|359:266|425:256,1,100
59,222,138226,6,0,L|103:172,2,50
147,249,138749,1,0,0:0:0:0:
242,219,138924,1,0,0:0:0:0:
303,140,139098,1,0,0:0:0:0:
316,40,139273,2,0,L|430:57,1,100
434,169,139970,5,0,0:0:0:0:
350,241,140145,1,0,0:0:0:0:
249,197,140319,1,0,0:0:0:0:
151,247,140493,1,0,0:0:0:0:
60,183,140668,2,0,B|76:147|76:147|146:110,1,100
256,166,141366,5,0,0:0:0:0:
353,250,141540,1,0,0:0:0:0:
313,122,141714,5,0,0:0:0:0:
291,265,141889,1,0,0:0:0:0:
163,192,142063,2,0,P|164:231|195:285,1,100
360,40,142761,5,0,0:0:0:0:
200,120,142935,1,0,0:0:0:0:
280,80,143110,1,0,0:0:0:0:
120,160,143284,1,0,0:0:0:0:
256,192,143459,2,0,L|352:184,2,75
277,40,144069,5,0,0:0:0:0:
277,40,144156,2,0,P|251:75|158:130,1,150.000005722046
159,258,144680,1,0,0:0:0:0:
349,183,144854,1,0,0:0:0:0:
283,291,145028,1,0,0:0:0:0:
229,96,145203,2,0,P|188:116|83:97,1,150.000005722046
396,69,145900,5,0,0:0:0:0:
396,69,146074,2,0,P|394:129|368:168,1,75.0000028610231
313,104,146424,1,0,0:0:0:0:
330,248,146598,2,0,P|266:249|174:196,1,150.000005722046
234,64,147121,5,0,0:0:0:0:
421,240,147296,1,0,0:0:0:0:
314,55,147470,5,0,0:0:0:0:
400,325,147645,1,0,0:0:0:0:
151,202,147819,5,0,0:0:0:0:
438,45,147993,1,0,0:0:0:0:
92,151,148168,5,0,0:0:0:0:
487,103,148342,1,0,0:0:0:0:
273,186,148517,1,0,0:0:0:0:
280,208,148691,1,0,0:0:0:0:
288,232,148866,1,0,0:0:0:0:
144,312,149040,5,0,0:0:0:0:
464,184,149214,1,0,0:0:0:0:
144,312,149389,1,0,0:0:0:0:
464,184,149563,1,0,0:0:0:0:
416,160,152528,6,0,L|360:88,1,75.0000028610231
224,32,152877,2,0,L|152:88,1,75.0000028610231
288,272,153226,6,0,L|232:200,1,75.0000028610231
152,176,153575,2,0,L|80:232,1,75.0000028610231
224,32,153924,5,0,0:0:0:0:
407,99,154098,1,0,0:0:0:0:
375,118,154185,1,0,0:0:0:0:
343,138,154272,1,0,0:0:0:0:
311,157,154359,1,0,0:0:0:0:
279,177,154447,1,0,0:0:0:0:
247,196,154534,5,0,0:0:0:0:
227,208,154621,1,0,0:0:0:0:
204,222,154708,1,0,0:0:0:0:
182,236,154795,1,0,0:0:0:0:
160,249,154883,1,0,0:0:0:0:
137,263,154970,1,0,0:0:0:0:
464,192,155319,6,0,L|368:248,1,100
272,176,155668,1,0,0:0:0:0:
208,272,155842,1,0,0:0:0:0:
256,48,156017,2,0,L|160:104,1,100
88,248,156366,1,0,0:0:0:0:
272,176,156540,1,0,0:0:0:0:
432,72,156714,6,0,L|408:192,1,100
336,304,157063,1,0,0:0:0:0:
456,240,157238,1,0,0:0:0:0:
168,248,157412,6,0,L|187:149,1,100
312,40,157761,1,0,0:0:0:0:
456,240,157935,1,0,0:0:0:0:
104,224,158110,6,0,P|152:168|192:136,1,100
208,240,158459,1,0,0:0:0:0:
336,152,158633,1,0,0:0:0:0:
272,72,158807,2,0,P|344:64|400:64,1,100
464,296,159156,1,0,0:0:0:0:
208,240,159331,1,0,0:0:0:0:
392,64,159505,5,0,0:0:0:0:
112,96,159680,1,0,0:0:0:0:
155,113,159767,1,0,0:0:0:0:
198,130,159854,1,0,0:0:0:0:
241,147,159941,1,0,0:0:0:0:
284,165,160028,1,0,0:0:0:0:
64,72,160203,5,0,0:0:0:0:
328,184,160377,1,0,0:0:0:0:
355,196,160464,1,0,0:0:0:0:
382,208,160551,1,0,0:0:0:0:
409,221,160638,1,0,0:0:0:0:
437,233,160726,1,0,0:0:0:0:
64,328,160900,5,0,0:0:0:0:
192,208,161075,1,0,0:0:0:0:
296,320,161249,1,0,0:0:0:0:
80,216,161424,1,0,0:0:0:0:
272,128,161598,1,0,0:0:0:0:
296,232,161773,1,0,0:0:0:0:
112,112,161947,1,0,0:0:0:0:
248,24,162121,1,0,0:0:0:0:
112,112,162296,5,0,0:0:0:0:
296,232,162470,1,0,0:0:0:0:
256,128,162645,1,0,0:0:0:0:
96,232,162819,1,0,0:0:0:0:
272,320,162993,1,0,0:0:0:0:
208,200,163168,1,0,0:0:0:0:
64,336,163342,1,0,0:0:0:0:
384,216,163517,1,0,0:0:0:0:
416,32,163691,6,0,L|352:72,1,50
96,96,163866,2,0,L|144:64,1,50
432,128,164040,6,0,L|368:168,1,50
104,176,164214,2,0,L|152:144,1,50
414,235,164389,6,0,L|456:208,1,50
170,229,164563,2,0,L|128:256,1,50
422,315,164737,6,0,L|464:288,1,50
186,325,164912,2,0,L|144:352,1,50
192,32,165087,6,0,L|224:96,1,50
320,32,165261,2,0,L|288:96,1,50
160,152,165435,6,0,L|192:216,1,50
336,160,165609,2,0,L|304:224,1,50
96,248,165784,6,0,L|128:312,1,50
416,248,165959,2,0,L|384:312,1,50
32,304,166133,6,0,L|64:368,1,50
488,304,166308,2,0,L|456:368,1,50
280,64,166482,5,0,0:0:0:0:
392,168,166831,5,0,0:0:0:0:
136,136,167180,5,0,0:0:0:0:
248,240,167529,5,0,0:0:0:0:
408,64,167877,5,0,0:0:0:0:
400,128,167964,1,0,0:0:0:0:
392,192,168052,1,0,0:0:0:0:
176,112,168226,1,0,0:0:0:0:
176,112,168313,2,0,L|240:144,1,50
73,284,168575,1,0,0:0:0:0:
72,288,168662,1,0,0:0:0:0:
304,176,168837,1,0,0:0:0:0:
304,176,168924,1,0,0:0:0:0:
392,256,169098,5,0,0:0:0:0:
362,271,169185,1,0,0:0:0:0:
333,287,169272,1,0,0:0:0:0:
200,72,169621,1,0,0:0:0:0:
88,184,169970,6,0,P|184:216|272:280,1,200
464,80,170667,6,0,P|432:176|368:264,1,200
112,64,171366,6,0,L|200:288,1,200
400,64,172063,6,0,L|312:288,1,200
112,64,172761,6,0,L|80:304,1,200
400,64,173459,6,0,L|432:304,1,200
112,64,174156,1,0,0:0:0:0:
119,163,174330,1,0,0:0:0:0:
126,263,174504,1,0,0:0:0:0:
320,32,174854,6,0,B|392:336,1,300.000011444092
192,32,175552,6,0,B|120:336,1,300.000011444092
381,24,176249,6,0,B|389:328,1,300.000011444092
131,24,176947,6,0,B|123:328,1,300.000011444092
432,32,177645,6,0,B|389:328,1,300.000011444092
80,32,178342,6,0,B|123:328,1,300.000011444092
320,64,179040,5,0,0:0:0:0:
176,272,179214,2,0,L|256:232,4,75.0000028610231
424,48,179738,1,0,0:0:0:0:
200,120,179912,1,0,0:0:0:0:
228,138,179999,1,0,0:0:0:0:
257,157,180086,1,0,0:0:0:0:
286,176,180173,1,0,0:0:0:0:
315,194,180260,1,0,0:0:0:0:
80,112,180435,5,0,0:0:0:0:
176,80,180784,2,0,P|248:104|264:120,1,100
240,240,181133,1,0,0:0:0:0:
152,256,181482,2,0,P|176:184|192:168,1,100
304,200,181831,1,0,0:0:0:0:
320,288,182180,2,0,P|248:264|232:248,1,100
264,136,182528,1,0,0:0:0:0:
344,120,182877,2,0,P|320:192|304:208,1,100
440,200,183226,1,0,0:0:0:0:
96,56,183575,6,0,L|168:176,1,100
440,200,183924,1,0,0:0:0:0:
64,144,184273,2,0,L|136:264,1,100
440,200,184621,1,0,0:0:0:0:
24,224,184970,2,0,L|96:344,1,100
440,200,185319,1,0,0:0:0:0:
75,309,185493,2,0,L|24:224,1,100
176,96,186017,5,0,0:0:0:0:
296,96,186366,2,0,L|408:80,1,100
176,96,186714,1,0,0:0:0:0:
96,160,186889,1,0,0:0:0:0:
168,240,187063,1,0,0:0:0:0:
248,176,187238,2,0,L|360:160,1,100
320,32,187587,5,0,0:0:0:0:
352,40,187674,1,0,0:0:0:0:
328,64,187761,1,0,0:0:0:0:
176,120,187935,1,0,0:0:0:0:
368,216,188110,5,0,0:0:0:0:
232,320,188284,1,0,0:0:0:0:
344,152,188459,1,0,0:0:0:0:
296,352,188633,1,0,0:0:0:0:
96,152,188807,5,0,0:0:0:0:
256,192,188895,12,0,197877,0:0:0:0:
