osu file format v14

[General]
AudioFilename: audio.mp3
AudioLeadIn: 0
PreviewTime: 29130
Countdown: 0
SampleSet: Normal
StackLeniency: 0.7
Mode: 1
LetterboxInBreaks: 0
WidescreenStoryboard: 1

[Editor]
Bookmarks: 149,3771,11016,14639,25507,29130,42715,54488,58111,71696,79847,87092,94337,107922,108828,111545
DistanceSpacing: 1
BeatDivisor: 4
GridSize: 16
TimelineZoom: 3.499999

[Metadata]
Title:This Little Girl (Nightcore Amen Edit)
TitleUnicode:This Little Girl (Nightcore Amen Edit)
Artist:Gomitaro
ArtistUnicode:ゴミ太郎
Creator:Undead Alice
Version:Inner Oni
Source:
Tags:electronic english Nightcore breakcore speed up pitched hardcore dnb drum and bass & slim-san slim_san slim san Undead_Alice UndeadAlice cady groves
BeatmapID:4466711
BeatmapSetID:2092632

[Difficulty]
HPDrainRate:5.5
CircleSize:4
OverallDifficulty:7
ApproachRate:9
SliderMultiplier:1.4
SliderTickRate:1

[Events]
//Background and Video events
0,0,"F-ye4CQWIAA-7Sb.jpg",0,20
//Break Periods
//Storyboard Layer 0 (Background)
//Storyboard Layer 1 (Fail)
//Storyboard Layer 2 (Pass)
//Storyboard Layer 3 (Foreground)
//Storyboard Layer 4 (Overlay)
//Storyboard Sound Samples

[TimingPoints]
149,226.415094339623,4,1,0,80,1,0
149,-125,4,1,0,80,0,0
3317,-124.87963,4,1,0,80,0,0
3374,-122.95401,4,1,0,80,0,0
3431,-121.086876,4,1,0,80,0,0
3487,-119.30689,4,1,0,80,0,0
3544,-117.548096,4,1,0,80,0,0
3600,-115.86993,4,1,0,80,0,0
3657,-114.2103,4,1,0,80,0,0
3714,-112.597534,4,1,0,80,0,0
3770,-111.05681,4,1,0,100,0,0
9883,-111.12202,4,1,0,100,0,0
9940,-111.74729,4,1,0,100,0,0
9997,-112.37963,4,1,0,100,0,0
10110,-113.654625,4,1,0,100,0,0
10336,-116.2934,4,1,0,100,0,0
10563,-119.07016,4,1,0,100,0,0
10789,-121.96962,4,1,0,100,0,0
10902,-123.47295,4,1,0,100,0,0
11015,-125.0138,4,1,0,85,0,0
14185,-124.965515,4,1,0,85,0,0
14412,-117.60124,4,1,0,85,0,0
14525,-114.24969,4,1,0,85,0,0
14638,-111.08386,4,1,0,100,0,0
23469,-108.108108108108,4,1,0,100,0,0
23696,-105.263157894737,4,1,0,100,0,0
24600,-105.29982,4,1,0,100,0,0
24714,-107.43232,4,1,0,100,0,0
24770,-108.51182,4,1,0,100,0,0
24827,-109.6331,4,1,0,100,0,0
24883,-110.75751,4,1,0,100,0,0
24940,-111.92594,4,1,0,100,0,0
25053,-114.31673,4,1,0,100,0,0
25110,-115.561874,4,1,0,100,0,0
25166,-116.81188,4,1,0,100,0,0
25280,-119.44196,4,1,0,100,0,0
25393,-122.16854,4,1,0,100,0,0
25449,-123.56642,4,1,0,100,0,0
25506,-125.02251,4,1,0,60,0,0
25732,-122.58359,4,1,0,62,0,0
25959,-120.27586,4,1,0,65,0,0
26185,-118.063034,4,1,0,67,0,0
26412,-115.92088,4,1,0,70,0,0
26638,-113.86403,4,1,0,72,0,0
26864,-111.8789,4,1,0,75,0,0
27091,-109.95345,4,1,0,77,0,0
27317,-108.10123,4,1,0,80,0,0
27544,-106.302574,4,1,0,83,0,0
27770,-104.570335,4,1,0,85,0,0
27997,-102.886345,4,1,0,88,0,0
28110,-102.06812,4,1,0,89,0,0
28166,-101.66743,4,1,0,89,0,0
28223,-101.2628,4,1,0,90,0,0
28449,-99.68971,4,1,0,92,0,0
28676,-98.15809,4,1,0,95,0,0
28789,-97.41307,4,1,0,96,0,0
28902,-96.67928,4,1,0,97,0,0
29130,-95.2381,4,1,0,100,0,1
42715,-95.2380952380952,4,1,0,100,0,0
42771,-95.2380952380952,4,1,0,30,0,0
43281,-111.111111111111,4,1,0,80,0,0
43620,-111.111111111111,4,1,0,100,0,0
52450,-108.108108108108,4,1,0,100,0,0
52677,-105.263157894737,4,1,0,100,0,0
53581,-105.330345,4,1,0,100,0,0
53695,-107.46009,4,1,0,100,0,0
53751,-108.53814,4,1,0,100,0,0
53808,-109.65789,4,1,0,100,0,0
53864,-110.780716,4,1,0,100,0,0
53921,-111.94746,4,1,0,100,0,0
54034,-114.33466,4,1,0,100,0,0
54091,-115.57789,4,1,0,100,0,0
54148,-116.84845,4,1,0,100,0,0
54261,-119.45169,4,1,0,100,0,0
54374,-122.17358,4,1,0,100,0,0
54431,-123.59417,4,1,0,100,0,0
54487,-125.02239,4,1,0,60,0,0
54714,-122.57322,4,1,0,63,0,0
54940,-120.27586,4,1,0,65,0,0
55166,-118.063034,4,1,0,67,0,0
55393,-115.92088,4,1,0,70,0,0
55619,-113.86403,4,1,0,72,0,0
55846,-111.87026,4,1,0,75,0,0
56072,-109.95345,4,1,0,77,0,0
56298,-108.10123,4,1,0,80,0,0
56525,-106.302574,4,1,0,83,0,0
56751,-104.570335,4,1,0,85,0,0
56978,-102.886345,4,1,0,88,0,0
57091,-102.06812,4,1,0,89,0,0
57148,-101.6603,4,1,0,89,0,0
57204,-101.2628,4,1,0,90,0,0
57431,-99.68285,4,1,0,93,0,0
57657,-98.15809,4,1,0,95,0,0
57770,-97.41307,4,1,0,96,0,0
57883,-96.67928,4,1,0,97,0,0
58111,-95.2381,4,1,0,100,0,1
71696,-95.2380952380952,4,1,0,100,0,0
71752,-90.9090909090909,4,1,0,30,0,0
72545,-125,4,1,0,80,0,0
78034,-124.9803,4,1,0,80,0,0
78148,-122.77305,4,1,0,80,0,0
78261,-120.66078,4,1,0,80,0,0
78374,-118.61997,4,1,0,80,0,0
78487,-116.64704,4,1,0,80,0,0
78600,-114.73868,4,1,0,80,0,0
78714,-112.875656,4,1,0,80,0,0
78827,-111.07218,4,1,0,80,0,0
78940,-109.34051,4,1,0,80,0,0
78997,-108.48733,4,1,0,80,0,0
79053,-107.662,4,1,0,80,0,0
79110,-106.834724,4,1,0,80,0,0
79166,-106.03425,4,1,0,80,0,0
79223,-105.231705,4,1,0,80,0,0
79280,-104.441216,4,1,0,80,0,0
79393,-102.90871,4,1,0,80,0,0
79449,-102.16578,4,1,0,80,0,0
79506,-101.420525,4,1,0,80,0,0
79563,-100.68606,4,1,0,80,0,0
79619,-99.974754,4,1,0,80,0,0
79847,-100,4,1,0,100,0,0
86185,-100.02208,4,1,0,100,0,0
86298,-102.581894,4,1,0,100,0,0
86355,-103.92348,4,1,0,100,0,0
86412,-105.30063,4,1,0,100,0,0
86468,-106.68963,4,1,0,100,0,0
86525,-108.14158,4,1,0,100,0,0
86638,-111.14007,4,1,0,100,0,0
86751,-114.309586,4,1,0,100,0,0
86808,-115.977974,4,1,0,100,0,0
86864,-117.66519,4,1,0,100,0,0
86978,-121.25622,4,1,0,100,0,0
87091,-125.04311,4,1,0,80,0,0
87544,-127.02417,4,1,0,76,0,0
87997,-129.069,4,1,0,72,0,0
88110,-129.58937,4,1,0,72,0,0
88223,-130.11397,4,1,0,71,0,0
88449,-131.17601,4,1,0,69,0,0
88902,-133.35786,4,1,0,65,0,0
89129,-134.47871,4,1,0,63,0,0
89355,-135.61351,4,1,0,61,0,0
89808,-137.94678,4,1,0,58,0,0
90148,-139.75145,4,1,0,55,0,0
90487,-141.59845,4,1,0,52,0,0
90714,-142.84929,4,1,0,50,0,0
91166,-139.38777,4,1,0,55,0,0
91619,-136.08292,4,1,0,60,0,0
91732,-135.28279,4,1,0,62,0,0
91846,-134.48508,4,1,0,63,0,0
92072,-132.93114,4,1,0,66,0,0
92525,-129.92206,4,1,0,71,0,0
92751,-128.4712,4,1,0,73,0,0
92978,-127.04618,4,1,0,76,0,0
93091,-126.34855,4,1,0,77,0,0
93204,-125.658516,4,1,0,79,0,0
93317,-124.97598,4,1,0,80,0,0
93884,-105.263157894737,4,1,0,70,0,0
94337,-93.0232558139535,4,1,0,100,0,1
107922,-93.0232558139535,4,1,0,100,0,0
107979,-93.0232558139535,4,1,0,70,0,0
108828,-95.2380952380952,4,1,0,100,0,1
111545,-95.2380952380952,4,1,0,100,0,0

[HitObjects]
290,247,149,5,0,0:0:0:0:
335,252,601,1,0,0:0:0:0:
335,243,1054,1,0,0:0:0:0:
335,243,1507,1,0,0:0:0:0:
335,243,1733,1,8,0:0:0:0:
335,243,1960,1,0,0:0:0:0:
316,237,2413,1,0,0:0:0:0:
316,237,2865,1,0,0:0:0:0:
380,264,3318,1,8,0:0:0:0:
380,264,3375,1,8,0:0:0:0:
380,264,3432,1,0,0:0:0:0:
348,309,3488,1,0,0:0:0:0:
380,264,3545,1,8,0:0:0:0:
380,264,3601,1,8,0:0:0:0:
380,264,3658,1,0,0:0:0:0:
254,199,3715,1,0,0:0:0:0:
330,245,3771,1,8,0:0:0:0:
397,312,3884,1,0,0:0:0:0:
397,312,3998,1,8,0:0:0:0:
397,312,4111,1,0,0:0:0:0:
366,277,4224,1,8,0:0:0:0:
366,277,4281,1,8,0:0:0:0:
397,312,4337,1,8,0:0:0:0:
375,265,4450,1,0,0:0:0:0:
366,241,4564,1,8,0:0:0:0:
366,241,4620,1,8,0:0:0:0:
323,202,4677,1,0,0:0:0:0:
279,197,4733,1,0,0:0:0:0:
309,240,4790,1,8,0:0:0:0:
309,240,4903,1,0,0:0:0:0:
309,240,5016,1,8,0:0:0:0:
309,240,5130,1,8,0:0:0:0:
309,240,5243,1,0,0:0:0:0:
309,240,5356,1,8,0:0:0:0:
309,240,5413,1,8,0:0:0:0:
309,240,5469,1,8,0:0:0:0:
309,240,5526,1,8,0:0:0:0:
309,240,5582,1,0,0:0:0:0:
391,305,5696,1,8,0:0:0:0:
391,305,5809,1,0,0:0:0:0:
391,305,5922,1,8,0:0:0:0:
391,305,6035,1,0,0:0:0:0:
247,234,6092,1,0,0:0:0:0:
391,305,6149,1,8,0:0:0:0:
391,305,6262,1,0,0:0:0:0:
391,305,6375,1,0,0:0:0:0:
342,230,6488,1,8,0:0:0:0:
342,230,6715,1,0,0:0:0:0:
376,274,6828,1,0,0:0:0:0:
376,274,6941,1,8,0:0:0:0:
376,274,7054,1,8,0:0:0:0:
376,274,7167,1,0,0:0:0:0:
358,283,7224,1,0,0:0:0:0:
358,283,7281,1,8,0:0:0:0:
358,283,7337,1,8,0:0:0:0:
342,230,7394,1,0,0:0:0:0:
347,232,7620,1,0,0:0:0:0:
347,232,7733,1,8,0:0:0:0:
373,304,7790,1,8,0:0:0:0:
347,232,7847,1,0,0:0:0:0:
347,232,8073,1,0,0:0:0:0:
347,232,8186,1,8,0:0:0:0:
309,257,8243,1,8,0:0:0:0:
373,304,8299,1,0,0:0:0:0:
383,255,8413,1,8,0:0:0:0:
383,255,8526,1,0,0:0:0:0:
383,255,8639,1,8,0:0:0:0:
383,255,8752,1,0,0:0:0:0:
394,312,8865,1,8,0:0:0:0:
391,299,8979,1,0,0:0:0:0:
395,337,9035,1,8,0:0:0:0:
395,337,9092,1,0,0:0:0:0:
391,299,9149,1,8,0:0:0:0:
377,291,9205,1,0,0:0:0:0:
346,264,9318,1,8,0:0:0:0:
346,264,9432,1,0,0:0:0:0:
346,264,9545,1,8,0:0:0:0:
346,264,9658,1,0,0:0:0:0:
346,264,9771,1,8,0:0:0:0:
346,264,9884,1,8,0:0:0:0:
346,264,9941,1,0,0:0:0:0:
346,264,9998,1,8,0:0:0:0:
346,264,10054,1,8,0:0:0:0:
375,251,10111,1,0,0:0:0:0:
375,251,10337,1,0,0:0:0:0:
375,251,10564,1,8,0:0:0:0:
378,276,10790,1,0,0:0:0:0:
358,242,10903,1,0,0:0:0:0:
363,221,11016,1,8,0:0:0:0:
395,309,11130,1,0,0:0:0:0:
340,250,11243,1,8,0:0:0:0:
340,250,11356,1,0,0:0:0:0:
340,250,11469,1,8,0:0:0:0:
365,271,11696,1,0,0:0:0:0:
323,241,11922,1,8,0:0:0:0:
357,278,12035,1,8,0:0:0:0:
357,278,12149,1,0,0:0:0:0:
357,278,12262,1,0,0:0:0:0:
357,278,12375,1,8,0:0:0:0:
371,295,12601,1,0,0:0:0:0:
371,295,12828,1,0,0:0:0:0:
399,320,12941,1,8,0:0:0:0:
399,320,13054,1,0,0:0:0:0:
399,320,13167,1,0,0:0:0:0:
399,320,13281,1,8,0:0:0:0:
399,320,13507,1,0,0:0:0:0:
380,288,13733,1,8,0:0:0:0:
361,303,13847,1,0,0:0:0:0:
361,303,13960,1,8,0:0:0:0:
361,303,14073,1,0,0:0:0:0:
361,303,14186,1,8,0:0:0:0:
381,322,14413,1,0,0:0:0:0:
362,280,14526,1,0,0:0:0:0:
355,262,14639,1,8,0:0:0:0:
342,252,14865,1,8,0:0:0:0:
342,252,14922,1,8,0:0:0:0:
342,252,14979,1,0,0:0:0:0:
342,252,15035,1,0,0:0:0:0:
342,252,15092,1,8,0:0:0:0:
342,252,15205,1,0,0:0:0:0:
342,252,15318,1,8,0:0:0:0:
342,252,15375,1,0,0:0:0:0:
342,252,15432,1,8,0:0:0:0:
342,252,15488,1,8,0:0:0:0:
286,229,15545,1,0,0:0:0:0:
385,320,15658,1,0,0:0:0:0:
365,282,15771,1,8,0:0:0:0:
385,320,15884,1,0,0:0:0:0:
385,320,15941,1,0,0:0:0:0:
385,320,15998,1,0,0:0:0:0:
385,320,16111,1,8,0:0:0:0:
385,320,16224,1,0,0:0:0:0:
385,320,16281,1,0,0:0:0:0:
385,320,16337,1,8,0:0:0:0:
385,320,16394,1,8,0:0:0:0:
374,252,16450,1,0,0:0:0:0:
333,297,16564,1,8,0:0:0:0:
333,297,16677,1,0,0:0:0:0:
351,285,16733,1,0,0:0:0:0:
333,297,16790,1,8,0:0:0:0:
333,297,16903,1,0,0:0:0:0:
333,297,17016,1,0,0:0:0:0:
333,297,17130,1,8,0:0:0:0:
333,297,17243,1,8,0:0:0:0:
350,288,17356,1,0,0:0:0:0:
350,288,17582,1,8,0:0:0:0:
390,333,17696,1,8,0:0:0:0:
388,302,17809,1,0,0:0:0:0:
388,302,17865,1,0,0:0:0:0:
388,302,17922,1,0,0:0:0:0:
388,302,17979,1,0,0:0:0:0:
388,302,18035,1,8,0:0:0:0:
283,225,18149,1,0,0:0:0:0:
362,278,18262,1,8,0:0:0:0:
377,297,18375,1,0,0:0:0:0:
377,297,18432,1,0,0:0:0:0:
377,297,18488,1,8,0:0:0:0:
254,245,18715,1,8,0:0:0:0:
377,297,18828,1,0,0:0:0:0:
377,297,18884,1,0,0:0:0:0:
377,297,18941,1,8,0:0:0:0:
355,242,19167,1,0,0:0:0:0:
357,223,19281,1,8,0:0:0:0:
357,223,19394,1,0,0:0:0:0:
357,223,19507,1,8,0:0:0:0:
357,223,19620,1,0,0:0:0:0:
357,223,19733,1,8,0:0:0:0:
357,223,19847,1,8,0:0:0:0:
347,264,19903,1,8,0:0:0:0:
357,223,19960,1,0,0:0:0:0:
347,264,20016,1,8,0:0:0:0:
364,270,20073,1,0,0:0:0:0:
337,252,20186,1,0,0:0:0:0:
337,252,20299,1,8,0:0:0:0:
337,252,20413,1,0,0:0:0:0:
337,252,20526,1,8,0:0:0:0:
384,266,20582,1,8,0:0:0:0:
337,252,20639,1,0,0:0:0:0:
380,309,20696,1,0,0:0:0:0:
337,252,20752,1,8,0:0:0:0:
380,309,20865,1,0,0:0:0:0:
380,309,20979,1,0,0:0:0:0:
380,309,21092,1,8,0:0:0:0:
380,309,21205,1,8,0:0:0:0:
380,309,21318,1,0,0:0:0:0:
348,250,21432,1,8,0:0:0:0:
348,250,21488,1,8,0:0:0:0:
348,250,21545,1,0,0:0:0:0:
348,250,21658,1,8,0:0:0:0:
348,250,21715,1,8,0:0:0:0:
348,250,21771,1,8,0:0:0:0:
348,250,21884,1,0,0:0:0:0:
324,211,22111,1,8,0:0:0:0:
340,245,22167,1,8,0:0:0:0:
324,211,22224,1,0,0:0:0:0:
340,245,22281,1,0,0:0:0:0:
324,211,22337,1,8,0:0:0:0:
324,211,22450,1,0,0:0:0:0:
324,211,22564,1,8,0:0:0:0:
340,245,22620,1,0,0:0:0:0:
324,211,22677,1,8,0:0:0:0:
340,245,22733,1,8,0:0:0:0:
324,211,22790,1,0,0:0:0:0:
287,244,22903,1,8,0:0:0:0:
287,244,23016,1,8,0:0:0:0:
287,244,23130,1,0,0:0:0:0:
268,260,23186,1,0,0:0:0:0:
287,244,23243,1,12,0:0:0:0:
251,236,23469,1,4,0:0:0:0:
251,236,23696,1,0,0:0:0:0:
328,202,23752,1,0,0:0:0:0:
251,236,23809,1,8,0:0:0:0:
251,236,23922,1,0,0:0:0:0:
328,202,23979,1,0,0:0:0:0:
251,236,24035,1,8,0:0:0:0:
301,223,24092,1,8,0:0:0:0:
251,236,24149,1,0,0:0:0:0:
214,185,24205,1,0,0:0:0:0:
251,236,24262,1,8,0:0:0:0:
251,236,24375,1,0,0:0:0:0:
251,236,24488,1,8,0:0:0:0:
339,227,24545,1,8,0:0:0:0:
251,236,24601,1,0,0:0:0:0:
251,236,24715,1,8,0:0:0:0:
251,236,24771,1,8,0:0:0:0:
249,196,24828,1,0,0:0:0:0:
249,196,24884,1,8,0:0:0:0:
251,236,24941,1,0,0:0:0:0:
251,236,25054,1,8,0:0:0:0:
366,277,25111,1,8,0:0:0:0:
251,236,25167,1,8,0:0:0:0:
251,236,25281,1,0,0:0:0:0:
251,236,25394,1,8,0:0:0:0:
289,232,25450,1,8,0:0:0:0:
251,236,25507,1,0,0:0:0:0:
306,233,25733,1,0,0:0:0:0:
306,233,25960,1,0,0:0:0:0:
306,233,26186,1,0,0:0:0:0:
306,233,26413,1,0,0:0:0:0:
306,233,26639,1,0,0:0:0:0:
306,233,26865,1,0,0:0:0:0:
306,233,27092,1,0,0:0:0:0:
332,237,27318,1,0,0:0:0:0:
337,247,27545,1,0,0:0:0:0:
337,247,27771,1,0,0:0:0:0:
337,247,27998,1,0,0:0:0:0:
254,241,28111,1,8,0:0:0:0:
254,241,28167,1,8,0:0:0:0:
337,247,28224,1,0,0:0:0:0:
337,247,28450,1,0,0:0:0:0:
337,247,28677,1,0,0:0:0:0:
337,247,28790,1,0,0:0:0:0:
337,247,28903,1,12,0:0:0:0:
247,255,29130,1,0,0:0:0:0:
301,240,29186,1,0,0:0:0:0:
247,255,29243,1,8,0:0:0:0:
247,255,29356,1,0,0:0:0:0:
247,255,29469,1,8,0:0:0:0:
366,276,29526,1,0,0:0:0:0:
247,255,29582,1,8,0:0:0:0:
354,283,29639,1,8,0:0:0:0:
247,255,29696,1,0,0:0:0:0:
247,255,29809,1,8,0:0:0:0:
247,255,29922,1,0,0:0:0:0:
361,291,29979,1,8,0:0:0:0:
361,291,30035,1,0,0:0:0:0:
289,226,30092,1,0,0:0:0:0:
247,255,30149,1,8,0:0:0:0:
247,255,30262,1,0,0:0:0:0:
247,255,30375,1,8,0:0:0:0:
305,240,30432,1,8,0:0:0:0:
247,255,30488,1,8,0:0:0:0:
312,235,30545,1,8,0:0:0:0:
247,255,30601,1,0,0:0:0:0:
247,255,30715,1,8,0:0:0:0:
247,255,30828,1,0,0:0:0:0:
296,240,30884,1,0,0:0:0:0:
247,255,30941,1,8,0:0:0:0:
296,240,30998,1,0,0:0:0:0:
247,255,31054,1,8,0:0:0:0:
247,255,31167,1,0,0:0:0:0:
247,255,31394,1,0,0:0:0:0:
247,255,31507,1,8,0:0:0:0:
325,223,31564,1,8,0:0:0:0:
247,255,31620,1,0,0:0:0:0:
325,223,31677,1,8,0:0:0:0:
247,255,31733,1,0,0:0:0:0:
247,255,31847,1,8,0:0:0:0:
247,255,31960,1,0,0:0:0:0:
247,255,32073,1,0,0:0:0:0:
247,255,32186,1,8,0:0:0:0:
364,276,32243,1,8,0:0:0:0:
247,255,32299,1,0,0:0:0:0:
247,255,32413,1,8,0:0:0:0:
247,255,32526,1,0,0:0:0:0:
362,275,32582,1,0,0:0:0:0:
247,255,32639,1,8,0:0:0:0:
247,255,32752,1,0,0:0:0:0:
326,250,32809,1,0,0:0:0:0:
247,255,32865,1,0,0:0:0:0:
247,255,32979,1,8,0:0:0:0:
247,255,33092,1,0,0:0:0:0:
355,257,33149,1,0,0:0:0:0:
247,255,33205,1,8,0:0:0:0:
226,229,33262,1,0,0:0:0:0:
247,255,33318,1,8,0:0:0:0:
247,255,33432,1,0,0:0:0:0:
247,255,33545,1,8,0:0:0:0:
247,255,33601,1,8,0:0:0:0:
344,265,33658,1,0,0:0:0:0:
412,179,33715,1,8,0:0:0:0:
247,255,33771,1,0,0:0:0:0:
247,255,33884,1,8,0:0:0:0:
247,255,33998,1,0,0:0:0:0:
327,244,34054,1,0,0:0:0:0:
247,255,34111,1,0,0:0:0:0:
322,228,34167,1,0,0:0:0:0:
247,255,34224,1,8,0:0:0:0:
247,255,34337,1,0,0:0:0:0:
247,255,34450,1,8,0:0:0:0:
309,253,34507,1,0,0:0:0:0:
329,272,34564,1,8,0:0:0:0:
302,260,34620,1,8,0:0:0:0:
302,260,34677,1,0,0:0:0:0:
281,237,34790,1,8,0:0:0:0:
304,219,35016,1,8,0:0:0:0:
304,219,35130,1,0,0:0:0:0:
304,219,35186,1,8,0:0:0:0:
304,219,35243,1,0,0:0:0:0:
304,219,35299,1,0,0:0:0:0:
304,219,35356,1,8,0:0:0:0:
304,219,35469,1,0,0:0:0:0:
311,244,35582,1,8,0:0:0:0:
311,244,35696,1,8,0:0:0:0:
311,244,35809,1,0,0:0:0:0:
311,244,35922,1,8,0:0:0:0:
377,221,35979,1,0,0:0:0:0:
321,264,36035,1,8,0:0:0:0:
190,208,36092,1,0,0:0:0:0:
268,253,36149,1,8,0:0:0:0:
268,253,36262,1,0,0:0:0:0:
268,253,36375,1,8,0:0:0:0:
351,267,36432,1,8,0:0:0:0:
312,237,36488,1,0,0:0:0:0:
375,278,36545,1,0,0:0:0:0:
312,237,36601,1,8,0:0:0:0:
312,237,36715,1,0,0:0:0:0:
355,251,36771,1,0,0:0:0:0:
312,237,36828,1,8,0:0:0:0:
355,251,36884,1,8,0:0:0:0:
312,237,36941,1,0,0:0:0:0:
312,237,37054,1,8,0:0:0:0:
375,278,37111,1,8,0:0:0:0:
312,237,37167,1,8,0:0:0:0:
350,262,37224,1,8,0:0:0:0:
312,237,37281,1,0,0:0:0:0:
364,236,37507,1,0,0:0:0:0:
312,237,37620,1,8,0:0:0:0:
312,237,37733,1,0,0:0:0:0:
364,297,37790,1,0,0:0:0:0:
312,237,37847,1,8,0:0:0:0:
312,237,37960,1,0,0:0:0:0:
364,297,38073,1,8,0:0:0:0:
312,237,38186,1,0,0:0:0:0:
317,256,38243,1,0,0:0:0:0:
317,256,38299,1,8,0:0:0:0:
317,256,38356,1,8,0:0:0:0:
317,256,38413,1,0,0:0:0:0:
317,256,38526,1,8,0:0:0:0:
317,256,38582,1,8,0:0:0:0:
317,256,38639,1,0,0:0:0:0:
317,256,38696,1,0,0:0:0:0:
317,256,38752,1,8,0:0:0:0:
292,197,38865,1,0,0:0:0:0:
292,197,38922,1,0,0:0:0:0:
292,197,38979,1,0,0:0:0:0:
292,197,39035,1,0,0:0:0:0:
292,197,39092,1,8,0:0:0:0:
292,197,39205,1,0,0:0:0:0:
324,249,39318,1,8,0:0:0:0:
354,263,39432,1,0,0:0:0:0:
324,249,39545,1,8,0:0:0:0:
324,249,39658,1,0,0:0:0:0:
311,248,39771,1,8,0:0:0:0:
371,252,39998,1,8,0:0:0:0:
325,254,40054,1,8,0:0:0:0:
325,254,40111,1,8,0:0:0:0:
339,266,40224,1,0,0:0:0:0:
284,227,40337,1,8,0:0:0:0:
284,227,40394,1,8,0:0:0:0:
284,227,40450,1,8,0:0:0:0:
339,229,40507,1,8,0:0:0:0:
284,227,40564,1,0,0:0:0:0:
284,227,40677,1,8,0:0:0:0:
284,227,40790,1,0,0:0:0:0:
284,227,40847,1,0,0:0:0:0:
284,227,40903,1,0,0:0:0:0:
176,223,40960,1,0,0:0:0:0:
284,227,41016,1,8,0:0:0:0:
175,168,41130,1,0,0:0:0:0:
284,227,41243,1,8,0:0:0:0:
284,227,41299,1,8,0:0:0:0:
284,227,41356,1,0,0:0:0:0:
284,227,41413,1,0,0:0:0:0:
284,227,41469,1,8,0:0:0:0:
284,227,41582,1,0,0:0:0:0:
348,252,41696,1,8,0:0:0:0:
310,235,41752,1,8,0:0:0:0:
348,252,41809,1,0,0:0:0:0:
318,261,41865,1,0,0:0:0:0:
318,261,41922,1,0,0:0:0:0:
318,261,42035,1,8,0:0:0:0:
355,256,42262,1,0,0:0:0:0:
318,261,42375,1,8,0:0:0:0:
355,256,42488,1,0,0:0:0:0:
355,256,42545,1,0,0:0:0:0:
355,256,42601,1,8,0:0:0:0:
307,235,42658,1,8,0:0:0:0:
355,256,42715,1,8,0:0:0:0:
369,296,43281,1,0,0:0:0:0:
331,222,43394,1,8,0:0:0:0:
331,222,43507,1,0,0:0:0:0:
355,262,43620,1,8,0:0:0:0:
342,252,43733,1,0,0:0:0:0:
342,252,43847,1,8,0:0:0:0:
342,252,43903,1,8,0:0:0:0:
342,252,43960,1,0,0:0:0:0:
342,252,44016,1,8,0:0:0:0:
342,252,44073,1,0,0:0:0:0:
342,252,44186,1,8,0:0:0:0:
342,252,44299,1,0,0:0:0:0:
342,252,44356,1,0,0:0:0:0:
342,252,44413,1,8,0:0:0:0:
342,252,44469,1,8,0:0:0:0:
286,229,44526,1,0,0:0:0:0:
385,320,44639,1,0,0:0:0:0:
365,282,44752,1,8,0:0:0:0:
385,320,44865,1,0,0:0:0:0:
385,320,44922,1,0,0:0:0:0:
385,320,44979,1,8,0:0:0:0:
385,320,45092,1,0,0:0:0:0:
385,320,45205,1,8,0:0:0:0:
385,320,45262,1,0,0:0:0:0:
385,320,45318,1,8,0:0:0:0:
385,320,45375,1,8,0:0:0:0:
333,297,45432,1,0,0:0:0:0:
374,252,45545,1,8,0:0:0:0:
333,297,45658,1,8,0:0:0:0:
333,297,45771,1,0,0:0:0:0:
326,227,45828,1,0,0:0:0:0:
333,297,45884,1,8,0:0:0:0:
333,297,45998,1,8,0:0:0:0:
333,297,46111,1,0,0:0:0:0:
372,266,46167,1,0,0:0:0:0:
333,297,46224,1,8,0:0:0:0:
350,288,46281,1,8,0:0:0:0:
207,158,46337,1,0,0:0:0:0:
337,203,46450,1,8,0:0:0:0:
229,215,46507,1,8,0:0:0:0:
295,213,46564,1,0,0:0:0:0:
390,333,46677,1,8,0:0:0:0:
388,302,46790,1,0,0:0:0:0:
388,302,46903,1,0,0:0:0:0:
388,302,47016,1,8,0:0:0:0:
388,302,47073,1,8,0:0:0:0:
283,225,47130,1,0,0:0:0:0:
362,278,47243,1,8,0:0:0:0:
377,297,47469,1,8,0:0:0:0:
377,297,47526,1,8,0:0:0:0:
254,245,47582,1,0,0:0:0:0:
377,297,47696,1,8,0:0:0:0:
377,297,47922,1,8,0:0:0:0:
379,269,47979,1,8,0:0:0:0:
368,271,48035,1,8,0:0:0:0:
267,234,48092,1,8,0:0:0:0:
355,242,48149,1,0,0:0:0:0:
357,223,48262,1,8,0:0:0:0:
357,223,48375,1,0,0:0:0:0:
357,223,48488,1,8,0:0:0:0:
357,223,48601,1,0,0:0:0:0:
357,223,48715,1,8,0:0:0:0:
357,223,48828,1,0,0:0:0:0:
347,264,48884,1,8,0:0:0:0:
357,223,48941,1,0,0:0:0:0:
347,264,49054,1,8,0:0:0:0:
337,252,49167,1,0,0:0:0:0:
317,218,49224,1,0,0:0:0:0:
337,252,49281,1,8,0:0:0:0:
337,252,49394,1,0,0:0:0:0:
337,252,49507,1,8,0:0:0:0:
337,252,49620,1,8,0:0:0:0:
337,252,49733,1,0,0:0:0:0:
271,193,49790,1,0,0:0:0:0:
380,309,49847,1,0,0:0:0:0:
271,193,49903,1,0,0:0:0:0:
380,309,49960,1,8,0:0:0:0:
380,309,50073,1,0,0:0:0:0:
321,224,50130,1,0,0:0:0:0:
380,309,50186,1,8,0:0:0:0:
380,309,50299,1,0,0:0:0:0:
348,250,50413,1,8,0:0:0:0:
348,250,50469,1,8,0:0:0:0:
348,250,50526,1,0,0:0:0:0:
327,249,50582,1,0,0:0:0:0:
348,250,50639,1,8,0:0:0:0:
348,250,50696,1,8,0:0:0:0:
348,250,50752,1,0,0:0:0:0:
372,257,50809,1,0,0:0:0:0:
348,250,50865,1,8,0:0:0:0:
324,211,51092,1,8,0:0:0:0:
340,245,51149,1,8,0:0:0:0:
324,211,51205,1,0,0:0:0:0:
340,245,51262,1,0,0:0:0:0:
324,211,51318,1,8,0:0:0:0:
324,211,51432,1,0,0:0:0:0:
324,211,51545,1,8,0:0:0:0:
340,245,51601,1,0,0:0:0:0:
324,211,51658,1,8,0:0:0:0:
340,245,51715,1,8,0:0:0:0:
324,211,51771,1,0,0:0:0:0:
287,244,51884,1,8,0:0:0:0:
287,244,51998,1,8,0:0:0:0:
287,244,52111,1,0,0:0:0:0:
268,260,52167,1,0,0:0:0:0:
287,244,52224,1,12,0:0:0:0:
251,236,52450,1,4,0:0:0:0:
251,236,52677,1,0,0:0:0:0:
328,202,52733,1,0,0:0:0:0:
251,236,52790,1,8,0:0:0:0:
251,236,52903,1,0,0:0:0:0:
328,202,52960,1,0,0:0:0:0:
251,236,53016,1,8,0:0:0:0:
301,223,53073,1,8,0:0:0:0:
251,236,53130,1,0,0:0:0:0:
343,288,53186,1,0,0:0:0:0:
251,236,53243,1,8,0:0:0:0:
251,236,53356,1,0,0:0:0:0:
251,236,53469,1,8,0:0:0:0:
339,227,53526,1,8,0:0:0:0:
251,236,53582,1,0,0:0:0:0:
251,236,53696,1,8,0:0:0:0:
251,236,53752,1,8,0:0:0:0:
249,196,53809,1,0,0:0:0:0:
249,196,53865,1,8,0:0:0:0:
251,236,53922,1,0,0:0:0:0:
251,236,54035,1,8,0:0:0:0:
366,277,54092,1,8,0:0:0:0:
251,236,54149,1,8,0:0:0:0:
251,236,54262,1,0,0:0:0:0:
251,236,54375,1,8,0:0:0:0:
289,232,54432,1,8,0:0:0:0:
251,236,54488,1,0,0:0:0:0:
252,232,54715,1,0,0:0:0:0:
252,232,54941,1,0,0:0:0:0:
252,232,55167,1,0,0:0:0:0:
252,232,55394,1,0,0:0:0:0:
252,232,55620,1,0,0:0:0:0:
252,232,55847,1,0,0:0:0:0:
252,232,56073,1,0,0:0:0:0:
252,232,56299,1,0,0:0:0:0:
252,232,56526,1,0,0:0:0:0:
252,232,56752,1,0,0:0:0:0:
252,232,56979,1,0,0:0:0:0:
312,198,57092,1,8,0:0:0:0:
312,198,57149,1,8,0:0:0:0:
252,232,57205,1,0,0:0:0:0:
252,232,57432,1,0,0:0:0:0:
252,232,57658,1,0,0:0:0:0:
300,221,57771,1,0,0:0:0:0:
252,232,57884,1,12,0:0:0:0:
247,255,58111,1,0,0:0:0:0:
301,240,58167,1,0,0:0:0:0:
247,255,58224,1,8,0:0:0:0:
247,255,58337,1,0,0:0:0:0:
247,255,58450,1,8,0:0:0:0:
366,276,58507,1,0,0:0:0:0:
247,255,58564,1,8,0:0:0:0:
354,283,58620,1,8,0:0:0:0:
247,255,58677,1,0,0:0:0:0:
247,255,58790,1,8,0:0:0:0:
247,255,58903,1,0,0:0:0:0:
361,291,58960,1,8,0:0:0:0:
361,291,59016,1,0,0:0:0:0:
289,226,59073,1,0,0:0:0:0:
247,255,59130,1,8,0:0:0:0:
247,255,59243,1,0,0:0:0:0:
247,255,59356,1,8,0:0:0:0:
305,240,59413,1,8,0:0:0:0:
247,255,59469,1,8,0:0:0:0:
312,235,59526,1,8,0:0:0:0:
247,255,59582,1,0,0:0:0:0:
247,255,59696,1,8,0:0:0:0:
247,255,59809,1,0,0:0:0:0:
296,240,59865,1,0,0:0:0:0:
247,255,59922,1,8,0:0:0:0:
296,240,59979,1,0,0:0:0:0:
247,255,60035,1,8,0:0:0:0:
247,255,60149,1,0,0:0:0:0:
247,255,60375,1,0,0:0:0:0:
247,255,60488,1,8,0:0:0:0:
325,223,60545,1,8,0:0:0:0:
247,255,60601,1,0,0:0:0:0:
325,223,60658,1,8,0:0:0:0:
247,255,60715,1,0,0:0:0:0:
247,255,60828,1,8,0:0:0:0:
247,255,60941,1,0,0:0:0:0:
247,255,61054,1,0,0:0:0:0:
247,255,61167,1,8,0:0:0:0:
364,276,61224,1,8,0:0:0:0:
247,255,61281,1,0,0:0:0:0:
247,255,61394,1,8,0:0:0:0:
247,255,61507,1,0,0:0:0:0:
362,275,61564,1,0,0:0:0:0:
247,255,61620,1,8,0:0:0:0:
247,255,61733,1,0,0:0:0:0:
326,250,61790,1,0,0:0:0:0:
247,255,61847,1,0,0:0:0:0:
247,255,61960,1,8,0:0:0:0:
247,255,62073,1,0,0:0:0:0:
355,257,62130,1,0,0:0:0:0:
247,255,62186,1,8,0:0:0:0:
226,229,62243,1,0,0:0:0:0:
247,255,62299,1,8,0:0:0:0:
247,255,62413,1,0,0:0:0:0:
247,255,62526,1,8,0:0:0:0:
247,255,62582,1,8,0:0:0:0:
344,265,62639,1,0,0:0:0:0:
412,179,62696,1,8,0:0:0:0:
247,255,62752,1,0,0:0:0:0:
247,255,62865,1,8,0:0:0:0:
247,255,62979,1,0,0:0:0:0:
327,244,63035,1,0,0:0:0:0:
247,255,63092,1,0,0:0:0:0:
322,228,63149,1,0,0:0:0:0:
247,255,63205,1,8,0:0:0:0:
247,255,63318,1,0,0:0:0:0:
247,255,63432,1,8,0:0:0:0:
309,253,63488,1,0,0:0:0:0:
329,272,63545,1,8,0:0:0:0:
302,260,63601,1,8,0:0:0:0:
302,260,63658,1,0,0:0:0:0:
281,237,63771,1,8,0:0:0:0:
304,219,63998,1,8,0:0:0:0:
304,219,64111,1,0,0:0:0:0:
304,219,64167,1,8,0:0:0:0:
304,219,64224,1,0,0:0:0:0:
304,219,64281,1,0,0:0:0:0:
304,219,64337,1,8,0:0:0:0:
304,219,64450,1,0,0:0:0:0:
311,244,64564,1,8,0:0:0:0:
311,244,64677,1,8,0:0:0:0:
311,244,64790,1,0,0:0:0:0:
311,244,64903,1,8,0:0:0:0:
377,221,64960,1,0,0:0:0:0:
321,264,65016,1,8,0:0:0:0:
190,208,65073,1,0,0:0:0:0:
268,253,65130,1,8,0:0:0:0:
268,253,65243,1,0,0:0:0:0:
268,253,65356,1,8,0:0:0:0:
351,267,65413,1,8,0:0:0:0:
312,237,65469,1,0,0:0:0:0:
375,278,65526,1,0,0:0:0:0:
312,237,65582,1,8,0:0:0:0:
312,237,65696,1,0,0:0:0:0:
355,251,65752,1,0,0:0:0:0:
312,237,65809,1,8,0:0:0:0:
355,251,65865,1,8,0:0:0:0:
312,237,65922,1,0,0:0:0:0:
312,237,66035,1,8,0:0:0:0:
375,278,66092,1,8,0:0:0:0:
312,237,66149,1,8,0:0:0:0:
350,262,66205,1,8,0:0:0:0:
312,237,66262,1,0,0:0:0:0:
364,236,66488,1,0,0:0:0:0:
312,237,66601,1,8,0:0:0:0:
312,237,66715,1,0,0:0:0:0:
364,297,66771,1,0,0:0:0:0:
312,237,66828,1,8,0:0:0:0:
312,237,66941,1,0,0:0:0:0:
364,297,67054,1,8,0:0:0:0:
312,237,67167,1,0,0:0:0:0:
317,256,67224,1,0,0:0:0:0:
317,256,67281,1,8,0:0:0:0:
317,256,67337,1,8,0:0:0:0:
317,256,67394,1,0,0:0:0:0:
317,256,67507,1,8,0:0:0:0:
317,256,67564,1,8,0:0:0:0:
317,256,67620,1,0,0:0:0:0:
317,256,67677,1,0,0:0:0:0:
317,256,67733,1,8,0:0:0:0:
292,197,67847,1,0,0:0:0:0:
292,197,67903,1,0,0:0:0:0:
292,197,67960,1,0,0:0:0:0:
292,197,68016,1,0,0:0:0:0:
292,197,68073,1,8,0:0:0:0:
292,197,68186,1,0,0:0:0:0:
324,249,68299,1,8,0:0:0:0:
354,263,68413,1,0,0:0:0:0:
324,249,68526,1,8,0:0:0:0:
324,249,68639,1,0,0:0:0:0:
311,248,68752,1,8,0:0:0:0:
371,252,68979,1,8,0:0:0:0:
325,254,69035,1,8,0:0:0:0:
325,254,69092,1,8,0:0:0:0:
339,266,69205,1,0,0:0:0:0:
284,227,69318,1,8,0:0:0:0:
284,227,69375,1,8,0:0:0:0:
284,227,69432,1,8,0:0:0:0:
339,229,69488,1,8,0:0:0:0:
284,227,69545,1,0,0:0:0:0:
284,227,69658,1,8,0:0:0:0:
284,227,69771,1,0,0:0:0:0:
284,227,69828,1,0,0:0:0:0:
284,227,69884,1,0,0:0:0:0:
176,223,69941,1,0,0:0:0:0:
284,227,69998,1,8,0:0:0:0:
175,168,70111,1,0,0:0:0:0:
284,227,70224,1,8,0:0:0:0:
284,227,70281,1,8,0:0:0:0:
284,227,70337,1,0,0:0:0:0:
284,227,70394,1,0,0:0:0:0:
284,227,70450,1,8,0:0:0:0:
284,227,70564,1,0,0:0:0:0:
348,252,70677,1,8,0:0:0:0:
310,235,70733,1,8,0:0:0:0:
348,252,70790,1,0,0:0:0:0:
318,261,70847,1,0,0:0:0:0:
318,261,70903,1,0,0:0:0:0:
318,261,71016,1,8,0:0:0:0:
355,256,71243,1,0,0:0:0:0:
318,261,71356,1,8,0:0:0:0:
307,235,71469,1,0,0:0:0:0:
355,256,71526,1,0,0:0:0:0:
355,256,71582,1,8,0:0:0:0:
355,256,71639,1,8,0:0:0:0:
355,256,71696,1,8,0:0:0:0:
324,228,72601,5,8,0:0:0:0:
284,244,72715,1,8,0:0:0:0:
284,244,72828,1,0,0:0:0:0:
284,244,72941,1,0,0:0:0:0:
284,244,73054,1,8,0:0:0:0:
284,244,73167,1,0,0:0:0:0:
284,244,73281,1,8,0:0:0:0:
284,244,73394,1,0,0:0:0:0:
284,244,73507,1,8,0:0:0:0:
284,244,73620,1,8,0:0:0:0:
284,244,73733,1,0,0:0:0:0:
284,244,73847,1,0,0:0:0:0:
284,244,73960,1,8,0:0:0:0:
284,244,74073,1,0,0:0:0:0:
284,244,74186,1,8,0:0:0:0:
284,244,74299,1,0,0:0:0:0:
205,218,74356,1,0,0:0:0:0:
284,244,74413,1,8,0:0:0:0:
284,244,74526,1,0,0:0:0:0:
240,232,74582,1,0,0:0:0:0:
284,244,74639,1,8,0:0:0:0:
284,244,74752,1,0,0:0:0:0:
284,244,74865,1,8,0:0:0:0:
284,244,74979,1,8,0:0:0:0:
284,244,75092,1,0,0:0:0:0:
284,244,75205,1,0,0:0:0:0:
284,244,75318,1,8,0:0:0:0:
308,211,75375,1,8,0:0:0:0:
284,244,75432,1,0,0:0:0:0:
284,244,75545,1,0,0:0:0:0:
284,244,75658,1,8,0:0:0:0:
337,243,75715,1,8,0:0:0:0:
284,244,75771,1,0,0:0:0:0:
284,244,75884,1,0,0:0:0:0:
284,244,75998,1,8,0:0:0:0:
337,243,76054,1,8,0:0:0:0:
284,244,76111,1,0,0:0:0:0:
284,244,76224,1,8,0:0:0:0:
305,255,76337,1,0,0:0:0:0:
305,255,76450,1,8,0:0:0:0:
305,255,76564,1,0,0:0:0:0:
305,255,76677,1,8,0:0:0:0:
305,255,76790,1,8,0:0:0:0:
305,255,76903,1,0,0:0:0:0:
305,255,77016,1,0,0:0:0:0:
305,255,77130,1,8,0:0:0:0:
305,255,77243,1,0,0:0:0:0:
305,255,77356,1,8,0:0:0:0:
305,255,77469,1,0,0:0:0:0:
305,255,77582,1,8,0:0:0:0:
305,255,77696,1,8,0:0:0:0:
305,255,77809,1,0,0:0:0:0:
305,255,77922,1,0,0:0:0:0:
305,255,78035,1,8,0:0:0:0:
346,252,78149,1,0,0:0:0:0:
346,252,78262,1,8,0:0:0:0:
346,252,78375,1,0,0:0:0:0:
346,252,78488,1,8,0:0:0:0:
346,252,78601,1,0,0:0:0:0:
346,252,78715,1,8,0:0:0:0:
346,252,78828,1,0,0:0:0:0:
346,252,78941,1,8,0:0:0:0:
346,252,78998,1,8,0:0:0:0:
346,252,79054,1,0,0:0:0:0:
346,252,79111,1,0,0:0:0:0:
346,252,79167,1,8,0:0:0:0:
346,252,79224,1,8,0:0:0:0:
346,252,79281,1,0,0:0:0:0:
346,252,79394,1,8,0:0:0:0:
346,252,79450,1,8,0:0:0:0:
346,252,79507,1,0,0:0:0:0:
346,252,79564,1,0,0:0:0:0:
346,252,79620,1,12,0:0:0:0:
315,236,79847,1,8,0:0:0:0:
315,236,79960,1,0,0:0:0:0:
315,236,80073,1,8,0:0:0:0:
335,258,80130,1,8,0:0:0:0:
315,236,80186,1,8,0:0:0:0:
345,197,80243,1,8,0:0:0:0:
315,236,80299,1,0,0:0:0:0:
315,236,80413,1,8,0:0:0:0:
315,236,80526,1,0,0:0:0:0:
334,269,80582,1,0,0:0:0:0:
315,236,80639,1,8,0:0:0:0:
334,269,80696,1,8,0:0:0:0:
315,236,80752,1,0,0:0:0:0:
306,261,80865,1,8,0:0:0:0:
306,261,80979,1,0,0:0:0:0:
306,261,81092,1,8,0:0:0:0:
306,261,81205,1,0,0:0:0:0:
393,342,81318,1,8,0:0:0:0:
327,256,81375,1,8,0:0:0:0:
306,261,81432,1,8,0:0:0:0:
345,269,81545,1,0,0:0:0:0:
306,261,81658,1,8,0:0:0:0:
306,261,81771,1,0,0:0:0:0:
345,269,81828,1,0,0:0:0:0:
306,261,81884,1,8,0:0:0:0:
286,263,81941,1,8,0:0:0:0:
306,261,81998,1,0,0:0:0:0:
306,261,82111,1,8,0:0:0:0:
286,256,82224,1,0,0:0:0:0:
327,256,82281,1,0,0:0:0:0:
283,254,82337,1,0,0:0:0:0:
327,256,82394,1,0,0:0:0:0:
244,232,82450,1,8,0:0:0:0:
244,232,82564,1,8,0:0:0:0:
244,232,82677,1,0,0:0:0:0:
327,256,82733,1,0,0:0:0:0:
244,232,82790,1,8,0:0:0:0:
244,232,82903,1,0,0:0:0:0:
244,232,83016,1,8,0:0:0:0:
244,232,83130,1,0,0:0:0:0:
195,203,83186,1,0,0:0:0:0:
244,232,83243,1,8,0:0:0:0:
341,243,83299,1,8,0:0:0:0:
244,232,83356,1,0,0:0:0:0:
341,243,83413,1,0,0:0:0:0:
244,232,83469,1,8,0:0:0:0:
244,232,83696,1,8,0:0:0:0:
244,232,83809,1,0,0:0:0:0:
244,232,83922,1,8,0:0:0:0:
358,280,83979,1,0,0:0:0:0:
244,232,84035,1,8,0:0:0:0:
358,280,84092,1,8,0:0:0:0:
244,232,84149,1,0,0:0:0:0:
244,232,84262,1,8,0:0:0:0:
244,232,84375,1,0,0:0:0:0:
348,269,84432,1,0,0:0:0:0:
244,232,84488,1,8,0:0:0:0:
388,298,84545,1,0,0:0:0:0:
244,232,84601,1,8,0:0:0:0:
244,232,84715,1,0,0:0:0:0:
244,232,84828,1,8,0:0:0:0:
244,232,84941,1,8,0:0:0:0:
244,232,85054,1,0,0:0:0:0:
316,228,85111,1,0,0:0:0:0:
244,232,85167,1,8,0:0:0:0:
379,283,85224,1,8,0:0:0:0:
244,232,85281,1,0,0:0:0:0:
244,232,85394,1,8,0:0:0:0:
244,232,85507,1,0,0:0:0:0:
377,275,85564,1,8,0:0:0:0:
244,232,85620,1,0,0:0:0:0:
244,232,85733,1,8,0:0:0:0:
244,232,85847,1,0,0:0:0:0:
386,289,85903,1,0,0:0:0:0:
244,232,85960,1,8,0:0:0:0:
386,289,86016,1,0,0:0:0:0:
244,232,86073,1,8,0:0:0:0:
244,232,86186,1,0,0:0:0:0:
244,232,86299,1,8,0:0:0:0:
383,290,86356,1,8,0:0:0:0:
244,232,86413,1,8,0:0:0:0:
383,290,86469,1,8,0:0:0:0:
244,232,86526,1,0,0:0:0:0:
244,232,86639,1,0,0:0:0:0:
244,232,86752,1,8,0:0:0:0:
386,297,86809,1,8,0:0:0:0:
244,232,86865,1,0,0:0:0:0:
244,232,86979,1,8,0:0:0:0:
301,231,87092,1,0,0:0:0:0:
351,245,87545,1,8,0:0:0:0:
346,260,87998,1,0,0:0:0:0:
346,260,88111,1,8,0:0:0:0:
346,260,88224,1,0,0:0:0:0:
344,240,88450,1,8,0:0:0:0:
344,240,88903,1,0,0:0:0:0:
328,253,89130,1,0,0:0:0:0:
350,238,89356,1,8,0:0:0:0:
364,256,89809,1,8,0:0:0:0:
364,256,90149,1,8,0:0:0:0:
364,256,90488,1,8,0:0:0:0:
364,256,90715,1,0,0:0:0:0:
363,270,91167,1,8,0:0:0:0:
346,263,91620,1,0,0:0:0:0:
346,263,91733,1,8,0:0:0:0:
346,263,91847,1,0,0:0:0:0:
346,263,92073,1,8,0:0:0:0:
367,276,92526,1,0,0:0:0:0:
367,276,92752,1,0,0:0:0:0:
384,296,92979,1,8,0:0:0:0:
251,233,93092,1,0,0:0:0:0:
387,307,93205,1,0,0:0:0:0:
268,222,93318,1,8,0:0:0:0:
203,138,93884,2,0,L|262:172,1,66.4999982242585
247,255,94337,1,0,0:0:0:0:
301,240,94394,1,0,0:0:0:0:
247,255,94450,1,8,0:0:0:0:
397,216,94507,1,8,0:0:0:0:
247,255,94564,1,0,0:0:0:0:
247,255,94677,1,8,0:0:0:0:
366,276,94733,1,8,0:0:0:0:
247,255,94790,1,8,0:0:0:0:
354,283,94847,1,8,0:0:0:0:
247,255,94903,1,0,0:0:0:0:
247,255,95016,1,8,0:0:0:0:
247,255,95130,1,0,0:0:0:0:
361,291,95186,1,0,0:0:0:0:
361,291,95243,1,0,0:0:0:0:
289,226,95299,1,0,0:0:0:0:
247,255,95356,1,8,0:0:0:0:
247,255,95469,1,0,0:0:0:0:
247,255,95582,1,8,0:0:0:0:
305,240,95639,1,8,0:0:0:0:
247,255,95696,1,0,0:0:0:0:
312,235,95752,1,0,0:0:0:0:
247,255,95809,1,8,0:0:0:0:
247,255,95922,1,0,0:0:0:0:
247,255,96035,1,8,0:0:0:0:
296,240,96092,1,8,0:0:0:0:
247,255,96149,1,0,0:0:0:0:
296,240,96205,1,8,0:0:0:0:
247,255,96262,1,0,0:0:0:0:
83,372,96318,1,0,0:0:0:0:
247,255,96375,1,8,0:0:0:0:
247,255,96488,1,0,0:0:0:0:
247,255,96601,1,8,0:0:0:0:
247,255,96715,1,0,0:0:0:0:
325,223,96771,1,0,0:0:0:0:
247,255,96828,1,8,0:0:0:0:
325,223,96884,1,0,0:0:0:0:
247,255,96941,1,8,0:0:0:0:
348,259,96998,1,8,0:0:0:0:
247,255,97054,1,0,0:0:0:0:
247,255,97167,1,8,0:0:0:0:
247,255,97281,1,0,0:0:0:0:
247,255,97394,1,8,0:0:0:0:
364,276,97450,1,8,0:0:0:0:
247,255,97507,1,0,0:0:0:0:
247,255,97620,1,8,0:0:0:0:
247,255,97733,1,0,0:0:0:0:
362,275,97790,1,0,0:0:0:0:
247,255,97847,1,8,0:0:0:0:
247,255,97960,1,0,0:0:0:0:
326,250,98016,1,0,0:0:0:0:
247,255,98073,1,8,0:0:0:0:
426,204,98130,1,8,0:0:0:0:
247,255,98186,1,0,0:0:0:0:
247,255,98299,1,8,0:0:0:0:
355,257,98356,1,8,0:0:0:0:
247,255,98413,1,8,0:0:0:0:
247,255,98469,1,8,0:0:0:0:
226,229,98526,1,0,0:0:0:0:
247,255,98639,1,8,0:0:0:0:
247,255,98752,1,0,0:0:0:0:
247,255,98809,1,0,0:0:0:0:
344,265,98865,1,0,0:0:0:0:
412,179,98922,1,0,0:0:0:0:
247,255,98979,1,8,0:0:0:0:
247,255,99092,1,0,0:0:0:0:
247,255,99205,1,8,0:0:0:0:
327,244,99262,1,8,0:0:0:0:
247,255,99318,1,0,0:0:0:0:
322,228,99375,1,0,0:0:0:0:
247,255,99432,1,8,0:0:0:0:
247,255,99545,1,0,0:0:0:0:
247,255,99658,1,8,0:0:0:0:
309,253,99715,1,0,0:0:0:0:
329,272,99771,1,8,0:0:0:0:
302,260,99828,1,8,0:0:0:0:
302,260,99884,1,0,0:0:0:0:
261,248,99941,1,0,0:0:0:0:
281,237,99998,1,8,0:0:0:0:
281,237,100111,1,0,0:0:0:0:
304,219,100224,1,8,0:0:0:0:
304,219,100337,1,0,0:0:0:0:
304,219,100394,1,8,0:0:0:0:
304,219,100450,1,0,0:0:0:0:
304,219,100507,1,0,0:0:0:0:
304,219,100564,1,8,0:0:0:0:
243,212,100620,1,8,0:0:0:0:
304,219,100677,1,0,0:0:0:0:
311,244,100790,1,8,0:0:0:0:
311,244,100903,1,0,0:0:0:0:
311,244,101016,1,0,0:0:0:0:
311,244,101130,1,8,0:0:0:0:
321,264,101186,1,0,0:0:0:0:
377,221,101243,1,8,0:0:0:0:
190,208,101299,1,0,0:0:0:0:
268,253,101356,1,8,0:0:0:0:
268,253,101469,1,0,0:0:0:0:
268,253,101582,1,8,0:0:0:0:
351,267,101639,1,8,0:0:0:0:
312,237,101696,1,0,0:0:0:0:
375,278,101752,1,0,0:0:0:0:
312,237,101809,1,8,0:0:0:0:
312,237,101922,1,0,0:0:0:0:
355,251,101979,1,0,0:0:0:0:
312,237,102035,1,8,0:0:0:0:
355,251,102092,1,8,0:0:0:0:
312,237,102149,1,0,0:0:0:0:
312,237,102262,1,8,0:0:0:0:
375,278,102318,1,8,0:0:0:0:
312,237,102375,1,8,0:0:0:0:
350,262,102432,1,8,0:0:0:0:
312,237,102488,1,0,0:0:0:0:
269,225,102545,1,0,0:0:0:0:
312,237,102601,1,8,0:0:0:0:
364,236,102715,1,0,0:0:0:0:
312,237,102828,1,8,0:0:0:0:
312,237,102941,1,0,0:0:0:0:
364,297,102998,1,0,0:0:0:0:
312,237,103054,1,8,0:0:0:0:
434,218,103111,1,8,0:0:0:0:
312,237,103167,1,0,0:0:0:0:
364,297,103281,1,8,0:0:0:0:
312,237,103394,1,0,0:0:0:0:
317,256,103450,1,0,0:0:0:0:
317,256,103507,1,8,0:0:0:0:
317,256,103564,1,8,0:0:0:0:
317,256,103620,1,0,0:0:0:0:
317,256,103733,1,8,0:0:0:0:
317,256,103790,1,8,0:0:0:0:
317,256,103847,1,0,0:0:0:0:
317,256,103903,1,0,0:0:0:0:
317,256,103960,1,8,0:0:0:0:
292,197,104073,1,0,0:0:0:0:
292,197,104130,1,0,0:0:0:0:
292,197,104186,1,0,0:0:0:0:
292,197,104243,1,0,0:0:0:0:
292,197,104299,1,8,0:0:0:0:
292,197,104356,1,8,0:0:0:0:
292,197,104413,1,0,0:0:0:0:
324,249,104526,1,8,0:0:0:0:
354,263,104639,1,0,0:0:0:0:
324,249,104752,1,8,0:0:0:0:
324,249,104865,1,0,0:0:0:0:
254,218,104922,1,0,0:0:0:0:
311,248,104979,1,8,0:0:0:0:
324,249,105092,1,0,0:0:0:0:
355,245,105149,1,8,0:0:0:0:
371,252,105205,1,0,0:0:0:0:
325,254,105318,1,8,0:0:0:0:
339,266,105432,1,8,0:0:0:0:
284,227,105545,1,0,0:0:0:0:
284,227,105601,1,0,0:0:0:0:
284,227,105658,1,8,0:0:0:0:
339,229,105715,1,8,0:0:0:0:
284,227,105771,1,0,0:0:0:0:
284,227,105884,1,8,0:0:0:0:
415,210,105941,1,8,0:0:0:0:
284,227,105998,1,0,0:0:0:0:
284,227,106054,1,0,0:0:0:0:
284,227,106111,1,8,0:0:0:0:
176,223,106167,1,8,0:0:0:0:
284,227,106224,1,0,0:0:0:0:
175,168,106337,1,8,0:0:0:0:
284,227,106450,1,0,0:0:0:0:
284,227,106507,1,0,0:0:0:0:
284,227,106564,1,8,0:0:0:0:
284,227,106620,1,8,0:0:0:0:
284,227,106677,1,0,0:0:0:0:
284,227,106790,1,8,0:0:0:0:
379,258,106847,1,8,0:0:0:0:
318,261,106903,1,0,0:0:0:0:
348,252,106960,1,0,0:0:0:0:
310,235,107016,1,8,0:0:0:0:
348,252,107073,1,8,0:0:0:0:
318,261,107130,1,0,0:0:0:0:
318,261,107243,1,8,0:0:0:0:
359,217,107356,1,0,0:0:0:0:
318,261,107469,1,8,0:0:0:0:
343,223,107526,1,8,0:0:0:0:
355,256,107582,1,0,0:0:0:0:
355,256,107639,1,0,0:0:0:0:
355,256,107696,1,8,0:0:0:0:
355,256,107752,1,8,0:0:0:0:
355,256,107809,1,0,0:0:0:0:
366,223,107865,1,0,0:0:0:0:
355,256,107922,1,8,0:0:0:0:
371,252,108828,1,8,0:0:0:0:
325,254,108884,1,8,0:0:0:0:
325,254,108941,1,8,0:0:0:0:
339,266,109054,1,0,0:0:0:0:
284,227,109167,1,8,0:0:0:0:
284,227,109224,1,8,0:0:0:0:
284,227,109281,1,8,0:0:0:0:
339,229,109337,1,8,0:0:0:0:
284,227,109394,1,0,0:0:0:0:
284,227,109507,1,8,0:0:0:0:
284,227,109620,1,0,0:0:0:0:
284,227,109677,1,0,0:0:0:0:
284,227,109733,1,0,0:0:0:0:
176,223,109790,1,0,0:0:0:0:
284,227,109847,1,8,0:0:0:0:
175,168,109960,1,0,0:0:0:0:
284,227,110073,1,8,0:0:0:0:
284,227,110130,1,8,0:0:0:0:
284,227,110186,1,0,0:0:0:0:
284,227,110243,1,0,0:0:0:0:
284,227,110299,1,8,0:0:0:0:
284,227,110413,1,0,0:0:0:0:
348,252,110526,1,8,0:0:0:0:
310,235,110582,1,8,0:0:0:0:
348,252,110639,1,0,0:0:0:0:
318,261,110696,1,0,0:0:0:0:
318,261,110752,1,0,0:0:0:0:
318,261,110865,1,8,0:0:0:0:
355,256,111092,1,0,0:0:0:0:
318,261,111205,1,8,0:0:0:0:
307,235,111318,1,0,0:0:0:0:
355,256,111375,1,0,0:0:0:0:
355,256,111432,1,8,0:0:0:0:
355,256,111488,1,8,0:0:0:0:
355,256,111545,1,8,0:0:0:0:
