osu file format v14

[General]
AudioFilename: audio.mp3
AudioLeadIn: 0
PreviewTime: 32000
Countdown: 0
SampleSet: Normal
StackLeniency: 0
Mode: 1
LetterboxInBreaks: 0
WidescreenStoryboard: 0

[Editor]
Bookmarks: 8000,24000,32000,50000,66000,82000,100000,116000,124000,144000,168000
DistanceSpacing: 0.4
BeatDivisor: 4
GridSize: 32
TimelineZoom: 3.479999

[Metadata]
Title:S4y G00dby3
TitleUnicode:S4y G00dby3
Artist:Gomitaro
ArtistUnicode:ゴミ太郎
Creator:Genjuro
Version:Inner Oni
Source:
Tags:electronic english breakcore frenchcore krewella say goodbye kawaiibass gomi taro gomitarou remix
BeatmapID:2991949
BeatmapSetID:1454482

[Difficulty]
HPDrainRate:6
CircleSize:2
OverallDifficulty:6
ApproachRate:10
SliderMultiplier:1.4
SliderTickRate:1

[Events]
//Background and Video events
0,0,"bg.jpg",0,120
//Break Periods
2,128000,135550
//Storyboard Layer 0 (Background)
//Storyboard Layer 1 (Fail)
//Storyboard Layer 2 (Pass)
//Storyboard Layer 3 (Foreground)
//Storyboard Layer 4 (Overlay)
//Storyboard Sound Samples

[TimingPoints]
0,250,4,1,0,100,1,0
0,-111.111111111111,4,1,0,100,0,0
8000,-100,4,1,0,100,0,0
32000,-95.2380952380952,4,1,0,100,0,1
39875,-95.2380952380952,4,1,0,100,0,0
40250,-95.2380952380952,4,1,0,100,0,1
48000,-95.2380952380952,4,1,0,100,0,0
49000,-100,4,1,0,100,0,0
50000,250,4,1,0,100,1,0
50000,-80,4,1,0,100,0,0
57000,-100,4,1,0,100,0,0
58250,-80,4,1,0,100,0,0
65000,-100,4,1,0,100,0,0
66125,-111.111111111111,4,1,0,100,0,0
74000,-100,4,1,0,100,0,0
82000,-95.2380952380952,4,1,0,100,0,1
89875,-95.2380952380952,4,1,0,100,0,0
90250,-95.2380952380952,4,1,0,100,0,1
98000,-95.2380952380952,4,1,0,100,0,0
99000,-100,4,1,0,100,0,0
100000,250,4,1,0,100,1,0
100000,-80,4,1,0,100,0,0
107000,-100,4,1,0,100,0,0
108250,-80,4,1,0,100,0,0
114000,-100,4,1,0,100,0,0
116125,-111.111111111111,4,1,0,100,0,0
124000,-125,4,1,0,100,0,0
136125,-124.352280061231,4,1,0,100,0,0
136250,-123.711391221192,4,1,0,100,0,0
136375,-123.076923076923,4,1,0,100,0,0
136500,-122.448929612682,4,1,0,100,0,0
136625,-121.827460640593,4,1,0,100,0,0
136750,-121.212121212121,4,1,0,100,0,0
136875,-120.602966591772,4,1,0,100,0,0
136937,-120.300751879699,4,1,0,100,0,0
137000,-120.000048000019,4,1,0,100,0,0
137125,-119.402985074627,4,1,0,100,0,0
137250,-118.811834133927,4,1,0,100,0,0
137375,-118.226647577004,4,1,0,100,0,0
137500,-117.647058823529,4,1,0,100,0,0
137625,-117.073125044634,4,1,0,100,0,0
137750,-116.504899613553,4,1,0,100,0,0
137812,-116.222715264808,4,1,0,100,0,0
137875,-115.942028985507,4,1,0,100,0,0
137937,-115.662695195256,4,1,0,100,0,0
138000,-115.384571005934,4,1,0,100,0,0
138250,-114.285714285714,4,1,0,100,0,0
138375,-113.744032703684,4,1,0,100,0,0
138500,-113.207589889657,4,1,0,100,0,0
138625,-112.676056338028,4,1,0,100,0,0
138750,-112.149490785237,4,1,0,100,0,0
138812,-111.888111888112,4,1,0,100,0,0
138875,-111.627948512725,4,1,0,100,0,0
139000,-111.111111111111,4,1,0,100,0,0
139125,-110.599037567175,4,1,0,100,0,0
139250,-110.091783519921,4,1,0,100,0,0
139375,-109.58904109589,4,1,0,100,0,0
139500,-109.090869421502,4,1,0,100,0,0
139625,-108.597324379122,4,1,0,100,0,0
139750,-108.108108108108,4,1,0,100,0,0
139812,-107.865207322322,4,1,0,100,0,0
139875,-107.623279776402,4,1,0,100,0,0
139937,-107.38255033557,4,1,0,100,0,0
140000,-107.142895408177,4,1,0,100,0,0
140250,-106.194652674459,4,1,0,100,0,0
140375,-105.726909507281,4,1,0,100,0,0
140437,-105.49446839755,4,1,0,100,0,0
140500,-105.263157894737,4,1,0,100,0,0
140625,-104.80345683722,4,1,0,100,0,0
140750,-104.347862381865,4,1,0,100,0,0
140875,-103.896103896104,4,1,0,100,0,0
140937,-103.671742089587,4,1,0,100,0,0
141000,-103.448240190262,4,1,0,100,0,0
141125,-103.004327211786,4,1,0,100,0,0
141250,-102.564102564103,4,1,0,100,0,0
141375,-102.127624807617,4,1,0,100,0,0
141437,-101.910828025478,4,1,0,100,0,0
141500,-101.694949727102,4,1,0,100,0,0
141625,-101.26582278481,4,1,0,100,0,0
141750,-100.840302238554,4,1,0,100,0,0
141812,-100.62893081761,4,1,0,100,0,0
141875,-100.418443654709,4,1,0,100,0,0
141937,-100.208734794577,4,1,0,100,0,0
142000,-100,4,1,0,100,0,0
142125,-99.3788819875776,4,1,0,100,0,0
142250,-98.7654320987654,4,1,0,100,0,0
142375,-98.159509202454,4,1,0,100,0,0
142500,-97.5609756097561,4,1,0,100,0,0
142625,-96.969696969697,4,1,0,100,0,0
142750,-96.3855421686747,4,1,0,100,0,0
142812,-96.0960960960961,4,1,0,100,0,0
142875,-95.8083832335329,4,1,0,100,0,0
142937,-95.5223880597015,4,1,0,100,0,0
143000,-95.2380952380952,4,1,0,100,0,0
143125,-94.6745562130178,4,1,0,100,0,0
143250,-94.1176470588235,4,1,0,100,0,0
143375,-93.5672514619883,4,1,0,100,0,0
143500,-93.0232558139535,4,1,0,100,0,0
143625,-92.485549132948,4,1,0,100,0,0
143750,-91.9540229885058,4,1,0,100,0,0
144000,-90.9090909090909,4,1,0,100,0,1
151875,-90.9090909090909,4,1,0,100,0,0
152250,-90.9090909090909,4,1,0,100,0,1
159750,-90.9090909090909,4,1,0,100,0,0
160000,-90.9090909090909,4,1,0,100,0,1
168000,-90.9090909090909,4,1,0,100,0,0
168250,-100,4,1,0,95,0,0
168500,-100,4,1,0,90,0,0
169000,-105.263157894737,4,1,0,80,0,0
169500,-105.263157894737,4,1,0,70,0,0
170000,-111.111111111111,4,1,0,60,0,0
170500,-111.111111111111,4,1,0,50,0,0
171000,-117.647058823529,4,1,0,40,0,0
171500,-117.647058823529,4,1,0,30,0,0
172000,-125,4,1,0,20,0,0

[HitObjects]
256,192,4000,5,4,0:0:0:0:
256,192,4375,1,4,0:0:0:0:
256,192,5000,1,4,0:0:0:0:
256,192,5375,1,4,0:0:0:0:
256,192,6000,1,4,0:0:0:0:
256,192,6375,1,4,0:0:0:0:
256,192,7000,1,4,0:0:0:0:
256,192,7250,1,8,0:0:0:0:
256,192,7375,1,4,0:0:0:0:
256,192,8000,1,4,0:0:0:0:
256,192,8250,1,8,0:0:0:0:
256,192,8375,1,0,0:0:0:0:
256,192,8437,1,0,0:0:0:0:
256,192,8500,1,8,0:0:0:0:
256,192,8625,1,8,0:0:0:0:
256,192,8750,1,0,0:0:0:0:
256,192,8875,1,8,0:0:0:0:
256,192,9000,1,0,0:0:0:0:
256,192,9250,1,8,0:0:0:0:
256,192,9375,1,8,0:0:0:0:
256,192,9500,1,0,0:0:0:0:
256,192,9562,1,0,0:0:0:0:
256,192,9625,1,0,0:0:0:0:
256,192,9750,1,8,0:0:0:0:
256,192,9812,1,8,0:0:0:0:
256,192,9875,1,8,0:0:0:0:
256,192,9937,1,8,0:0:0:0:
256,192,10000,1,0,0:0:0:0:
256,192,10250,1,8,0:0:0:0:
256,192,10375,1,0,0:0:0:0:
256,192,10437,1,0,0:0:0:0:
256,192,10500,1,8,0:0:0:0:
256,192,10625,1,0,0:0:0:0:
256,192,10750,1,8,0:0:0:0:
256,192,10812,1,0,0:0:0:0:
256,192,10875,1,8,0:0:0:0:
256,192,10937,1,8,0:0:0:0:
256,192,11000,1,0,0:0:0:0:
256,192,11250,1,8,0:0:0:0:
256,192,11375,1,0,0:0:0:0:
256,192,11625,1,0,0:0:0:0:
256,192,11750,1,12,0:0:0:0:
256,192,11875,1,12,0:0:0:0:
256,192,12000,1,0,0:0:0:0:
256,192,12250,1,8,0:0:0:0:
256,192,12375,1,0,0:0:0:0:
256,192,12437,1,0,0:0:0:0:
256,192,12500,1,8,0:0:0:0:
256,192,12625,1,8,0:0:0:0:
256,192,12750,1,0,0:0:0:0:
256,192,12812,1,0,0:0:0:0:
256,192,12875,1,8,0:0:0:0:
256,192,12937,1,8,0:0:0:0:
256,192,13000,1,0,0:0:0:0:
256,192,13250,1,8,0:0:0:0:
256,192,13375,1,8,0:0:0:0:
256,192,13500,1,0,0:0:0:0:
256,192,13562,1,8,0:0:0:0:
256,192,13625,1,0,0:0:0:0:
256,192,13750,1,8,0:0:0:0:
256,192,13812,1,8,0:0:0:0:
256,192,13875,1,8,0:0:0:0:
256,192,13937,1,8,0:0:0:0:
256,192,14000,1,0,0:0:0:0:
256,192,14250,1,8,0:0:0:0:
256,192,14375,1,0,0:0:0:0:
256,192,14437,1,0,0:0:0:0:
256,192,14500,1,0,0:0:0:0:
256,192,14625,1,8,0:0:0:0:
256,192,14750,1,8,0:0:0:0:
256,192,15000,1,0,0:0:0:0:
256,192,15250,1,8,0:0:0:0:
256,192,15375,1,0,0:0:0:0:
256,192,15437,1,0,0:0:0:0:
256,192,15500,1,0,0:0:0:0:
256,192,15625,1,8,0:0:0:0:
256,192,15750,1,8,0:0:0:0:
256,192,15812,1,8,0:0:0:0:
256,192,15875,1,8,0:0:0:0:
256,192,15937,1,8,0:0:0:0:
256,192,16000,1,0,0:0:0:0:
256,192,16250,1,8,0:0:0:0:
256,192,16375,1,0,0:0:0:0:
256,192,16437,1,0,0:0:0:0:
256,192,16500,1,8,0:0:0:0:
256,192,16625,1,0,0:0:0:0:
256,192,16750,1,8,0:0:0:0:
256,192,16812,1,0,0:0:0:0:
256,192,16875,1,8,0:0:0:0:
256,192,17000,1,0,0:0:0:0:
256,192,17250,1,8,0:0:0:0:
256,192,17312,1,8,0:0:0:0:
256,192,17375,1,0,0:0:0:0:
256,192,17500,1,8,0:0:0:0:
256,192,17625,1,0,0:0:0:0:
256,192,17750,1,8,0:0:0:0:
256,192,17812,1,8,0:0:0:0:
256,192,17875,1,8,0:0:0:0:
256,192,18000,1,0,0:0:0:0:
256,192,18250,1,8,0:0:0:0:
256,192,18375,1,0,0:0:0:0:
256,192,18437,1,0,0:0:0:0:
256,192,18500,1,8,0:0:0:0:
256,192,18562,1,0,0:0:0:0:
256,192,18625,1,8,0:0:0:0:
256,192,18750,1,0,0:0:0:0:
256,192,18875,1,8,0:0:0:0:
256,192,19000,1,0,0:0:0:0:
256,192,19250,1,8,0:0:0:0:
256,192,19375,1,0,0:0:0:0:
256,192,19437,1,0,0:0:0:0:
256,192,19500,1,0,0:0:0:0:
256,192,19625,1,8,0:0:0:0:
256,192,19750,1,0,0:0:0:0:
256,192,19812,1,0,0:0:0:0:
256,192,19875,1,8,0:0:0:0:
256,192,20000,1,0,0:0:0:0:
256,192,20250,1,8,0:0:0:0:
256,192,20312,1,8,0:0:0:0:
256,192,20375,1,0,0:0:0:0:
256,192,20500,1,8,0:0:0:0:
256,192,20625,1,0,0:0:0:0:
256,192,20687,1,8,0:0:0:0:
256,192,20750,1,0,0:0:0:0:
256,192,20875,1,8,0:0:0:0:
256,192,21000,1,8,0:0:0:0:
256,192,21250,1,8,0:0:0:0:
256,192,21375,1,8,0:0:0:0:
256,192,21500,1,0,0:0:0:0:
256,192,21562,1,0,0:0:0:0:
256,192,21625,1,8,0:0:0:0:
256,192,21750,1,8,0:0:0:0:
256,192,22000,1,0,0:0:0:0:
256,192,22250,1,8,0:0:0:0:
256,192,22375,1,0,0:0:0:0:
256,192,22437,1,0,0:0:0:0:
256,192,22500,1,0,0:0:0:0:
256,192,22625,1,8,0:0:0:0:
256,192,22750,1,0,0:0:0:0:
256,192,22875,1,8,0:0:0:0:
256,192,22937,1,8,0:0:0:0:
256,192,23000,1,0,0:0:0:0:
256,192,23250,1,8,0:0:0:0:
256,192,23375,1,0,0:0:0:0:
256,192,23437,1,0,0:0:0:0:
256,192,23500,1,8,0:0:0:0:
256,192,23625,1,0,0:0:0:0:
256,192,23750,1,12,0:0:0:0:
256,192,24000,1,0,0:0:0:0:
256,192,24250,1,0,0:0:0:0:
256,192,24500,1,8,0:0:0:0:
256,192,24750,1,0,0:0:0:0:
256,192,25000,1,0,0:0:0:0:
256,192,25250,1,0,0:0:0:0:
256,192,25500,1,8,0:0:0:0:
256,192,25750,1,0,0:0:0:0:
256,192,26000,1,0,0:0:0:0:
256,192,26250,1,0,0:0:0:0:
256,192,26500,1,8,0:0:0:0:
256,192,26750,1,0,0:0:0:0:
256,192,27000,1,0,0:0:0:0:
256,192,27250,1,0,0:0:0:0:
256,192,27500,1,8,0:0:0:0:
256,192,27750,1,0,0:0:0:0:
256,192,28000,1,8,0:0:0:0:
256,192,28125,1,8,0:0:0:0:
256,192,28250,1,0,0:0:0:0:
256,192,28375,1,8,0:0:0:0:
256,192,28500,1,0,0:0:0:0:
256,192,28625,1,0,0:0:0:0:
256,192,28750,1,8,0:0:0:0:
256,192,28875,1,0,0:0:0:0:
256,192,29000,1,8,0:0:0:0:
256,192,29125,1,8,0:0:0:0:
256,192,29250,1,0,0:0:0:0:
256,192,29375,1,0,0:0:0:0:
256,192,29500,1,8,0:0:0:0:
256,192,29625,1,8,0:0:0:0:
256,192,29750,1,8,0:0:0:0:
256,192,29875,1,0,0:0:0:0:
256,192,30000,1,8,0:0:0:0:
256,192,30062,1,8,0:0:0:0:
256,192,30125,1,0,0:0:0:0:
256,192,30187,1,8,0:0:0:0:
256,192,30250,1,0,0:0:0:0:
256,192,30312,1,0,0:0:0:0:
256,192,30375,1,8,0:0:0:0:
256,192,30500,1,0,0:0:0:0:
256,192,30562,1,0,0:0:0:0:
256,192,30625,1,0,0:0:0:0:
256,192,30687,1,0,0:0:0:0:
256,192,30750,1,8,0:0:0:0:
256,192,30812,1,8,0:0:0:0:
256,192,30875,1,0,0:0:0:0:
256,192,31750,1,12,0:0:0:0:
256,192,32000,1,4,0:0:0:0:
256,192,32125,1,8,0:0:0:0:
256,192,32187,1,8,0:0:0:0:
256,192,32250,1,0,0:0:0:0:
256,192,32375,1,8,0:0:0:0:
256,192,32500,1,0,0:0:0:0:
256,192,32562,1,0,0:0:0:0:
256,192,32625,1,0,0:0:0:0:
256,192,32750,1,8,0:0:0:0:
256,192,32875,1,0,0:0:0:0:
256,192,32937,1,0,0:0:0:0:
256,192,33000,1,8,0:0:0:0:
256,192,33062,1,8,0:0:0:0:
256,192,33125,1,0,0:0:0:0:
256,192,33250,1,8,0:0:0:0:
256,192,33375,1,0,0:0:0:0:
256,192,33437,1,0,0:0:0:0:
256,192,33500,1,8,0:0:0:0:
256,192,33625,1,0,0:0:0:0:
256,192,33687,1,0,0:0:0:0:
256,192,33750,1,8,0:0:0:0:
256,192,33875,1,0,0:0:0:0:
256,192,34000,1,8,0:0:0:0:
256,192,34125,1,8,0:0:0:0:
256,192,34187,1,8,0:0:0:0:
256,192,34250,1,0,0:0:0:0:
256,192,34375,1,0,0:0:0:0:
256,192,34500,1,8,0:0:0:0:
256,192,34625,1,8,0:0:0:0:
256,192,34687,1,8,0:0:0:0:
256,192,34750,1,0,0:0:0:0:
256,192,34812,1,8,0:0:0:0:
256,192,34875,1,0,0:0:0:0:
256,192,35000,1,8,0:0:0:0:
256,192,35125,1,0,0:0:0:0:
256,192,35187,1,0,0:0:0:0:
256,192,35250,1,8,0:0:0:0:
256,192,35375,1,0,0:0:0:0:
256,192,35437,1,0,0:0:0:0:
256,192,35500,1,8,0:0:0:0:
256,192,35562,1,8,0:0:0:0:
256,192,35625,1,0,0:0:0:0:
256,192,35750,1,8,0:0:0:0:
256,192,35875,1,8,0:0:0:0:
256,192,36000,1,0,0:0:0:0:
256,192,36250,1,8,0:0:0:0:
256,192,36375,1,0,0:0:0:0:
256,192,36437,1,0,0:0:0:0:
256,192,36500,1,8,0:0:0:0:
256,192,36625,1,8,0:0:0:0:
256,192,36687,1,8,0:0:0:0:
256,192,36750,1,0,0:0:0:0:
256,192,36875,1,0,0:0:0:0:
256,192,37000,1,8,0:0:0:0:
256,192,37062,1,0,0:0:0:0:
256,192,37125,1,8,0:0:0:0:
256,192,37250,1,0,0:0:0:0:
256,192,37375,1,8,0:0:0:0:
256,192,37500,1,0,0:0:0:0:
256,192,37562,1,0,0:0:0:0:
256,192,37625,1,0,0:0:0:0:
256,192,37750,1,8,0:0:0:0:
256,192,37875,1,0,0:0:0:0:
256,192,38000,1,8,0:0:0:0:
256,192,38125,1,8,0:0:0:0:
256,192,38187,1,8,0:0:0:0:
256,192,38250,1,0,0:0:0:0:
256,192,38375,1,0,0:0:0:0:
256,192,38500,1,8,0:0:0:0:
256,192,38625,1,8,0:0:0:0:
256,192,38687,1,8,0:0:0:0:
256,192,38750,1,0,0:0:0:0:
256,192,38812,1,8,0:0:0:0:
256,192,38875,1,0,0:0:0:0:
256,192,39000,1,12,0:0:0:0:
256,192,39250,1,12,0:0:0:0:
256,192,39500,1,12,0:0:0:0:
256,192,39625,1,12,0:0:0:0:
256,192,39750,1,12,0:0:0:0:
256,192,39875,1,0,0:0:0:0:
256,192,40125,1,8,0:0:0:0:
256,192,40250,1,4,0:0:0:0:
256,192,40375,1,8,0:0:0:0:
256,192,40437,1,8,0:0:0:0:
256,192,40500,1,8,0:0:0:0:
256,192,40625,1,0,0:0:0:0:
256,192,40750,1,8,0:0:0:0:
256,192,40812,1,0,0:0:0:0:
256,192,40875,1,8,0:0:0:0:
256,192,40937,1,8,0:0:0:0:
256,192,41000,1,0,0:0:0:0:
256,192,41125,1,8,0:0:0:0:
256,192,41250,1,0,0:0:0:0:
256,192,41312,1,0,0:0:0:0:
256,192,41375,1,8,0:0:0:0:
256,192,41500,1,0,0:0:0:0:
256,192,41625,1,8,0:0:0:0:
256,192,41750,1,8,0:0:0:0:
256,192,41875,1,8,0:0:0:0:
256,192,42000,1,0,0:0:0:0:
256,192,42125,1,8,0:0:0:0:
256,192,42187,1,8,0:0:0:0:
256,192,42250,1,0,0:0:0:0:
256,192,42375,1,8,0:0:0:0:
256,192,42500,1,0,0:0:0:0:
256,192,42562,1,8,0:0:0:0:
256,192,42625,1,0,0:0:0:0:
256,192,42687,1,0,0:0:0:0:
256,192,42750,1,8,0:0:0:0:
256,192,42875,1,0,0:0:0:0:
256,192,43000,1,8,0:0:0:0:
256,192,43062,1,8,0:0:0:0:
256,192,43125,1,0,0:0:0:0:
256,192,43187,1,0,0:0:0:0:
256,192,43250,1,8,0:0:0:0:
256,192,43375,1,0,0:0:0:0:
256,192,43500,1,8,0:0:0:0:
256,192,43625,1,0,0:0:0:0:
256,192,43687,1,0,0:0:0:0:
256,192,43750,1,8,0:0:0:0:
256,192,43875,1,8,0:0:0:0:
256,192,43937,1,8,0:0:0:0:
256,192,44000,1,0,0:0:0:0:
256,192,44250,1,8,0:0:0:0:
256,192,44375,1,0,0:0:0:0:
256,192,44437,1,0,0:0:0:0:
256,192,44500,1,8,0:0:0:0:
256,192,44562,1,8,0:0:0:0:
256,192,44625,1,0,0:0:0:0:
256,192,44750,1,8,0:0:0:0:
256,192,44875,1,0,0:0:0:0:
256,192,44937,1,8,0:0:0:0:
256,192,45000,1,0,0:0:0:0:
256,192,45125,1,8,0:0:0:0:
256,192,45250,1,0,0:0:0:0:
256,192,45312,1,0,0:0:0:0:
256,192,45375,1,0,0:0:0:0:
256,192,45437,1,0,0:0:0:0:
256,192,45500,1,8,0:0:0:0:
256,192,45625,1,8,0:0:0:0:
256,192,45687,1,8,0:0:0:0:
256,192,45750,1,0,0:0:0:0:
256,192,45875,1,0,0:0:0:0:
256,192,46000,1,12,0:0:0:0:
256,192,46250,1,12,0:0:0:0:
256,192,46500,1,12,0:0:0:0:
256,192,46625,1,12,0:0:0:0:
256,192,46750,1,12,0:0:0:0:
256,192,46875,1,12,0:0:0:0:
256,192,47000,1,0,0:0:0:0:
256,192,47062,1,0,0:0:0:0:
256,192,47125,1,8,0:0:0:0:
256,192,47187,1,8,0:0:0:0:
256,192,47250,1,0,0:0:0:0:
256,192,47375,1,8,0:0:0:0:
256,192,47500,1,0,0:0:0:0:
256,192,47562,1,0,0:0:0:0:
256,192,47625,1,0,0:0:0:0:
256,192,47687,1,0,0:0:0:0:
256,192,47750,1,8,0:0:0:0:
256,192,47812,1,8,0:0:0:0:
256,192,47875,1,8,0:0:0:0:
256,192,47937,1,8,0:0:0:0:
256,192,48000,1,0,0:0:0:0:
256,192,49000,1,0,0:0:0:0:
256,192,49062,1,0,0:0:0:0:
256,192,49125,1,8,0:0:0:0:
256,192,49250,1,0,0:0:0:0:
256,192,49375,1,8,0:0:0:0:
256,192,49500,1,0,0:0:0:0:
256,192,49625,1,8,0:0:0:0:
256,192,49750,1,0,0:0:0:0:
256,192,49875,1,8,0:0:0:0:
256,192,50000,1,4,0:0:0:0:
256,192,50250,1,4,0:0:0:0:
256,192,50500,1,4,0:0:0:0:
256,192,50750,1,4,0:0:0:0:
256,192,51000,1,4,0:0:0:0:
256,192,51250,1,4,0:0:0:0:
256,192,51500,1,4,0:0:0:0:
256,192,51750,1,4,0:0:0:0:
256,192,52000,1,4,0:0:0:0:
256,192,52250,1,4,0:0:0:0:
256,192,52500,1,4,0:0:0:0:
256,192,52750,1,4,0:0:0:0:
256,192,53000,1,4,0:0:0:0:
256,192,53250,1,4,0:0:0:0:
256,192,53500,1,4,0:0:0:0:
256,192,53750,1,4,0:0:0:0:
256,192,54000,1,4,0:0:0:0:
256,192,54250,1,4,0:0:0:0:
256,192,54500,1,4,0:0:0:0:
256,192,54750,1,4,0:0:0:0:
256,192,55000,1,4,0:0:0:0:
256,192,55250,1,4,0:0:0:0:
256,192,55500,1,4,0:0:0:0:
256,192,55750,1,4,0:0:0:0:
256,192,56000,1,4,0:0:0:0:
256,192,56250,1,4,0:0:0:0:
256,192,56500,1,4,0:0:0:0:
256,192,56750,1,4,0:0:0:0:
256,192,57000,1,0,0:0:0:0:
256,192,57062,1,0,0:0:0:0:
256,192,57125,1,8,0:0:0:0:
256,192,57250,1,0,0:0:0:0:
256,192,57375,1,8,0:0:0:0:
256,192,57437,1,8,0:0:0:0:
256,192,57500,1,0,0:0:0:0:
256,192,57625,1,8,0:0:0:0:
256,192,57750,1,0,0:0:0:0:
256,192,57812,1,0,0:0:0:0:
256,192,57875,1,8,0:0:0:0:
256,192,57937,1,8,0:0:0:0:
256,192,58125,1,4,0:0:0:0:
256,192,58250,1,4,0:0:0:0:
256,192,58500,1,4,0:0:0:0:
256,192,58750,1,4,0:0:0:0:
256,192,59000,1,4,0:0:0:0:
256,192,59250,1,4,0:0:0:0:
256,192,59500,1,4,0:0:0:0:
256,192,59750,1,4,0:0:0:0:
256,192,60000,1,4,0:0:0:0:
256,192,60250,1,4,0:0:0:0:
256,192,60500,1,4,0:0:0:0:
256,192,60750,1,4,0:0:0:0:
256,192,61000,1,4,0:0:0:0:
256,192,61250,1,4,0:0:0:0:
256,192,61500,1,4,0:0:0:0:
256,192,61750,1,4,0:0:0:0:
256,192,62000,1,4,0:0:0:0:
256,192,62250,1,4,0:0:0:0:
256,192,62500,1,4,0:0:0:0:
256,192,62750,1,4,0:0:0:0:
256,192,63000,1,4,0:0:0:0:
256,192,63250,1,4,0:0:0:0:
256,192,63500,1,4,0:0:0:0:
256,192,63750,1,4,0:0:0:0:
256,192,64000,1,4,0:0:0:0:
256,192,64250,1,4,0:0:0:0:
256,192,64500,1,4,0:0:0:0:
256,192,64750,1,4,0:0:0:0:
256,192,65000,1,0,0:0:0:0:
256,192,65062,1,0,0:0:0:0:
256,192,65125,1,8,0:0:0:0:
256,192,65187,1,8,0:0:0:0:
256,192,65250,1,0,0:0:0:0:
256,192,65375,1,8,0:0:0:0:
256,192,65437,1,8,0:0:0:0:
256,192,65500,1,0,0:0:0:0:
256,192,65562,1,0,0:0:0:0:
256,192,65625,1,8,0:0:0:0:
256,192,65750,1,0,0:0:0:0:
256,192,65875,1,8,0:0:0:0:
256,192,66000,1,4,0:0:0:0:
256,192,66250,1,8,0:0:0:0:
256,192,66375,1,0,0:0:0:0:
256,192,66625,1,8,0:0:0:0:
256,192,67000,1,0,0:0:0:0:
256,192,67250,1,8,0:0:0:0:
256,192,67375,1,0,0:0:0:0:
256,192,67625,1,8,0:0:0:0:
256,192,67750,1,8,0:0:0:0:
256,192,68000,1,0,0:0:0:0:
256,192,68250,1,8,0:0:0:0:
256,192,68375,1,0,0:0:0:0:
256,192,68625,1,8,0:0:0:0:
256,192,69000,1,0,0:0:0:0:
256,192,69250,1,8,0:0:0:0:
256,192,69375,1,0,0:0:0:0:
256,192,69625,1,8,0:0:0:0:
256,192,69750,1,8,0:0:0:0:
256,192,69875,1,8,0:0:0:0:
256,192,70000,1,0,0:0:0:0:
256,192,70250,1,8,0:0:0:0:
256,192,70375,1,0,0:0:0:0:
256,192,70625,1,8,0:0:0:0:
256,192,71000,1,0,0:0:0:0:
256,192,71250,1,8,0:0:0:0:
256,192,71375,1,0,0:0:0:0:
256,192,71625,1,8,0:0:0:0:
256,192,71750,1,8,0:0:0:0:
256,192,72000,1,0,0:0:0:0:
256,192,72250,1,8,0:0:0:0:
256,192,72375,1,0,0:0:0:0:
256,192,72625,1,0,0:0:0:0:
256,192,72750,1,8,0:0:0:0:
256,192,73000,1,0,0:0:0:0:
256,192,73250,1,8,0:0:0:0:
256,192,73375,1,8,0:0:0:0:
256,192,73500,1,0,0:0:0:0:
256,192,73625,1,0,0:0:0:0:
256,192,73750,1,12,0:0:0:0:
256,192,74000,1,4,0:0:0:0:
256,192,74250,1,8,0:0:0:0:
256,192,74375,1,0,0:0:0:0:
256,192,74437,1,0,0:0:0:0:
256,192,74500,1,0,0:0:0:0:
256,192,74625,1,8,0:0:0:0:
256,192,74750,1,0,0:0:0:0:
256,192,74812,1,0,0:0:0:0:
256,192,74875,1,0,0:0:0:0:
256,192,74937,1,0,0:0:0:0:
256,192,75000,1,8,0:0:0:0:
256,192,75125,1,0,0:0:0:0:
256,192,75250,1,8,0:0:0:0:
256,192,75312,1,0,0:0:0:0:
256,192,75375,1,8,0:0:0:0:
256,192,75500,1,0,0:0:0:0:
256,192,75625,1,8,0:0:0:0:
256,192,75750,1,8,0:0:0:0:
256,192,76000,1,0,0:0:0:0:
256,192,76250,1,8,0:0:0:0:
256,192,76375,1,0,0:0:0:0:
256,192,76437,1,0,0:0:0:0:
256,192,76500,1,0,0:0:0:0:
256,192,76625,1,8,0:0:0:0:
256,192,76750,1,0,0:0:0:0:
256,192,76812,1,8,0:0:0:0:
256,192,76875,1,0,0:0:0:0:
256,192,77000,1,12,0:0:0:0:
256,192,77125,1,0,0:0:0:0:
256,192,77250,1,12,0:0:0:0:
256,192,77375,1,0,0:0:0:0:
256,192,77500,1,12,0:0:0:0:
256,192,77625,1,0,0:0:0:0:
256,192,77750,1,8,0:0:0:0:
256,192,77812,1,8,0:0:0:0:
256,192,77875,1,8,0:0:0:0:
256,192,77937,1,8,0:0:0:0:
256,192,78000,1,0,0:0:0:0:
256,192,78250,1,8,0:0:0:0:
256,192,78375,1,0,0:0:0:0:
256,192,78437,1,0,0:0:0:0:
256,192,78500,1,0,0:0:0:0:
256,192,78625,1,8,0:0:0:0:
256,192,78750,1,8,0:0:0:0:
256,192,78812,1,0,0:0:0:0:
256,192,78875,1,8,0:0:0:0:
256,192,78937,1,8,0:0:0:0:
256,192,79000,1,0,0:0:0:0:
256,192,79125,1,0,0:0:0:0:
256,192,79250,1,8,0:0:0:0:
256,192,79375,1,0,0:0:0:0:
256,192,79437,1,0,0:0:0:0:
256,192,79500,1,8,0:0:0:0:
256,192,79625,1,0,0:0:0:0:
256,192,79750,1,8,0:0:0:0:
256,192,79875,1,0,0:0:0:0:
256,192,80000,1,8,0:0:0:0:
256,192,80062,1,8,0:0:0:0:
256,192,80125,1,0,0:0:0:0:
256,192,80250,1,0,0:0:0:0:
256,192,80375,1,8,0:0:0:0:
256,192,80437,1,8,0:0:0:0:
256,192,80500,1,0,0:0:0:0:
256,192,80625,1,0,0:0:0:0:
256,192,80750,1,8,0:0:0:0:
256,192,80812,1,0,0:0:0:0:
256,192,80875,1,0,0:0:0:0:
256,192,81000,1,8,0:0:0:0:
256,192,81062,1,8,0:0:0:0:
256,192,81125,1,0,0:0:0:0:
256,192,81187,1,0,0:0:0:0:
256,192,81250,1,8,0:0:0:0:
256,192,81375,1,0,0:0:0:0:
256,192,81437,1,0,0:0:0:0:
256,192,81500,1,8,0:0:0:0:
256,192,81562,1,8,0:0:0:0:
256,192,81625,1,0,0:0:0:0:
256,192,81750,1,12,0:0:0:0:
256,192,82000,1,4,0:0:0:0:
256,192,82125,1,8,0:0:0:0:
256,192,82187,1,8,0:0:0:0:
256,192,82250,1,0,0:0:0:0:
256,192,82375,1,8,0:0:0:0:
256,192,82500,1,0,0:0:0:0:
256,192,82562,1,8,0:0:0:0:
256,192,82625,1,0,0:0:0:0:
256,192,82750,1,8,0:0:0:0:
256,192,82875,1,0,0:0:0:0:
256,192,82937,1,8,0:0:0:0:
256,192,83000,1,8,0:0:0:0:
256,192,83062,1,8,0:0:0:0:
256,192,83125,1,0,0:0:0:0:
256,192,83250,1,8,0:0:0:0:
256,192,83375,1,0,0:0:0:0:
256,192,83437,1,0,0:0:0:0:
256,192,83500,1,8,0:0:0:0:
256,192,83625,1,0,0:0:0:0:
256,192,83687,1,0,0:0:0:0:
256,192,83750,1,8,0:0:0:0:
256,192,83875,1,0,0:0:0:0:
256,192,84000,1,8,0:0:0:0:
256,192,84125,1,8,0:0:0:0:
256,192,84187,1,8,0:0:0:0:
256,192,84250,1,0,0:0:0:0:
256,192,84375,1,0,0:0:0:0:
256,192,84500,1,8,0:0:0:0:
256,192,84625,1,8,0:0:0:0:
256,192,84687,1,8,0:0:0:0:
256,192,84750,1,0,0:0:0:0:
256,192,84812,1,8,0:0:0:0:
256,192,84875,1,0,0:0:0:0:
256,192,85000,1,8,0:0:0:0:
256,192,85125,1,0,0:0:0:0:
256,192,85187,1,0,0:0:0:0:
256,192,85250,1,8,0:0:0:0:
256,192,85375,1,0,0:0:0:0:
256,192,85437,1,0,0:0:0:0:
256,192,85500,1,8,0:0:0:0:
256,192,85562,1,8,0:0:0:0:
256,192,85625,1,0,0:0:0:0:
256,192,85750,1,8,0:0:0:0:
256,192,85875,1,8,0:0:0:0:
256,192,86000,1,0,0:0:0:0:
256,192,86250,1,8,0:0:0:0:
256,192,86375,1,0,0:0:0:0:
256,192,86437,1,0,0:0:0:0:
256,192,86500,1,8,0:0:0:0:
256,192,86625,1,8,0:0:0:0:
256,192,86687,1,8,0:0:0:0:
256,192,86750,1,0,0:0:0:0:
256,192,86875,1,0,0:0:0:0:
256,192,87000,1,8,0:0:0:0:
256,192,87062,1,0,0:0:0:0:
256,192,87125,1,8,0:0:0:0:
256,192,87250,1,0,0:0:0:0:
256,192,87375,1,8,0:0:0:0:
256,192,87500,1,0,0:0:0:0:
256,192,87562,1,0,0:0:0:0:
256,192,87625,1,0,0:0:0:0:
256,192,87750,1,8,0:0:0:0:
256,192,87875,1,0,0:0:0:0:
256,192,88000,1,8,0:0:0:0:
256,192,88125,1,0,0:0:0:0:
256,192,88187,1,0,0:0:0:0:
256,192,88250,1,8,0:0:0:0:
256,192,88312,1,0,0:0:0:0:
256,192,88375,1,8,0:0:0:0:
256,192,88500,1,0,0:0:0:0:
256,192,88625,1,0,0:0:0:0:
256,192,88750,1,0,0:0:0:0:
256,192,88875,1,0,0:0:0:0:
256,192,89000,1,12,0:0:0:0:
256,192,89250,1,12,0:0:0:0:
256,192,89500,1,12,0:0:0:0:
256,192,89625,1,12,0:0:0:0:
256,192,89750,1,12,0:0:0:0:
256,192,89875,1,0,0:0:0:0:
256,192,90125,1,8,0:0:0:0:
256,192,90250,1,4,0:0:0:0:
256,192,90375,1,8,0:0:0:0:
256,192,90437,1,8,0:0:0:0:
256,192,90500,1,8,0:0:0:0:
256,192,90625,1,0,0:0:0:0:
256,192,90750,1,8,0:0:0:0:
256,192,90812,1,0,0:0:0:0:
256,192,90875,1,8,0:0:0:0:
256,192,90937,1,8,0:0:0:0:
256,192,91000,1,0,0:0:0:0:
256,192,91125,1,8,0:0:0:0:
256,192,91250,1,0,0:0:0:0:
256,192,91312,1,0,0:0:0:0:
256,192,91375,1,8,0:0:0:0:
256,192,91500,1,0,0:0:0:0:
256,192,91625,1,8,0:0:0:0:
256,192,91750,1,8,0:0:0:0:
256,192,91875,1,8,0:0:0:0:
256,192,92000,1,0,0:0:0:0:
256,192,92125,1,8,0:0:0:0:
256,192,92187,1,8,0:0:0:0:
256,192,92250,1,0,0:0:0:0:
256,192,92375,1,8,0:0:0:0:
256,192,92500,1,0,0:0:0:0:
256,192,92562,1,8,0:0:0:0:
256,192,92625,1,0,0:0:0:0:
256,192,92687,1,0,0:0:0:0:
256,192,92750,1,8,0:0:0:0:
256,192,92875,1,0,0:0:0:0:
256,192,93000,1,8,0:0:0:0:
256,192,93062,1,0,0:0:0:0:
256,192,93125,1,0,0:0:0:0:
256,192,93187,1,0,0:0:0:0:
256,192,93250,1,8,0:0:0:0:
256,192,93375,1,0,0:0:0:0:
256,192,93500,1,8,0:0:0:0:
256,192,93625,1,0,0:0:0:0:
256,192,93687,1,0,0:0:0:0:
256,192,93750,1,8,0:0:0:0:
256,192,93812,1,0,0:0:0:0:
256,192,93875,1,8,0:0:0:0:
256,192,93937,1,8,0:0:0:0:
256,192,94000,1,0,0:0:0:0:
256,192,94250,1,8,0:0:0:0:
256,192,94375,1,0,0:0:0:0:
256,192,94437,1,0,0:0:0:0:
256,192,94500,1,8,0:0:0:0:
256,192,94562,1,8,0:0:0:0:
256,192,94625,1,0,0:0:0:0:
256,192,94750,1,8,0:0:0:0:
256,192,94875,1,0,0:0:0:0:
256,192,94937,1,8,0:0:0:0:
256,192,95000,1,0,0:0:0:0:
256,192,95125,1,8,0:0:0:0:
256,192,95250,1,0,0:0:0:0:
256,192,95312,1,0,0:0:0:0:
256,192,95375,1,0,0:0:0:0:
256,192,95437,1,0,0:0:0:0:
256,192,95500,1,8,0:0:0:0:
256,192,95625,1,8,0:0:0:0:
256,192,95687,1,8,0:0:0:0:
256,192,95750,1,0,0:0:0:0:
256,192,95875,1,0,0:0:0:0:
256,192,96000,1,12,0:0:0:0:
256,192,96250,1,12,0:0:0:0:
256,192,96500,1,12,0:0:0:0:
256,192,96625,1,12,0:0:0:0:
256,192,96750,1,12,0:0:0:0:
256,192,96875,1,12,0:0:0:0:
256,192,97000,1,0,0:0:0:0:
256,192,97062,1,0,0:0:0:0:
256,192,97125,1,8,0:0:0:0:
256,192,97187,1,8,0:0:0:0:
256,192,97250,1,0,0:0:0:0:
256,192,97375,1,8,0:0:0:0:
256,192,97500,1,0,0:0:0:0:
256,192,97562,1,0,0:0:0:0:
256,192,97625,1,0,0:0:0:0:
256,192,97687,1,0,0:0:0:0:
256,192,97750,1,8,0:0:0:0:
256,192,97812,1,8,0:0:0:0:
256,192,97875,1,8,0:0:0:0:
256,192,97937,1,8,0:0:0:0:
256,192,98000,1,0,0:0:0:0:
256,192,99000,1,0,0:0:0:0:
256,192,99062,1,0,0:0:0:0:
256,192,99125,1,8,0:0:0:0:
256,192,99250,1,0,0:0:0:0:
256,192,99375,1,8,0:0:0:0:
256,192,99500,1,0,0:0:0:0:
256,192,99625,1,8,0:0:0:0:
256,192,99750,1,0,0:0:0:0:
256,192,99875,1,8,0:0:0:0:
256,192,100000,1,4,0:0:0:0:
256,192,100250,1,4,0:0:0:0:
256,192,100500,1,4,0:0:0:0:
256,192,100750,1,4,0:0:0:0:
256,192,101000,1,4,0:0:0:0:
256,192,101250,1,4,0:0:0:0:
256,192,101500,1,4,0:0:0:0:
256,192,101750,1,4,0:0:0:0:
256,192,102000,1,4,0:0:0:0:
256,192,102250,1,4,0:0:0:0:
256,192,102500,1,4,0:0:0:0:
256,192,102750,1,4,0:0:0:0:
256,192,103000,1,4,0:0:0:0:
256,192,103250,1,4,0:0:0:0:
256,192,103500,1,4,0:0:0:0:
256,192,103750,1,4,0:0:0:0:
256,192,103875,1,4,0:0:0:0:
256,192,104000,1,4,0:0:0:0:
256,192,104250,1,4,0:0:0:0:
256,192,104500,1,4,0:0:0:0:
256,192,104750,1,4,0:0:0:0:
256,192,105000,1,4,0:0:0:0:
256,192,105250,1,4,0:0:0:0:
256,192,105500,1,4,0:0:0:0:
256,192,105750,1,4,0:0:0:0:
256,192,106000,1,4,0:0:0:0:
256,192,106250,1,4,0:0:0:0:
256,192,106500,1,4,0:0:0:0:
256,192,106750,1,4,0:0:0:0:
256,192,107000,1,0,0:0:0:0:
256,192,107062,1,0,0:0:0:0:
256,192,107125,1,8,0:0:0:0:
256,192,107250,1,0,0:0:0:0:
256,192,107375,1,8,0:0:0:0:
256,192,107437,1,8,0:0:0:0:
256,192,107500,1,0,0:0:0:0:
256,192,107625,1,8,0:0:0:0:
256,192,107750,1,0,0:0:0:0:
256,192,107812,1,0,0:0:0:0:
256,192,107875,1,8,0:0:0:0:
256,192,107937,1,8,0:0:0:0:
256,192,108125,1,4,0:0:0:0:
256,192,108250,1,4,0:0:0:0:
256,192,108500,1,4,0:0:0:0:
256,192,108750,1,4,0:0:0:0:
256,192,109000,1,4,0:0:0:0:
256,192,109250,1,4,0:0:0:0:
256,192,109500,1,4,0:0:0:0:
256,192,109750,1,4,0:0:0:0:
256,192,109875,1,4,0:0:0:0:
256,192,110000,1,4,0:0:0:0:
256,192,110250,1,4,0:0:0:0:
256,192,110500,1,4,0:0:0:0:
256,192,110750,1,4,0:0:0:0:
256,192,111000,1,4,0:0:0:0:
256,192,111250,1,4,0:0:0:0:
256,192,111500,1,4,0:0:0:0:
256,192,111750,1,4,0:0:0:0:
256,192,111875,1,8,0:0:0:0:
256,192,111937,1,8,0:0:0:0:
256,192,112000,1,0,0:0:0:0:
256,192,112250,1,4,0:0:0:0:
256,192,112500,1,4,0:0:0:0:
256,192,112750,1,4,0:0:0:0:
256,192,113000,1,4,0:0:0:0:
256,192,113250,1,4,0:0:0:0:
256,192,113500,1,4,0:0:0:0:
256,192,113750,1,4,0:0:0:0:
256,192,114000,1,0,0:0:0:0:
256,192,114125,1,8,0:0:0:0:
256,192,114250,1,0,0:0:0:0:
256,192,114375,1,0,0:0:0:0:
256,192,114500,1,8,0:0:0:0:
256,192,114625,1,0,0:0:0:0:
256,192,114750,1,8,0:0:0:0:
256,192,114875,1,8,0:0:0:0:
256,192,115000,1,0,0:0:0:0:
256,192,115062,1,0,0:0:0:0:
256,192,115125,1,8,0:0:0:0:
256,192,115187,1,8,0:0:0:0:
256,192,115250,1,0,0:0:0:0:
256,192,115375,1,8,0:0:0:0:
256,192,115437,1,8,0:0:0:0:
256,192,115500,1,0,0:0:0:0:
256,192,115562,1,0,0:0:0:0:
256,192,115625,1,8,0:0:0:0:
256,192,115750,1,0,0:0:0:0:
256,192,115875,1,8,0:0:0:0:
256,192,116000,1,4,0:0:0:0:
256,192,116250,1,8,0:0:0:0:
256,192,116375,1,0,0:0:0:0:
256,192,116500,1,0,0:0:0:0:
256,192,116750,1,8,0:0:0:0:
256,192,117000,1,0,0:0:0:0:
256,192,117250,1,8,0:0:0:0:
256,192,117375,1,0,0:0:0:0:
256,192,117500,1,0,0:0:0:0:
256,192,117625,1,8,0:0:0:0:
256,192,117750,1,8,0:0:0:0:
256,192,118000,1,0,0:0:0:0:
256,192,118250,1,8,0:0:0:0:
256,192,118375,1,8,0:0:0:0:
256,192,118500,1,0,0:0:0:0:
256,192,118750,1,8,0:0:0:0:
256,192,119000,1,0,0:0:0:0:
256,192,119250,1,8,0:0:0:0:
256,192,119375,1,8,0:0:0:0:
256,192,119500,1,0,0:0:0:0:
256,192,119625,1,8,0:0:0:0:
256,192,119750,1,8,0:0:0:0:
256,192,119875,1,8,0:0:0:0:
256,192,120000,1,0,0:0:0:0:
256,192,120250,1,8,0:0:0:0:
256,192,120375,1,0,0:0:0:0:
256,192,120500,1,0,0:0:0:0:
256,192,120750,1,8,0:0:0:0:
256,192,121000,1,0,0:0:0:0:
256,192,121250,1,8,0:0:0:0:
256,192,121375,1,0,0:0:0:0:
256,192,121500,1,0,0:0:0:0:
256,192,121625,1,8,0:0:0:0:
256,192,121750,1,8,0:0:0:0:
256,192,122000,1,0,0:0:0:0:
256,192,122125,1,0,0:0:0:0:
256,192,122250,1,8,0:0:0:0:
256,192,122375,1,0,0:0:0:0:
256,192,122500,1,8,0:0:0:0:
256,192,122625,1,8,0:0:0:0:
256,192,122750,1,0,0:0:0:0:
256,192,123000,1,8,0:0:0:0:
256,192,123125,1,8,0:0:0:0:
256,192,123250,1,8,0:0:0:0:
256,192,123375,1,8,0:0:0:0:
256,192,123500,1,0,0:0:0:0:
256,192,123750,1,8,0:0:0:0:
256,192,136000,5,8,0:0:0:0:
256,192,136125,1,0,0:0:0:0:
256,192,136250,1,0,0:0:0:0:
256,192,136375,1,8,0:0:0:0:
256,192,136500,1,0,0:0:0:0:
256,192,136625,1,0,0:0:0:0:
256,192,136750,1,8,0:0:0:0:
256,192,136875,1,0,0:0:0:0:
256,192,136937,1,0,0:0:0:0:
256,192,137000,1,8,0:0:0:0:
256,192,137125,1,0,0:0:0:0:
256,192,137250,1,8,0:0:0:0:
256,192,137375,1,8,0:0:0:0:
256,192,137500,1,0,0:0:0:0:
256,192,137625,1,8,0:0:0:0:
256,192,137750,1,0,0:0:0:0:
256,192,137812,1,0,0:0:0:0:
256,192,137875,1,8,0:0:0:0:
256,192,137937,1,8,0:0:0:0:
256,192,138000,1,0,0:0:0:0:
256,192,138250,1,8,0:0:0:0:
256,192,138375,1,0,0:0:0:0:
256,192,138500,1,0,0:0:0:0:
256,192,138625,1,8,0:0:0:0:
256,192,138750,1,0,0:0:0:0:
256,192,138812,1,0,0:0:0:0:
256,192,138875,1,0,0:0:0:0:
256,192,139000,1,8,0:0:0:0:
256,192,139125,1,0,0:0:0:0:
256,192,139250,1,8,0:0:0:0:
256,192,139375,1,8,0:0:0:0:
256,192,139500,1,0,0:0:0:0:
256,192,139625,1,8,0:0:0:0:
256,192,139750,1,8,0:0:0:0:
256,192,139812,1,8,0:0:0:0:
256,192,139875,1,8,0:0:0:0:
256,192,139937,1,8,0:0:0:0:
256,192,140000,1,0,0:0:0:0:
256,192,140250,1,8,0:0:0:0:
256,192,140375,1,0,0:0:0:0:
256,192,140437,1,0,0:0:0:0:
256,192,140500,1,8,0:0:0:0:
256,192,140625,1,0,0:0:0:0:
256,192,140750,1,8,0:0:0:0:
256,192,140875,1,8,0:0:0:0:
256,192,140937,1,8,0:0:0:0:
256,192,141000,1,0,0:0:0:0:
256,192,141125,1,0,0:0:0:0:
256,192,141250,1,8,0:0:0:0:
256,192,141375,1,0,0:0:0:0:
256,192,141437,1,8,0:0:0:0:
256,192,141500,1,0,0:0:0:0:
256,192,141625,1,8,0:0:0:0:
256,192,141750,1,0,0:0:0:0:
256,192,141812,1,0,0:0:0:0:
256,192,141875,1,8,0:0:0:0:
256,192,141937,1,8,0:0:0:0:
256,192,142000,1,0,0:0:0:0:
256,192,142125,1,8,0:0:0:0:
256,192,142250,1,0,0:0:0:0:
256,192,142375,1,8,0:0:0:0:
256,192,142500,1,0,0:0:0:0:
256,192,142625,1,8,0:0:0:0:
256,192,142750,1,0,0:0:0:0:
256,192,142812,1,0,0:0:0:0:
256,192,142875,1,0,0:0:0:0:
256,192,142937,1,0,0:0:0:0:
256,192,143000,1,8,0:0:0:0:
256,192,143125,1,0,0:0:0:0:
256,192,143250,1,8,0:0:0:0:
256,192,143375,1,0,0:0:0:0:
256,192,143500,1,8,0:0:0:0:
256,192,143625,1,8,0:0:0:0:
256,192,143750,1,8,0:0:0:0:
256,192,144000,1,4,0:0:0:0:
256,192,144125,1,8,0:0:0:0:
256,192,144187,1,8,0:0:0:0:
256,192,144250,1,0,0:0:0:0:
256,192,144375,1,0,0:0:0:0:
256,192,144500,1,8,0:0:0:0:
256,192,144625,1,0,0:0:0:0:
256,192,144687,1,0,0:0:0:0:
256,192,144750,1,0,0:0:0:0:
256,192,144875,1,8,0:0:0:0:
256,192,145000,1,0,0:0:0:0:
256,192,145062,1,0,0:0:0:0:
256,192,145125,1,8,0:0:0:0:
256,192,145187,1,0,0:0:0:0:
256,192,145250,1,8,0:0:0:0:
256,192,145375,1,0,0:0:0:0:
256,192,145500,1,8,0:0:0:0:
256,192,145562,1,8,0:0:0:0:
256,192,145625,1,0,0:0:0:0:
256,192,145750,1,8,0:0:0:0:
256,192,145875,1,8,0:0:0:0:
256,192,146000,1,0,0:0:0:0:
256,192,146250,1,8,0:0:0:0:
256,192,146375,1,0,0:0:0:0:
256,192,146437,1,0,0:0:0:0:
256,192,146500,1,8,0:0:0:0:
256,192,146625,1,8,0:0:0:0:
256,192,146687,1,8,0:0:0:0:
256,192,146750,1,0,0:0:0:0:
256,192,146875,1,8,0:0:0:0:
256,192,147000,1,0,0:0:0:0:
256,192,147062,1,0,0:0:0:0:
256,192,147125,1,8,0:0:0:0:
256,192,147187,1,8,0:0:0:0:
256,192,147250,1,0,0:0:0:0:
256,192,147375,1,8,0:0:0:0:
256,192,147500,1,0,0:0:0:0:
256,192,147562,1,0,0:0:0:0:
256,192,147625,1,0,0:0:0:0:
256,192,147750,1,12,0:0:0:0:
256,192,148000,1,4,0:0:0:0:
256,192,148125,1,8,0:0:0:0:
256,192,148187,1,8,0:0:0:0:
256,192,148250,1,0,0:0:0:0:
256,192,148375,1,0,0:0:0:0:
256,192,148500,1,8,0:0:0:0:
256,192,148625,1,0,0:0:0:0:
256,192,148687,1,8,0:0:0:0:
256,192,148750,1,0,0:0:0:0:
256,192,148875,1,8,0:0:0:0:
256,192,149000,1,0,0:0:0:0:
256,192,149062,1,0,0:0:0:0:
256,192,149125,1,8,0:0:0:0:
256,192,149187,1,0,0:0:0:0:
256,192,149250,1,8,0:0:0:0:
256,192,149375,1,0,0:0:0:0:
256,192,149500,1,8,0:0:0:0:
256,192,149562,1,8,0:0:0:0:
256,192,149625,1,0,0:0:0:0:
256,192,149750,1,8,0:0:0:0:
256,192,149812,1,8,0:0:0:0:
256,192,149875,1,8,0:0:0:0:
256,192,150000,1,0,0:0:0:0:
256,192,150250,1,8,0:0:0:0:
256,192,150375,1,0,0:0:0:0:
256,192,150437,1,0,0:0:0:0:
256,192,150500,1,8,0:0:0:0:
256,192,150625,1,8,0:0:0:0:
256,192,150687,1,8,0:0:0:0:
256,192,150750,1,0,0:0:0:0:
256,192,150875,1,8,0:0:0:0:
256,192,151000,1,0,0:0:0:0:
256,192,151062,1,0,0:0:0:0:
256,192,151125,1,8,0:0:0:0:
256,192,151187,1,8,0:0:0:0:
256,192,151250,1,0,0:0:0:0:
256,192,151375,1,8,0:0:0:0:
256,192,151437,1,8,0:0:0:0:
256,192,151500,1,0,0:0:0:0:
256,192,151625,1,8,0:0:0:0:
256,192,151687,1,8,0:0:0:0:
256,192,151750,1,8,0:0:0:0:
256,192,151812,1,8,0:0:0:0:
256,192,151875,1,0,0:0:0:0:
256,192,152125,1,8,0:0:0:0:
256,192,152250,1,4,0:0:0:0:
256,192,152375,1,8,0:0:0:0:
256,192,152437,1,0,0:0:0:0:
256,192,152500,1,8,0:0:0:0:
256,192,152625,1,0,0:0:0:0:
256,192,152687,1,0,0:0:0:0:
256,192,152750,1,0,0:0:0:0:
256,192,152875,1,8,0:0:0:0:
256,192,153000,1,0,0:0:0:0:
256,192,153062,1,0,0:0:0:0:
256,192,153125,1,8,0:0:0:0:
256,192,153187,1,0,0:0:0:0:
256,192,153250,1,8,0:0:0:0:
256,192,153375,1,0,0:0:0:0:
256,192,153500,1,8,0:0:0:0:
256,192,153562,1,8,0:0:0:0:
256,192,153625,1,0,0:0:0:0:
256,192,153750,1,8,0:0:0:0:
256,192,153875,1,8,0:0:0:0:
256,192,154000,1,0,0:0:0:0:
256,192,154250,1,8,0:0:0:0:
256,192,154375,1,0,0:0:0:0:
256,192,154437,1,0,0:0:0:0:
256,192,154500,1,8,0:0:0:0:
256,192,154625,1,8,0:0:0:0:
256,192,154687,1,8,0:0:0:0:
256,192,154750,1,0,0:0:0:0:
256,192,154875,1,8,0:0:0:0:
256,192,155000,1,0,0:0:0:0:
256,192,155062,1,8,0:0:0:0:
256,192,155125,1,8,0:0:0:0:
256,192,155187,1,8,0:0:0:0:
256,192,155250,1,0,0:0:0:0:
256,192,155375,1,8,0:0:0:0:
256,192,155500,1,0,0:0:0:0:
256,192,155562,1,0,0:0:0:0:
256,192,155625,1,0,0:0:0:0:
256,192,155750,1,12,0:0:0:0:
256,192,156000,1,4,0:0:0:0:
256,192,156125,1,8,0:0:0:0:
256,192,156187,1,8,0:0:0:0:
256,192,156250,1,0,0:0:0:0:
256,192,156375,1,0,0:0:0:0:
256,192,156500,1,8,0:0:0:0:
256,192,156625,1,0,0:0:0:0:
256,192,156687,1,8,0:0:0:0:
256,192,156750,1,0,0:0:0:0:
256,192,156875,1,8,0:0:0:0:
256,192,157000,1,0,0:0:0:0:
256,192,157062,1,0,0:0:0:0:
256,192,157125,1,8,0:0:0:0:
256,192,157187,1,0,0:0:0:0:
256,192,157250,1,8,0:0:0:0:
256,192,157375,1,0,0:0:0:0:
256,192,157500,1,8,0:0:0:0:
256,192,157562,1,8,0:0:0:0:
256,192,157625,1,0,0:0:0:0:
256,192,157750,1,8,0:0:0:0:
256,192,157812,1,8,0:0:0:0:
256,192,157875,1,8,0:0:0:0:
256,192,158000,1,0,0:0:0:0:
256,192,158250,1,8,0:0:0:0:
256,192,158375,1,0,0:0:0:0:
256,192,158437,1,0,0:0:0:0:
256,192,158500,1,8,0:0:0:0:
256,192,158625,1,8,0:0:0:0:
256,192,158687,1,8,0:0:0:0:
256,192,158750,1,0,0:0:0:0:
256,192,158875,1,8,0:0:0:0:
256,192,159000,1,0,0:0:0:0:
256,192,159125,1,0,0:0:0:0:
256,192,159250,1,8,0:0:0:0:
256,192,159312,1,8,0:0:0:0:
256,192,159375,1,0,0:0:0:0:
256,192,159437,1,0,0:0:0:0:
256,192,159500,1,8,0:0:0:0:
256,192,159562,1,8,0:0:0:0:
256,192,159625,1,0,0:0:0:0:
256,192,159750,1,12,0:0:0:0:
256,192,160000,1,4,0:0:0:0:
256,192,160125,1,8,0:0:0:0:
256,192,160187,1,0,0:0:0:0:
256,192,160250,1,0,0:0:0:0:
256,192,160375,1,8,0:0:0:0:
256,192,160500,1,0,0:0:0:0:
256,192,160562,1,0,0:0:0:0:
256,192,160625,1,8,0:0:0:0:
256,192,160687,1,8,0:0:0:0:
256,192,160750,1,0,0:0:0:0:
256,192,160875,1,8,0:0:0:0:
256,192,161000,1,0,0:0:0:0:
256,192,161125,1,8,0:0:0:0:
256,192,161187,1,0,0:0:0:0:
256,192,161250,1,8,0:0:0:0:
256,192,161312,1,8,0:0:0:0:
256,192,161375,1,0,0:0:0:0:
256,192,161500,1,8,0:0:0:0:
256,192,161625,1,0,0:0:0:0:
256,192,161687,1,0,0:0:0:0:
256,192,161750,1,8,0:0:0:0:
256,192,161875,1,8,0:0:0:0:
256,192,162000,1,0,0:0:0:0:
256,192,162250,1,8,0:0:0:0:
256,192,162375,1,0,0:0:0:0:
256,192,162437,1,0,0:0:0:0:
256,192,162500,1,0,0:0:0:0:
256,192,162625,1,8,0:0:0:0:
256,192,162687,1,8,0:0:0:0:
256,192,162750,1,0,0:0:0:0:
256,192,162875,1,0,0:0:0:0:
256,192,163000,1,8,0:0:0:0:
256,192,163125,1,0,0:0:0:0:
256,192,163187,1,0,0:0:0:0:
256,192,163250,1,8,0:0:0:0:
256,192,163375,1,0,0:0:0:0:
256,192,163437,1,0,0:0:0:0:
256,192,163500,1,8,0:0:0:0:
256,192,163562,1,8,0:0:0:0:
256,192,163625,1,0,0:0:0:0:
256,192,163750,1,8,0:0:0:0:
256,192,163812,1,8,0:0:0:0:
256,192,163875,1,8,0:0:0:0:
256,192,164000,1,0,0:0:0:0:
256,192,164125,1,8,0:0:0:0:
256,192,164187,1,0,0:0:0:0:
256,192,164250,1,0,0:0:0:0:
256,192,164375,1,8,0:0:0:0:
256,192,164500,1,0,0:0:0:0:
256,192,164562,1,8,0:0:0:0:
256,192,164625,1,8,0:0:0:0:
256,192,164687,1,8,0:0:0:0:
256,192,164750,1,0,0:0:0:0:
256,192,164875,1,8,0:0:0:0:
256,192,165000,1,0,0:0:0:0:
256,192,165125,1,8,0:0:0:0:
256,192,165187,1,0,0:0:0:0:
256,192,165250,1,8,0:0:0:0:
256,192,165312,1,0,0:0:0:0:
256,192,165375,1,0,0:0:0:0:
256,192,165500,1,8,0:0:0:0:
256,192,165625,1,0,0:0:0:0:
256,192,165687,1,0,0:0:0:0:
256,192,165750,1,8,0:0:0:0:
256,192,165875,1,8,0:0:0:0:
256,192,166000,1,0,0:0:0:0:
256,192,166250,1,8,0:0:0:0:
256,192,166375,1,0,0:0:0:0:
256,192,166437,1,0,0:0:0:0:
256,192,166500,1,0,0:0:0:0:
256,192,166625,1,8,0:0:0:0:
256,192,166687,1,8,0:0:0:0:
256,192,166750,1,0,0:0:0:0:
256,192,166875,1,0,0:0:0:0:
256,192,167000,1,8,0:0:0:0:
256,192,167125,1,0,0:0:0:0:
256,192,167187,1,0,0:0:0:0:
256,192,167250,1,8,0:0:0:0:
256,192,167312,1,8,0:0:0:0:
256,192,167375,1,0,0:0:0:0:
256,192,167500,1,12,0:0:0:0:
256,192,167625,1,12,0:0:0:0:
256,192,167750,1,12,0:0:0:0:
256,192,167875,1,12,0:0:0:0:
256,192,168000,1,4,0:0:0:0:
256,192,168250,12,0,172000,0:0:0:0:
