osu file format v14

[General]
AudioFilename: audio.mp3
AudioLeadIn: 0
PreviewTime: 32000
Countdown: 0
SampleSet: Normal
StackLeniency: 0
Mode: 1
LetterboxInBreaks: 0
WidescreenStoryboard: 0

[Editor]
Bookmarks: 8000,24000,32000,50000,66000,82000,100000,116000,124000,144000,168000
DistanceSpacing: 0.4
BeatDivisor: 2
GridSize: 32
TimelineZoom: 2.08

[Metadata]
Title:S4y G00dby3
TitleUnicode:S4y G00dby3
Artist:Gomitaro
ArtistUnicode:ゴミ太郎
Creator:Genjuro
Version:Futsuu
Source:
Tags:electronic english breakcore frenchcore krewella say goodbye kawaiibass gomi taro gomitarou remix
BeatmapID:2993753
BeatmapSetID:1454482

[Difficulty]
HPDrainRate:6
CircleSize:2
OverallDifficulty:4
ApproachRate:10
SliderMultiplier:1.3
SliderTickRate:1

[Events]
//Background and Video events
0,0,"bg.jpg",0,120
//Break Periods
2,128000,135550
//Storyboard Layer 0 (Background)
//Storyboard Layer 1 (Fail)
//Storyboard Layer 2 (Pass)
//Storyboard Layer 3 (Foreground)
//Storyboard Layer 4 (Overlay)
//Storyboard Sound Samples

[TimingPoints]
0,250,4,1,0,100,1,0
32000,-100,4,1,0,100,0,1
48000,-100,4,1,0,100,0,0
50000,250,4,1,0,100,1,0
82000,-100,4,1,0,100,0,1
98000,-100,4,1,0,100,0,0
100000,250,4,1,0,100,1,0
144000,-100,4,1,0,100,0,1
168000,-100,4,1,0,100,0,0
168500,-100,4,1,0,90,0,0
169000,-100,4,1,0,80,0,0
169500,-100,4,1,0,70,0,0
170000,-100,4,1,0,60,0,0
170500,-100,4,1,0,50,0,0
171000,-100,4,1,0,40,0,0
171500,-100,4,1,0,30,0,0
172000,-100,4,1,0,20,0,0

[HitObjects]
256,192,4000,5,0,0:0:0:0:
256,192,5000,1,0,0:0:0:0:
256,192,6000,1,0,0:0:0:0:
256,192,7000,1,0,0:0:0:0:
256,192,7375,1,0,0:0:0:0:
256,192,8000,1,8,0:0:0:0:
256,192,8250,1,8,0:0:0:0:
256,192,8500,1,0,0:0:0:0:
256,192,9000,1,0,0:0:0:0:
256,192,9250,1,0,0:0:0:0:
256,192,9500,1,8,0:0:0:0:
256,192,10000,1,8,0:0:0:0:
256,192,10250,1,8,0:0:0:0:
256,192,10500,1,0,0:0:0:0:
256,192,10750,1,0,0:0:0:0:
256,192,11000,1,8,0:0:0:0:
256,192,11500,1,0,0:0:0:0:
256,192,12000,1,8,0:0:0:0:
256,192,12250,1,0,0:0:0:0:
256,192,12500,1,0,0:0:0:0:
256,192,13000,1,0,0:0:0:0:
256,192,13250,1,8,0:0:0:0:
256,192,13500,1,8,0:0:0:0:
256,192,14000,1,8,0:0:0:0:
256,192,14250,1,0,0:0:0:0:
256,192,14500,1,0,0:0:0:0:
256,192,14750,1,8,0:0:0:0:
256,192,15000,1,8,0:0:0:0:
256,192,16000,1,8,0:0:0:0:
256,192,16250,1,0,0:0:0:0:
256,192,16500,1,8,0:0:0:0:
256,192,17000,1,0,0:0:0:0:
256,192,17250,1,8,0:0:0:0:
256,192,17500,1,0,0:0:0:0:
256,192,18000,1,8,0:0:0:0:
256,192,18250,1,8,0:0:0:0:
256,192,18500,1,8,0:0:0:0:
256,192,18750,1,8,0:0:0:0:
256,192,19000,1,0,0:0:0:0:
256,192,19500,1,8,0:0:0:0:
256,192,20000,1,0,0:0:0:0:
256,192,20250,1,8,0:0:0:0:
256,192,20500,1,0,0:0:0:0:
256,192,21000,1,8,0:0:0:0:
256,192,21250,1,0,0:0:0:0:
256,192,21500,1,8,0:0:0:0:
256,192,22000,1,0,0:0:0:0:
256,192,22250,1,0,0:0:0:0:
256,192,22500,1,0,0:0:0:0:
256,192,22750,1,0,0:0:0:0:
256,192,23000,1,8,0:0:0:0:
256,192,24000,1,0,0:0:0:0:
256,192,24500,1,0,0:0:0:0:
256,192,25000,1,0,0:0:0:0:
256,192,26000,1,8,0:0:0:0:
256,192,26500,1,8,0:0:0:0:
256,192,27000,1,8,0:0:0:0:
256,192,28000,1,0,0:0:0:0:
256,192,28250,1,0,0:0:0:0:
256,192,28500,1,0,0:0:0:0:
256,192,29000,1,8,0:0:0:0:
256,192,29250,1,8,0:0:0:0:
256,192,29500,1,8,0:0:0:0:
256,192,30000,1,0,0:0:0:0:
256,192,30125,1,0,0:0:0:0:
256,192,30250,1,0,0:0:0:0:
256,192,30500,1,8,0:0:0:0:
256,192,30625,1,8,0:0:0:0:
256,192,30750,1,8,0:0:0:0:
256,192,31000,1,0,0:0:0:0:
256,192,32000,1,4,0:0:0:0:
256,192,32500,1,8,0:0:0:0:
256,192,32750,1,8,0:0:0:0:
256,192,33000,1,0,0:0:0:0:
256,192,33250,1,0,0:0:0:0:
256,192,33500,1,8,0:0:0:0:
256,192,34000,1,0,0:0:0:0:
256,192,34125,1,0,0:0:0:0:
256,192,34250,1,8,0:0:0:0:
256,192,34750,1,0,0:0:0:0:
256,192,35000,1,8,0:0:0:0:
256,192,35500,1,0,0:0:0:0:
256,192,36000,1,8,0:0:0:0:
256,192,36500,1,0,0:0:0:0:
256,192,36750,1,0,0:0:0:0:
256,192,37000,1,8,0:0:0:0:
256,192,37250,1,8,0:0:0:0:
256,192,37500,1,0,0:0:0:0:
256,192,38000,1,8,0:0:0:0:
256,192,38125,1,8,0:0:0:0:
256,192,38250,1,0,0:0:0:0:
256,192,38750,1,8,0:0:0:0:
256,192,39000,1,0,0:0:0:0:
256,192,39500,1,8,0:0:0:0:
256,192,40125,1,0,0:0:0:0:
256,192,40250,1,0,0:0:0:0:
256,192,40500,1,8,0:0:0:0:
256,192,40750,1,8,0:0:0:0:
256,192,41000,1,0,0:0:0:0:
256,192,41500,1,8,0:0:0:0:
256,192,42000,1,0,0:0:0:0:
256,192,42250,1,8,0:0:0:0:
256,192,42500,1,8,0:0:0:0:
256,192,42750,1,8,0:0:0:0:
256,192,43000,1,0,0:0:0:0:
256,192,43500,1,0,0:0:0:0:
256,192,44000,1,8,0:0:0:0:
256,192,44125,1,8,0:0:0:0:
256,192,44250,1,8,0:0:0:0:
256,192,44500,1,0,0:0:0:0:
256,192,44750,1,0,0:0:0:0:
256,192,45000,1,8,0:0:0:0:
256,192,45500,1,0,0:0:0:0:
256,192,46000,1,8,0:0:0:0:
256,192,46250,1,8,0:0:0:0:
256,192,46500,1,8,0:0:0:0:
256,192,46625,1,8,0:0:0:0:
256,192,46750,1,8,0:0:0:0:
256,192,47000,1,0,0:0:0:0:
256,192,47250,1,0,0:0:0:0:
256,192,47500,1,0,0:0:0:0:
256,192,47625,1,0,0:0:0:0:
256,192,47750,1,0,0:0:0:0:
256,192,48000,1,8,0:0:0:0:
256,192,49000,1,0,0:0:0:0:
256,192,49500,1,8,0:0:0:0:
256,192,50000,1,0,0:0:0:0:
256,192,50250,1,0,0:0:0:0:
256,192,50500,1,0,0:0:0:0:
256,192,51000,1,8,0:0:0:0:
256,192,51250,1,8,0:0:0:0:
256,192,51500,1,8,0:0:0:0:
256,192,52000,1,0,0:0:0:0:
256,192,52250,1,0,0:0:0:0:
256,192,52500,1,8,0:0:0:0:
256,192,52750,1,8,0:0:0:0:
256,192,53000,1,0,0:0:0:0:
256,192,53500,1,8,0:0:0:0:
256,192,54000,1,0,0:0:0:0:
256,192,54250,1,0,0:0:0:0:
256,192,54500,1,8,0:0:0:0:
256,192,55000,1,8,0:0:0:0:
256,192,55250,1,8,0:0:0:0:
256,192,55500,1,0,0:0:0:0:
256,192,56000,1,0,0:0:0:0:
256,192,56250,1,8,0:0:0:0:
256,192,56500,1,0,0:0:0:0:
256,192,56750,1,8,0:0:0:0:
256,192,57000,1,0,0:0:0:0:
256,192,57500,1,8,0:0:0:0:
256,192,58250,1,0,0:0:0:0:
256,192,58500,1,0,0:0:0:0:
256,192,59000,1,8,0:0:0:0:
256,192,59250,1,8,0:0:0:0:
256,192,59500,1,8,0:0:0:0:
256,192,60000,1,0,0:0:0:0:
256,192,60250,1,0,0:0:0:0:
256,192,60500,1,8,0:0:0:0:
256,192,60750,1,0,0:0:0:0:
256,192,61000,1,0,0:0:0:0:
256,192,61500,1,8,0:0:0:0:
256,192,62000,1,0,0:0:0:0:
256,192,62250,1,8,0:0:0:0:
256,192,62500,1,8,0:0:0:0:
256,192,63000,1,8,0:0:0:0:
256,192,63250,1,0,0:0:0:0:
256,192,63500,1,0,0:0:0:0:
256,192,64000,1,0,0:0:0:0:
256,192,64250,1,8,0:0:0:0:
256,192,64500,1,8,0:0:0:0:
256,192,64750,1,8,0:0:0:0:
256,192,65000,1,0,0:0:0:0:
256,192,65500,1,8,0:0:0:0:
256,192,66000,1,0,0:0:0:0:
256,192,67000,1,8,0:0:0:0:
256,192,68000,1,0,0:0:0:0:
256,192,68500,1,0,0:0:0:0:
256,192,69000,1,8,0:0:0:0:
256,192,69500,1,8,0:0:0:0:
256,192,70000,1,0,0:0:0:0:
256,192,71000,1,8,0:0:0:0:
256,192,72000,1,0,0:0:0:0:
256,192,72500,1,0,0:0:0:0:
256,192,73000,1,8,0:0:0:0:
256,192,74000,1,0,0:0:0:0:
256,192,74250,1,0,0:0:0:0:
256,192,74500,1,8,0:0:0:0:
256,192,75000,1,8,0:0:0:0:
256,192,75250,1,8,0:0:0:0:
256,192,75500,1,0,0:0:0:0:
256,192,76000,1,8,0:0:0:0:
256,192,76500,1,0,0:0:0:0:
256,192,77000,1,8,0:0:0:0:
256,192,77250,1,8,0:0:0:0:
256,192,77500,1,8,0:0:0:0:
256,192,77750,1,8,0:0:0:0:
256,192,78000,1,0,0:0:0:0:
256,192,78500,1,8,0:0:0:0:
256,192,79000,1,0,0:0:0:0:
256,192,79250,1,8,0:0:0:0:
256,192,79500,1,0,0:0:0:0:
256,192,80000,1,8,0:0:0:0:
256,192,80375,1,8,0:0:0:0:
256,192,80750,1,8,0:0:0:0:
256,192,81000,1,8,0:0:0:0:
256,192,81375,1,8,0:0:0:0:
256,192,82000,1,4,0:0:0:0:
256,192,82500,1,8,0:0:0:0:
256,192,82750,1,8,0:0:0:0:
256,192,83000,1,0,0:0:0:0:
256,192,83250,1,0,0:0:0:0:
256,192,83500,1,8,0:0:0:0:
256,192,84000,1,0,0:0:0:0:
256,192,84125,1,0,0:0:0:0:
256,192,84250,1,8,0:0:0:0:
256,192,84750,1,0,0:0:0:0:
256,192,85000,1,8,0:0:0:0:
256,192,85500,1,0,0:0:0:0:
256,192,86000,1,8,0:0:0:0:
256,192,86500,1,0,0:0:0:0:
256,192,86750,1,0,0:0:0:0:
256,192,87000,1,8,0:0:0:0:
256,192,87250,1,8,0:0:0:0:
256,192,87500,1,0,0:0:0:0:
256,192,88000,1,8,0:0:0:0:
256,192,88125,1,8,0:0:0:0:
256,192,88250,1,0,0:0:0:0:
256,192,88750,1,8,0:0:0:0:
256,192,89000,1,0,0:0:0:0:
256,192,89500,1,8,0:0:0:0:
256,192,90125,1,0,0:0:0:0:
256,192,90250,1,0,0:0:0:0:
256,192,90500,1,8,0:0:0:0:
256,192,90750,1,8,0:0:0:0:
256,192,91000,1,0,0:0:0:0:
256,192,91500,1,8,0:0:0:0:
256,192,92000,1,0,0:0:0:0:
256,192,92250,1,8,0:0:0:0:
256,192,92500,1,8,0:0:0:0:
256,192,92750,1,8,0:0:0:0:
256,192,93000,1,0,0:0:0:0:
256,192,93500,1,0,0:0:0:0:
256,192,94000,1,8,0:0:0:0:
256,192,94125,1,8,0:0:0:0:
256,192,94250,1,8,0:0:0:0:
256,192,94500,1,0,0:0:0:0:
256,192,94750,1,0,0:0:0:0:
256,192,95000,1,8,0:0:0:0:
256,192,95500,1,0,0:0:0:0:
256,192,96000,1,8,0:0:0:0:
256,192,96250,1,8,0:0:0:0:
256,192,96500,1,8,0:0:0:0:
256,192,96625,1,8,0:0:0:0:
256,192,96750,1,8,0:0:0:0:
256,192,97000,1,0,0:0:0:0:
256,192,97250,1,0,0:0:0:0:
256,192,97500,1,0,0:0:0:0:
256,192,97625,1,0,0:0:0:0:
256,192,97750,1,0,0:0:0:0:
256,192,98000,1,8,0:0:0:0:
256,192,99000,1,0,0:0:0:0:
256,192,99500,1,8,0:0:0:0:
256,192,100000,1,0,0:0:0:0:
256,192,100250,1,0,0:0:0:0:
256,192,100500,1,0,0:0:0:0:
256,192,101000,1,8,0:0:0:0:
256,192,101250,1,8,0:0:0:0:
256,192,101500,1,8,0:0:0:0:
256,192,102000,1,0,0:0:0:0:
256,192,102250,1,0,0:0:0:0:
256,192,102500,1,8,0:0:0:0:
256,192,102750,1,8,0:0:0:0:
256,192,103000,1,0,0:0:0:0:
256,192,103500,1,8,0:0:0:0:
256,192,104000,1,0,0:0:0:0:
256,192,104250,1,0,0:0:0:0:
256,192,104500,1,8,0:0:0:0:
256,192,105000,1,8,0:0:0:0:
256,192,105250,1,8,0:0:0:0:
256,192,105500,1,0,0:0:0:0:
256,192,106000,1,0,0:0:0:0:
256,192,106250,1,8,0:0:0:0:
256,192,106500,1,0,0:0:0:0:
256,192,106750,1,8,0:0:0:0:
256,192,107000,1,0,0:0:0:0:
256,192,107500,1,8,0:0:0:0:
256,192,108250,1,0,0:0:0:0:
256,192,108500,1,0,0:0:0:0:
256,192,109000,1,8,0:0:0:0:
256,192,109250,1,8,0:0:0:0:
256,192,109500,1,8,0:0:0:0:
256,192,110000,1,0,0:0:0:0:
256,192,110250,1,0,0:0:0:0:
256,192,110500,1,8,0:0:0:0:
256,192,110750,1,0,0:0:0:0:
256,192,111000,1,0,0:0:0:0:
256,192,111500,1,8,0:0:0:0:
256,192,112000,1,0,0:0:0:0:
256,192,112250,1,8,0:0:0:0:
256,192,112500,1,8,0:0:0:0:
256,192,113000,1,8,0:0:0:0:
256,192,113250,1,0,0:0:0:0:
256,192,113500,1,0,0:0:0:0:
256,192,114000,1,0,0:0:0:0:
256,192,114250,1,8,0:0:0:0:
256,192,114500,1,8,0:0:0:0:
256,192,114750,1,8,0:0:0:0:
256,192,115000,1,0,0:0:0:0:
256,192,115500,1,8,0:0:0:0:
256,192,116000,1,0,0:0:0:0:
256,192,117000,1,8,0:0:0:0:
256,192,118000,1,0,0:0:0:0:
256,192,118500,1,0,0:0:0:0:
256,192,119000,1,8,0:0:0:0:
256,192,119500,1,8,0:0:0:0:
256,192,120000,1,0,0:0:0:0:
256,192,121000,1,8,0:0:0:0:
256,192,122000,1,0,0:0:0:0:
256,192,122500,1,0,0:0:0:0:
256,192,123000,1,8,0:0:0:0:
256,192,123500,1,8,0:0:0:0:
256,192,136000,5,0,0:0:0:0:
256,192,137000,1,8,0:0:0:0:
256,192,138000,1,0,0:0:0:0:
256,192,139000,1,8,0:0:0:0:
256,192,140000,1,0,0:0:0:0:
256,192,141000,1,0,0:0:0:0:
256,192,142000,1,8,0:0:0:0:
256,192,142500,1,8,0:0:0:0:
256,192,143000,1,8,0:0:0:0:
256,192,143250,1,8,0:0:0:0:
256,192,143500,1,8,0:0:0:0:
256,192,144000,1,4,0:0:0:0:
256,192,144500,1,8,0:0:0:0:
256,192,145000,1,0,0:0:0:0:
256,192,145250,1,0,0:0:0:0:
256,192,145500,1,8,0:0:0:0:
256,192,146000,1,0,0:0:0:0:
256,192,146125,1,8,0:0:0:0:
256,192,146250,1,0,0:0:0:0:
256,192,146750,1,8,0:0:0:0:
256,192,147000,1,0,0:0:0:0:
256,192,147500,1,0,0:0:0:0:
256,192,148000,1,8,0:0:0:0:
256,192,148500,1,0,0:0:0:0:
256,192,149000,1,8,0:0:0:0:
256,192,149250,1,8,0:0:0:0:
256,192,149500,1,0,0:0:0:0:
256,192,150000,1,8,0:0:0:0:
256,192,150125,1,0,0:0:0:0:
256,192,150250,1,8,0:0:0:0:
256,192,150750,1,0,0:0:0:0:
256,192,151000,1,8,0:0:0:0:
256,192,151500,1,8,0:0:0:0:
256,192,152125,1,0,0:0:0:0:
256,192,152250,1,0,0:0:0:0:
256,192,152500,1,8,0:0:0:0:
256,192,152750,1,8,0:0:0:0:
256,192,153000,1,0,0:0:0:0:
256,192,153500,1,8,0:0:0:0:
256,192,154000,1,0,0:0:0:0:
256,192,154125,1,0,0:0:0:0:
256,192,154250,1,8,0:0:0:0:
256,192,154750,1,8,0:0:0:0:
256,192,155000,1,0,0:0:0:0:
256,192,155500,1,0,0:0:0:0:
256,192,156000,1,8,0:0:0:0:
256,192,156125,1,8,0:0:0:0:
256,192,156250,1,8,0:0:0:0:
256,192,156500,1,0,0:0:0:0:
256,192,156750,1,0,0:0:0:0:
256,192,157000,1,8,0:0:0:0:
256,192,157500,1,0,0:0:0:0:
256,192,158000,1,8,0:0:0:0:
256,192,158125,1,8,0:0:0:0:
256,192,158250,1,0,0:0:0:0:
256,192,158750,1,0,0:0:0:0:
256,192,159000,1,8,0:0:0:0:
256,192,159500,1,8,0:0:0:0:
256,192,160000,1,0,0:0:0:0:
256,192,160500,1,8,0:0:0:0:
256,192,160750,1,0,0:0:0:0:
256,192,161000,1,8,0:0:0:0:
256,192,161250,1,8,0:0:0:0:
256,192,161500,1,0,0:0:0:0:
256,192,162000,1,0,0:0:0:0:
256,192,162125,1,0,0:0:0:0:
256,192,162250,1,8,0:0:0:0:
256,192,162500,1,0,0:0:0:0:
256,192,162750,1,0,0:0:0:0:
256,192,163000,1,8,0:0:0:0:
256,192,163500,1,0,0:0:0:0:
256,192,164000,1,8,0:0:0:0:
256,192,164500,1,0,0:0:0:0:
256,192,164750,1,8,0:0:0:0:
256,192,165000,1,0,0:0:0:0:
256,192,165250,1,0,0:0:0:0:
256,192,165500,1,8,0:0:0:0:
256,192,166000,1,8,0:0:0:0:
256,192,166125,1,8,0:0:0:0:
256,192,166250,1,0,0:0:0:0:
256,192,166500,1,8,0:0:0:0:
256,192,166750,1,8,0:0:0:0:
256,192,167000,1,0,0:0:0:0:
256,192,167500,1,8,0:0:0:0:
256,192,167625,1,8,0:0:0:0:
256,192,167750,1,8,0:0:0:0:
256,192,168000,1,0,0:0:0:0:
256,192,168500,12,0,172000,0:0:0:0:
