osu file format v14

[General]
AudioFilename: audio.mp3
AudioLeadIn: 0
PreviewTime: 4821
Countdown: 0
SampleSet: Soft
StackLeniency: 1
Mode: 0
LetterboxInBreaks: 0
WidescreenStoryboard: 1

[Editor]
DistanceSpacing: 1.2
BeatDivisor: 4
GridSize: 16
TimelineZoom: 1.7

[Metadata]
Title:Zen Zen Zense
TitleUnicode:前前前世
Artist:Gom (HoneyWorks)
ArtistUnicode:Gom (HoneyWorks)
Creator:VINXIS
Version:deetz' Hard
Source:君の名は。
Tags:kimi no na wa your name makoto shinkai 新海 誠 Oji RADWIMPS cover 歌ってみた deetz
BeatmapID:1900903
BeatmapSetID:545931

[Difficulty]
HPDrainRate:5
CircleSize:4
OverallDifficulty:7
ApproachRate:8
SliderMultiplier:1.4
SliderTickRate:1

[Events]
//Background and Video events
0,0,"ygzg317syilx.jpg",0,0
//Break Periods
//Storyboard Layer 0 (Background)
//Storyboard Layer 1 (Fail)
//Storyboard Layer 2 (Pass)
//Storyboard Layer 3 (Foreground)
//Storyboard Sound Samples

[TimingPoints]
243,315.789473684211,4,2,4,50,1,0
5295,315.621854043392,4,2,4,50,1,0
22969,322.58064516129,4,2,4,50,1,0
24116,317.460317460317,4,2,4,50,1,0
24433,315.789473684211,4,2,4,50,1,0
24590,256.410256410256,4,2,4,50,1,0
24590,-117.647058823529,4,2,4,50,0,0
24718,315.789473684211,4,2,4,50,1,0
24890,315.789473684211,4,2,4,50,1,0
25020,315.789473684211,4,2,4,50,1,0
25190,315.789473684211,4,2,4,50,1,0
25330,315.789473684211,4,2,4,50,1,0
25478,317.460317460317,4,2,0,50,1,0
28017,-200,4,2,0,50,0,0
29944,315.789473684211,4,2,4,50,1,0

[Colours]
Combo1 : 168,196,159
Combo2 : 187,198,208
Combo3 : 226,215,173
Combo4 : 208,187,198

[HitObjects]
53,215,243,6,0,L|4:193,2,35,0|0|2,0:0|0:0|0:0,0:0:0:0:
100,145,558,2,0,P|136:131|173:125,1,70,0|2,0:0|0:0,0:0:0:0:
179,41,874,2,0,P|225:74|313:75,1,140,0|2,0:0|0:0,0:0:0:0:
380,199,1348,2,0,P|334:166|246:165,1,140,2|0,0:0|0:0,0:0:0:0:
231,243,1821,1,2,0:0:0:0:
212,324,1979,1,0,0:0:0:0:
294,300,2137,6,0,L|316:389,1,70,2|2,0:0|0:0,0:0:0:0:
134,300,2453,1,2,0:0:0:0:
134,300,2769,2,0,L|117:343,2,35,2|0|0,0:0|0:0|0:0,0:0:0:0:
83,232,3085,2,0,P|74:191|65:151,1,70,0|2,0:0|0:0,0:0:0:0:
151,172,3400,2,0,P|142:131|133:91,1,70,0|2,0:0|0:0,0:0:0:0:
219,112,3716,2,0,P|210:71|201:31,1,70,0|2,0:0|0:0,0:0:0:0:
31,0,4032,6,0,L|56:113,1,93.3333333333333,0|0,0:0|0:0,0:0:0:0:
255,175,4453,6,0,L|230:62,1,93.3333333333333,0|0,0:0|0:0,0:0:0:0:
227,74,5295,6,0,P|278:55|368:65,1,140,4|8,0:0|0:0,0:0:0:0:
362,63,5926,2,0,L|343:143,1,70,4|4,0:3|0:3,0:0:0:0:
405,190,6241,1,8,0:0:0:0:
387,270,6399,1,4,0:0:0:0:
469,287,6557,1,0,0:0:0:0:
486,206,6715,2,0,P|452:215|418:225,1,70,4|8,0:3|0:0,0:0:0:0:
312,337,7030,2,0,P|364:346|456:370,1,140,0|4,0:0|0:3,0:0:0:0:
235,356,7504,2,0,P|190:365|162:371,1,70,8|0,0:0|0:0,0:0:0:0:
258,279,7819,5,4,0:2:0:0:
258,279,7977,2,0,P|259:225|232:130,1,140,2|0,0:1|0:1,0:0:0:0:
91,33,8451,1,2,0:1:0:0:
11,59,8609,1,2,0:1:0:0:
11,59,8766,1,8,0:0:0:0:
37,138,8924,2,2,P|94:121|181:98,1,140,6|2,0:2|0:1,0:1:0:0:
254,119,9398,2,0,L|331:140,1,70,2|0,0:1|0:0,0:0:0:0:
385,83,9713,2,0,P|443:50|455:34,2,70,8|8|8,0:3|0:3|0:0,0:0:0:0:
407,174,10187,1,4,0:3:0:0:
407,174,10266,1,4,0:3:0:0:
407,174,10344,6,0,P|438:211|478:325,1,140,4|8,0:0|0:0,0:0:0:0:
473,294,10976,2,0,L|464:370,1,70,4|2,0:3|0:3,0:0:0:0:
390,317,11291,1,8,0:0:0:0:
390,317,11449,2,0,P|343:321|244:331,1,140,4|4,0:0|0:3,0:0:0:0:
170,358,11923,2,0,L|101:342,1,70,8|0,0:0|0:0,0:0:0:0:
19,358,12238,1,4,0:3:0:0:
19,358,12396,1,4,0:3:0:0:
19,358,12554,1,8,0:0:0:0:
19,26,12869,6,0,P|29:61|38:105,1,70,4|0,0:0|0:0,0:0:0:0:
100,235,13185,1,8,0:0:0:0:
100,235,13343,2,0,P|92:200|82:167,1,70,4|0,0:0|0:0,0:0:0:0:
144,31,13658,2,0,P|153:64|161:98,1,70,4|8,0:0|0:0,0:0:0:0:
250,236,13974,6,0,P|260:186|281:95,1,140,4|0,0:0|0:0,0:0:0:0:
303,17,14448,1,8,0:0:0:0:
375,151,14605,2,0,P|424:126|442:38,1,140,4|4,0:3|0:3,0:0:0:0:
303,17,15079,2,0,L|373:50,1,70,8|4,0:0|0:3,0:0:0:0:
465,217,15394,6,0,P|459:264|442:370,1,140,4|8,0:0|0:0,0:0:0:0:
444,355,16026,2,0,P|418:319|405:296,1,70,4|4,0:3|0:3,0:0:0:0:
373,219,16341,1,8,0:0:0:0:
338,353,16499,2,0,P|315:316|246:292,1,105,4|0,0:0|0:0,0:0:0:0:
260,291,16815,2,0,P|215:296|188:301,1,70,4|8,0:3|0:0,0:0:0:0:
283,208,17130,2,0,P|220:215|132:228,1,140,0|4,0:0|0:3,0:0:0:0:
0,309,17604,2,0,L|32:374,1,70,8|0,0:0|0:0,0:0:0:0:
108,266,17919,6,2,P|117:210|76:132,1,140,4|2,0:0|0:1,0:1:0:0:
23,75,18393,1,2,0:1:0:0:
144,0,18551,2,4,P|135:56|157:90,1,70,4|2,0:3|0:1,0:3:0:0:
191,189,18866,1,8,0:0:0:0:
191,189,19024,2,2,P|248:184|310:107,1,140,4|2,0:2|1:1,1:0:0:0:
288,44,19497,1,8,0:0:0:0:
371,31,19655,6,0,P|380:72|386:119,1,70,0|4,0:0|0:3,0:0:0:0:
362,181,19971,2,0,P|371:222|377:269,1,70,4|8,0:3|0:0,0:0:0:0:
488,259,20287,1,4,0:3:0:0:
476,339,20444,6,0,P|423:330|316:327,1,140,4|8,0:0|0:0,0:0:0:0:
336,326,21076,2,0,L|269:354,1,70,4|2,0:3|0:3,0:0:0:0:
188,341,21391,1,8,0:0:0:0:
188,341,21549,6,0,P|174:299|178:197,1,140,4|4,0:0|0:3,0:0:0:0:
208,126,22022,1,8,0:0:0:0:
175,51,22180,1,0,0:0:0:0:
90,30,22338,2,0,P|40:33|5:39,1,70,4|4,0:3|0:3,0:0:0:0:
175,51,22654,2,0,P|225:48|260:42,1,70,8|0,0:0|0:0,0:0:0:0:
85,113,22969,6,0,P|47:125|16:221,1,140,4|8,0:0|0:0,0:0:0:0:
157,348,23614,1,4,0:3:0:0:
238,326,23775,1,4,0:3:0:0:
319,304,23936,1,8,0:0:0:0:
393,366,24116,6,0,P|402:318|398:219,1,140
316,107,24590,6,0,P|309:55|308:30,1,59.5000011348725,8|4,0:0|0:3,0:0:0:0:
410,130,24890,2,0,P|403:78|402:48,1,58.03
498,154,25190,2,0,P|506:204|507:255,1,62.4633
430,314,25478,5,4,0:0:0:0:
263,294,25795,1,4,0:3:0:0:
96,274,26112,1,8,0:1:0:0:
1,134,26430,5,4,0:3:0:0:
1,134,26589,1,8,0:1:0:0:
83,121,26747,2,0,P|118:116|152:110,2,70,4|8|4,0:3|0:1|0:3,0:0:0:0:
117,24,27224,1,0,0:0:0:0:
117,24,27382,2,0,P|177:29|249:99,1,140,8|4,0:1|0:3,0:0:0:0:
252,160,27858,1,4,0:3:0:0:
286,13,28017,6,0,B|320:-21|356:-14|388:13|398:52|382:100|382:100|363:164|378:217|421:245,1,350,4|0,0:1|0:0,0:0:0:0:
440,242,29944,5,4,0:0:0:0:
440,242,30101,2,0,P|434:289|417:339,1,70,4|0,0:0|0:0,0:0:0:0:
