osu file format v14

[General]
AudioFilename: audio.mp3
AudioLeadIn: 0
PreviewTime: 4664
Countdown: 0
SampleSet: Soft
StackLeniency: 0.7
Mode: 0
LetterboxInBreaks: 0
WidescreenStoryboard: 0

[Editor]
Bookmarks: 15394
DistanceSpacing: 1
BeatDivisor: 4
GridSize: 16
TimelineZoom: 1.8

[Metadata]
Title:Zen Zen Zense
TitleUnicode:前前前世
Artist:Gom (HoneyWorks)
ArtistUnicode:Gom(HoneyWorks)
Creator:MugiwaraSekai
Version:Normal
Source:君の名は。
Tags:kalibe sotarks pkhg kimi no na wa your name makoto shinkai 新海 誠 Oji RADWIMPS cover 歌ってみた
BeatmapID:1071233
BeatmapSetID:503141

[Difficulty]
HPDrainRate:4.5
CircleSize:3.3
OverallDifficulty:4
ApproachRate:5.5
SliderMultiplier:1.2
SliderTickRate:1

[Events]
//Background and Video events
0,0,"kiminonawa.jpg",0,0
//Break Periods
//Storyboard Layer 0 (Background)
//Storyboard Layer 1 (Fail)
//Storyboard Layer 2 (Pass)
//Storyboard Layer 3 (Foreground)
//Storyboard Sound Samples

[TimingPoints]
243,315.789473684211,4,2,1,50,1,0
5295,315.621854043392,4,2,1,50,1,0
22969,322.58064516129,4,2,1,50,1,0
24116,317.460317460317,4,2,1,50,1,0
24433,315.789473684211,4,2,1,50,1,0
24590,256.410256410256,4,2,1,50,1,0
24718,315.789473684211,4,2,1,50,1,0
24890,315.789473684211,4,2,1,50,1,0
25020,315.789473684211,4,2,1,50,1,0
25190,315.789473684211,4,2,1,50,1,0
25330,315.789473684211,4,2,1,50,1,0
25478,317.460317460317,4,2,1,50,1,0
29287,-100,4,2,1,20,0,0
29944,315.789473684211,4,2,1,50,1,0
30259,-100,4,2,1,25,0,0

[Colours]
Combo1 : 168,196,159
Combo2 : 187,198,208
Combo3 : 226,215,173
Combo4 : 208,187,198

[HitObjects]
98,86,243,6,0,B|94:126|94:126|102:165,1,60,2|0,0:0|0:0,0:0:0:0:
81,203,558,2,0,P|142:190|204:197,1,120,2|2,0:0|0:3,0:0:0:0:
308,245,1190,1,2,0:0:0:0:
308,245,1348,2,0,B|334:220|344:190|344:190|344:151|325:119,1,120,2|0,0:3|0:0,0:0:0:0:
293,91,1821,2,0,L|224:103,1,60,2|0,0:0|0:0,0:0:0:0:
173,99,2137,2,0,L|183:23,2,60,2|0|2,0:3|0:0|0:3,0:0:0:0:
79,175,2769,6,0,B|71:195|71:234|71:234|82:265|107:289,1,120,2|0,0:0|0:0,0:0:0:0:
151,320,3243,2,0,P|204:308|289:322,1,120,4|0,0:3|0:0,0:0:0:0:
327,325,3716,1,2,0:0:0:0:
420,249,4032,6,0,B|399:200|424:156|424:156|395:124|414:72|414:72|379:74|357:113,1,240,2|2,0:2|0:3,0:0:0:0:
128,113,5295,6,0,B|128:174|128:174|146:246,1,120,4|8,0:0|0:0,0:0:0:0:
238,303,5926,2,0,L|233:365,2,60,2|2|8,0:0|0:0|0:0,0:0:0:0:
288,269,6399,2,0,B|331:254|331:254|427:264,1,120,4|0,0:0|0:0,0:0:0:0:
459,236,6873,1,8,0:0:0:0:
400,132,7188,2,0,P|432:118|475:114,2,60,2|2|8,0:0|0:0|0:0,0:0:0:0:
285,96,7819,6,0,B|230:73|230:73|205:95|171:102|153:94,1,120,4|8,0:0|0:0,0:0:0:0:
64,50,8451,2,0,P|32:36|-11:32,2,60,2|2|8,0:0|0:0|0:0,0:0:0:0:
90,104,8924,2,0,P|77:168|63:238,1,120,4|0,0:0|0:0,0:0:0:0:
19,259,9398,1,8,0:0:0:0:
119,324,9713,2,0,L|191:332,1,60,2|0,0:0|0:0,0:0:0:0:
233,305,10029,2,0,L|292:311,1,60,8|2,0:0|0:0,0:0:0:0:
349,291,10344,6,0,P|349:232|375:178,1,120,4|8,0:0|0:0,0:0:0:0:
331,65,10976,2,0,L|260:69,1,60,2|2,0:0|0:0,0:0:0:0:
211,74,11291,1,8,0:0:0:0:
211,74,11449,2,0,P|211:133|185:187,1,120,4|0,0:0|0:0,0:0:0:0:
128,209,11923,1,8,0:0:0:0:
214,291,12238,2,0,L|285:295,1,60,2|2,0:0|0:0,0:0:0:0:
334,293,12554,1,8,0:0:0:0:
406,197,12869,6,0,B|416:161|445:137|445:137|415:114|407:78,1,120,4|8,0:0|0:0,0:0:0:0:
297,127,13501,2,0,P|303:163|322:194,2,60,2|2|8,0:0|0:0|0:0,0:0:0:0:
255,83,13974,2,0,B|214:69|214:69|159:85|115:63,1,120,4|0,0:0|0:0,0:0:0:0:
78,83,14448,1,8,0:0:0:0:
78,83,14605,2,0,P|86:164|93:222,1,120,4|0,0:0|0:0,0:0:0:0:
69,259,15079,2,0,B|77:297|77:297|73:329,1,60,8|2,0:0|0:0,0:0:0:0:
127,346,15394,6,0,B|168:332|168:332|223:348|267:326,1,120,4|8,0:0|0:0,0:0:0:0:
361,308,16026,2,0,P|411:313|436:319,2,60,2|2|8,0:0|0:0|0:0,0:0:0:0:
309,276,16499,2,0,B|288:256|277:225|277:225|277:186|285:166,1,120,4|0,0:0|0:0,0:0:0:0:
312,112,16973,1,8,0:0:0:0:
430,129,17288,2,0,L|500:138,2,60,2|2|8,0:0|0:0|0:0,0:0:0:0:
354,35,17919,6,0,P|291:26|233:71,1,120,4|8,0:0|0:0,0:0:0:0:
151,130,18551,2,0,P|116:118|85:85,2,60,2|2|8,0:0|0:0|0:0,0:0:0:0:
210,133,19024,2,0,P|190:194|203:247,1,120,4|0,0:0|0:0,0:0:0:0:
250,282,19497,1,8,0:0:0:0:
358,333,19813,2,0,P|399:326|422:310,1,60,2|2,0:0|0:0,0:0:0:0:
463,281,20129,1,8,0:0:0:0:
505,169,20444,6,0,B|471:156|437:163|437:163|420:132|369:130,1,120,4|8,0:0|0:0,0:0:0:0:
293,72,21076,2,0,P|251:58|210:60,1,60,2|2,0:0|0:0,0:0:0:0:
175,62,21391,1,8,0:0:0:0:
175,62,21549,2,0,P|182:138|189:200,1,120,4|0,0:0|0:0,0:0:0:0:
164,236,22022,1,8,0:0:0:0:
264,301,22338,2,0,L|336:306,1,60,2|2,0:0|0:0,0:0:0:0:
385,310,22654,1,8,0:0:0:0:
464,224,22969,6,0,P|417:195|352:197,1,120,4|8,0:0|0:0,0:0:0:0:
252,131,23614,2,0,P|247:177|250:206,2,60,2|2|8,0:0|0:0|0:0,0:0:0:0:
278,68,24116,2,0,P|241:83|156:59,1,120,4|8,0:0|0:0,0:0:0:0:
116,47,24590,1,0,0:0:0:0:
116,47,24718,6,0,B|103:73|104:106|104:106|118:142|133:158,1,115,2|2,0:0|0:0,0:0:0:0:
162,209,25190,2,0,B|171:249|171:249|167:286,1,53,8|8,0:0|0:0,0:0:0:0:
151,314,25478,6,0,B|215:291|271:320|271:320|323:293|392:311,1,240,4|12,0:0|0:0,0:0:0:0:
466,221,26430,2,0,P|437:200|409:193,1,60,2|2,0:0|0:0,0:0:0:0:
366,156,26747,2,0,L|360:88,2,60,10|2|2,0:0|0:0|0:0,0:0:0:0:
268,226,27382,2,0,B|188:199|119:221|119:221|149:172|123:119,1,240,4|4,0:0|0:0,0:0:0:0:
256,192,28176,12,0,29287,0:0:0:0:
256,192,29944,5,0,1:0:0:0:
256,192,30101,2,0,P|309:201|343:206,1,60,0|0,1:0|0:0,0:0:0:0:
