osu file format v14

[General]
AudioFilename: audio.mp3
AudioLeadIn: 0
PreviewTime: 164
Countdown: 0
SampleSet: Soft
StackLeniency: 0.6
Mode: 0
LetterboxInBreaks: 0
WidescreenStoryboard: 0

[Editor]
DistanceSpacing: 0.4
BeatDivisor: 4
GridSize: 4
TimelineZoom: 1

[Metadata]
Title:Zen Zen Zense
TitleUnicode:前前前世
Artist:Gom (HoneyWorks)
ArtistUnicode:Gom (HoneyWorks)
Creator:MrDorian
Version:Insane
Source:君の名は。
Tags:Chalwa Krfawy Kimi no Na Wa Your Name Acoustic Cover RADWIMPS makoto shinkai 新海 誠 oji 歌ってみた
BeatmapID:1236039
BeatmapSetID:584224

[Difficulty]
HPDrainRate:6
CircleSize:5
OverallDifficulty:8
ApproachRate:8
SliderMultiplier:1.6
SliderTickRate:1

[Events]
//Background and Video events
0,0,"zenzenzen.jpg",0,0
//Break Periods
//Storyboard Layer 0 (Background)
//Storyboard Layer 1 (Fail)
//Storyboard Layer 2 (Pass)
//Storyboard Layer 3 (Foreground)
//Storyboard Sound Samples

[TimingPoints]
243,315.78946,4,2,1,45,1,0
5295,315.62186,4,2,1,45,1,0
5295,-100,4,2,1,45,0,1
10344,-100,4,2,1,45,0,0
15394,-100,4,2,1,45,0,1
20444,-100,4,2,1,45,0,0
22969,322.58066,4,2,1,45,1,0
22969,-97.8947323389476,4,2,1,45,0,0
24116,317.46033,4,2,1,45,1,0
24116,-99.473680281316,4,2,1,45,0,0
24433,315.78946,4,2,1,45,1,0
24590,256.41025,4,2,1,45,1,0
24590,-123.15789781579,4,2,1,45,0,0
24718,315.78946,4,2,1,45,1,0
24890,315.78946,4,2,1,45,1,0
25020,315.78946,4,2,1,45,1,0
25190,315.78946,4,2,1,45,1,0
25330,315.78946,4,2,1,45,1,0
25478,317.46033,4,2,1,45,1,0
25478,-99.473680281316,4,2,1,45,0,0
28017,-200,4,2,1,45,0,0
29287,-100,4,2,1,5,0,0
29944,315.78946,4,2,1,45,1,0
30259,-100,4,2,1,5,0,0

[Colours]
Combo1 : 31,152,40
Combo2 : 245,37,27
Combo3 : 32,77,230
Combo4 : 43,213,221

[HitObjects]
113,198,243,5,0,0:0:0:0:
113,198,321,1,0,0:0:0:0:
113,198,400,1,0,0:0:0:0:
180,264,558,2,0,P|193:312|192:349,1,80
266,229,874,2,0,P|267:189|278:151,1,80
333,77,1190,1,0,0:0:0:0:
142,113,1348,6,0,P|139:162|180:264,1,160
324,344,1821,1,0,0:0:0:0:
219,336,1979,1,0,0:0:0:0:
393,243,2137,5,0,0:0:0:0:
300,264,2295,1,0,0:0:0:0:
228,327,2453,1,0,0:0:0:0:
400,248,2769,5,0,0:0:0:0:
400,248,2848,1,0,0:0:0:0:
400,248,2927,1,0,0:0:0:0:
434,124,3085,2,0,L|451:45,1,80
337,83,3400,2,0,L|319:161,1,80
254,231,3716,1,0,0:0:0:0:
370,201,3874,1,0,0:0:0:0:
182,180,4032,6,0,P|123:178|66:146,1,120
198,88,4466,2,0,P|155:62|106:59,1,100
182,180,5295,6,0,P|259:179|345:200,1,160,2|8,0:0|0:0,0:0:0:0:
396,268,5768,1,0,0:0:0:0:
316,122,5926,1,2,0:0:0:0:
316,122,6084,1,2,0:0:0:0:
494,179,6241,1,8,0:0:0:0:
339,332,6399,6,0,L|178:343,1,160,2|2,0:0|0:0,0:0:0:0:
27,235,6873,2,0,L|108:240,1,80,8|0,0:0|0:0,0:0:0:0:
184,145,7188,1,2,0:0:0:0:
184,145,7346,1,2,0:0:0:0:
84,302,7504,2,0,L|4:297,1,80,8|0,0:0|0:0,0:0:0:0:
218,254,7819,6,0,P|319:238|379:199,1,160,2|8,0:0|0:0,0:0:0:0:
415,134,8293,1,0,0:0:0:0:
377,290,8451,1,2,0:0:0:0:
377,290,8609,1,2,0:0:0:0:
512,167,8766,1,8,0:0:0:0:
298,121,8924,6,0,L|138:125,1,160,0|2,0:0|0:0,0:0:0:0:
18,263,9398,2,0,P|56:278|121:279,1,80,8|0,0:0|0:0,0:0:0:0:
199,214,9713,1,2,0:0:0:0:
199,214,9871,1,2,0:0:0:0:
67,345,10029,1,8,0:0:0:0:
225,317,10187,1,2,0:0:0:0:
225,317,10266,1,0,0:0:0:0:
225,317,10344,6,0,L|386:313,1,160,2|8,0:0|0:0,0:0:0:0:
472,359,10818,1,0,0:0:0:0:
450,234,10976,1,2,0:0:0:0:
450,234,11134,1,2,0:0:0:0:
372,371,11291,1,8,0:0:0:0:
301,199,11449,6,0,P|226:169|141:180,1,160,2|2,0:0|0:0,0:0:0:0:
49,301,11923,2,0,B|86:313|128:304,1,80,8|0,0:0|0:0,0:0:0:0:
62,202,12238,1,2,0:0:0:0:
62,202,12396,1,2,0:0:0:0:
201,274,12554,2,0,B|243:265|280:277,1,80,8|0,0:0|0:0,0:0:0:0:
129,166,12869,6,0,P|99:91|110:6,1,160,2|8,0:0|0:0,0:0:0:0:
181,66,13343,1,0,0:0:0:0:
292,17,13501,1,2,0:0:0:0:
292,17,13658,1,2,0:0:0:0:
253,172,13816,1,8,0:0:0:0:
400,99,13974,6,0,L|236:108,1,160,2|2,0:0|0:0,0:0:0:0:
338,230,14448,1,8,0:0:0:0:
182,289,14605,6,0,L|341:297,1,160,2|2,0:0|0:0,0:0:0:0:
206,213,15079,1,8,0:0:0:0:
54,345,15237,1,8,0:0:0:0:
54,345,15315,1,8,0:0:0:0:
54,345,15394,6,8,P|41:288|51:182,1,160,10|8,0:0|0:0,0:0:0:0:
129,133,15868,1,0,0:0:0:0:
23,24,16026,1,2,0:0:0:0:
23,24,16183,1,2,0:0:0:0:
204,62,16341,1,8,0:0:0:0:
19,183,16499,6,0,L|189:199,1,160,2|2,0:0|0:0,0:0:0:0:
351,114,16973,2,0,L|342:229,1,80,8|0,0:0|0:0,0:0:0:0:
267,298,17288,1,2,0:0:0:0:
267,298,17446,1,2,0:0:0:0:
416,178,17604,2,0,L|422:98,1,80,8|0,0:0|0:0,0:0:0:0:
221,12,17919,6,0,P|209:62|242:166,1,160,2|8,0:0|0:0,0:0:0:0:
312,226,18393,1,0,0:0:0:0:
186,312,18551,1,2,0:0:0:0:
186,312,18708,1,2,0:0:0:0:
370,283,18866,1,8,0:0:0:0:
164,204,19024,6,0,P|102:243|80:331,1,160,2|2,0:0|0:0,0:0:0:0:
60,139,19497,2,0,P|35:96|1:62,1,80,8|0,0:0|0:0,0:0:0:0:
127,12,19813,1,2,0:0:0:0:
127,12,19971,1,2,0:0:0:0:
246,152,20129,2,0,L|333:144,1,80,8|0,0:0|0:0,0:0:0:0:
480,268,20444,6,0,L|308:283,1,160,2|8,0:0|0:0,0:0:0:0:
246,346,20918,1,0,0:0:0:0:
273,227,21076,1,2,0:0:0:0:
273,227,21233,1,2,0:0:0:0:
329,372,21391,1,8,0:0:0:0:
189,248,21549,6,0,L|204:76,1,160,2|2,0:0|0:0,0:0:0:0:
97,198,22022,2,0,P|85:244|92:289,1,80,8|0,0:0|0:0,0:0:0:0:
182,362,22338,1,2,0:0:0:0:
182,362,22496,1,2,0:0:0:0:
323,284,22654,2,0,P|335:246|334:206,1,80,8|0,0:0|0:0,0:0:0:0:
197,71,22969,6,0,L|378:94,1,163.440872282359,2|8,0:0|0:0,0:0:0:0:
437,138,23452,1,0,0:0:0:0:
490,257,23614,1,2,0:0:0:0:
490,257,23775,1,2,0:0:0:0:
362,343,23936,1,8,0:0:0:0:
202,244,24116,6,0,P|271:187|346:165,1,160.846569936649,2|2,0:0|0:0,0:0:0:0:
228,52,24590,1,8,0:0:0:0:
144,140,24718,2,0,L|132:220,1,80
12,332,25020,1,2,0:0:0:0:
24,176,25190,1,8,0:0:0:0:
90,357,25330,1,2,0:0:0:0:
90,357,25408,1,0,0:0:0:0:
90,357,25478,6,0,L|254:366,1,160.846569936649,2|2,0:0|0:0,0:0:0:0:
373,268,26112,1,8,0:0:0:0:
287,180,26430,5,2,0:0:0:0:
378,55,26589,1,8,0:0:0:0:
268,104,26747,1,2,0:0:0:0:
390,196,26906,1,8,0:0:0:0:
299,281,27065,1,2,0:0:0:0:
137,297,27382,6,0,P|112:211|136:137,1,160.846569936649,8|2,0:0|0:0,0:0:0:0:
211,91,27858,1,10,0:0:0:0:
200,217,28017,6,0,B|277:237|348:176|348:176|343:268|417:319,1,320,0|2,0:0|0:0,0:0:0:0:
412,315,29944,5,2,0:0:0:0:
332,315,30101,2,0,L|412:315,1,80,2|0,0:0|0:0,0:0:0:0:
