osu file format v14

[General]
AudioFilename: audio.mp3
AudioLeadIn: 0
PreviewTime: 4743
Countdown: 0
SampleSet: Soft
StackLeniency: 0.7
Mode: 2
LetterboxInBreaks: 0
WidescreenStoryboard: 0

[Editor]
DistanceSpacing: 0.8
BeatDivisor: 4
GridSize: 8
TimelineZoom: 1

[Metadata]
Title:Zen Zen Zense
TitleUnicode:前前前世
Artist:Gom (HoneyWorks)
ArtistUnicode:Gom(HoneyWorks)
Creator:Ascendance
Version:Overdose
Source:君の名は。
Tags:kimi no na wa your name makoto shinkai 新海 誠 Oji RADWIMPS cover 歌ってみた celerih hikikochan californian darknessofblue fawx
BeatmapID:1211152
BeatmapSetID:571481

[Difficulty]
HPDrainRate:7
CircleSize:4.2
OverallDifficulty:9.2
ApproachRate:9.2
SliderMultiplier:1.92
SliderTickRate:2

[Events]
//Background and Video events
0,0,"cropped-1920-1080-740289.png",0,0
//Break Periods
//Storyboard Layer 0 (Background)
//Storyboard Layer 1 (Fail)
//Storyboard Layer 2 (Pass)
//Storyboard Layer 3 (Foreground)
//Storyboard Sound Samples

[TimingPoints]
243,315.789473684211,4,2,1,50,1,0
4190,-100,4,2,1,5,0,0
4269,-100,4,2,1,50,0,0
4387,-100,4,2,1,5,0,0
4466,-100,4,2,1,50,0,0
4585,-100,4,2,1,5,0,0
4664,-100,4,2,1,50,0,0
4782,-100,4,2,1,5,0,0
5295,315.621854043392,4,2,1,50,1,0
5531,-100,4,2,1,5,0,0
5610,-100,4,2,1,50,0,0
5847,-100,4,2,1,5,0,0
5926,-100,4,2,1,50,0,0
6162,-100,4,2,1,5,0,0
6241,-100,4,2,1,50,0,0
8214,-100,4,2,1,5,0,0
8293,-100,4,2,1,50,0,0
15631,-100,4,2,1,5,0,0
15710,-100,4,2,1,50,0,0
15947,-100,4,2,1,5,0,0
16026,-100,4,2,1,50,0,0
16262,-100,4,2,1,5,0,0
16341,-100,4,2,1,50,0,0
16736,-100,4,2,1,30,0,0
16815,-100,4,2,1,50,0,0
17051,-100,4,2,1,30,0,0
17130,-100,4,2,1,50,0,0
22969,322.58064516129,4,2,1,50,1,0
24116,317.460317460317,4,2,1,50,1,0
24433,315.789473684211,4,2,1,50,1,0
24590,256.410256410256,4,2,1,50,1,0
24718,315.789473684211,4,2,1,50,1,0
24890,315.789473684211,4,2,1,50,1,0
25020,315.789473684211,4,2,1,50,1,0
25126,-100,4,2,1,5,0,0
25190,315.789473684211,4,2,1,50,1,0
25330,315.789473684211,4,2,1,50,1,0
25478,317.460317460317,4,2,1,50,1,0
29287,-100,4,2,1,20,0,0
29944,315.789473684211,4,2,1,50,1,0
30259,-100,4,2,1,22,0,0

[HitObjects]
136,264,243,6,0,L|120:192,2,48,0|0|0,3:0|3:0|3:0,0:0:0:0:
248,128,558,2,0,L|112:136,1,96,0|0,3:0|0:0,0:0:0:0:
328,56,874,2,0,L|448:64,2,96,0|0|0,3:0|0:0|3:0,0:0:0:0:
64,88,1348,6,0,P|16:152|72:256,1,192,0|0,3:0|0:0,0:0:0:0:
144,312,1821,2,0,L|256:304,1,96,0|0,3:0|0:0,0:0:0:0:
336,224,2137,1,0,3:0:0:0:
224,232,2295,1,0,0:0:0:0:
440,184,2453,2,0,L|464:32,1,144,0|0,3:0|0:0,0:0:0:0:
240,24,2769,5,0,3:0:0:0:
202,52,2847,1,0,3:0:0:0:
186,97,2926,1,0,3:0:0:0:
196,143,3005,1,0,3:0:0:0:
230,176,3084,1,0,3:0:0:0:
352,216,3243,1,0,0:0:0:0:
216,296,3400,2,0,L|352:296,2,96,0|0|0,3:0|0:0|3:0,0:0:0:0:
88,296,3874,1,0,0:0:0:0:
456,160,4032,5,0,3:0:0:0:
280,160,4269,1,0,3:0:0:0:
456,160,4506,1,0,0:0:0:0:
88,160,4664,5,0,3:0:0:0:
216,160,4821,2,0,L|336:160,2,96,0|0|0,0:0|0:0|0:0,0:0:0:0:
448,344,5295,6,0,L|472:184,1,144,0|0,1:0|0:0,0:0:0:0:
248,240,5610,2,0,L|232:96,1,144,0|0,1:0|0:0,0:0:0:0:
448,344,5926,2,0,L|472:200,1,144,0|0,1:0|0:0,0:0:0:0:
264,136,6241,2,0,L|168:120,1,96,8|2,0:0|0:0,0:0:0:0:
336,80,6557,5,0,0:0:0:0:
192,208,6715,2,0,L|200:304,1,96,2|8,0:0|0:0,0:0:0:0:
320,360,7030,2,0,P|376:304|320:192,1,192,2|2,0:0|0:0,0:0:0:0:
232,144,7504,2,0,L|136:152,1,96,8|2,0:0|0:0,0:0:0:0:
464,48,7819,6,0,L|456:168,1,96,0|0,1:0|1:0,0:0:0:0:
328,176,8135,1,0,0:0:0:0:
424,328,8293,2,0,L|432:256,1,48,0|0,0:0|0:0,0:0:0:0:
208,240,8451,2,0,L|112:256,2,96,2|2|8,0:0|0:0|0:0,0:0:0:0:
328,224,8924,6,0,P|360:176|288:64,1,192,2|2,0:0|0:0,0:0:0:0:
176,64,9398,1,8,0:0:0:0:
304,64,9555,2,0,L|360:56,1,48,0|0,0:0|0:0,0:0:0:0:
168,176,9713,2,0,L|56:192,2,96,0|0|8,0:0|0:0|0:0,0:0:0:0:
328,192,10187,2,0,L|320:256,1,48,0|0,3:0|3:0,0:0:0:0:
272,272,10344,6,0,L|168:288,1,96,2|0,0:0|0:0,0:0:0:0:
344,328,10660,1,8,0:0:0:0:
208,216,10818,1,2,0:0:0:0:
204,168,10896,1,0,0:0:0:0:
200,120,10975,1,0,0:0:0:0:
312,64,11134,2,0,L|416:72,1,96,2|8,0:0|0:0,0:0:0:0:
128,48,11449,6,0,P|80:112|136:200,1,192,2|2,0:0|0:0,0:0:0:0:
256,224,11923,2,0,L|248:336,1,96,8|0,0:0|0:0,0:0:0:0:
368,216,12238,2,0,L|384:96,1,96,2|2,0:0|0:0,0:0:0:0:
264,72,12554,2,0,L|120:88,1,144,8|0,0:0|0:0,0:0:0:0:
416,288,12869,6,0,P|448:224|384:128,1,192,2|8,0:0|0:0,0:0:0:0:
40,72,13343,2,0,L|144:64,1,96,2|0,0:0|0:0,0:0:0:0:
416,176,13658,2,0,L|288:160,1,96,2|8,0:0|0:0,0:0:0:0:
72,304,13974,2,0,L|280:272,1,192,2|2,0:0|0:0,0:0:0:0:
368,256,14448,1,8,0:0:0:0:
240,216,14605,1,2,0:0:0:0:
408,112,14921,2,0,L|296:120,2,96,2|8|0,0:0|0:0|3:0,0:0:0:0:
456,112,15315,1,0,3:0:0:0:
144,200,15394,6,0,L|112:48,1,144,0|0,1:0|0:0,0:0:0:0:
328,176,15710,2,0,L|296:352,1,144,0|0,1:0|0:0,0:0:0:0:
144,200,16026,2,0,L|112:56,1,144,0|0,1:0|0:0,0:0:0:0:
312,64,16341,5,8,0:0:0:0:
224,176,16499,1,2,0:0:0:0:
352,176,16657,2,0,L|480:176,1,96,0|2,0:0|0:0,0:0:0:0:
320,32,16973,1,0,0:0:0:0:
448,176,17130,2,0,L|224:176,1,192,2|0,0:0|0:0,0:0:0:0:
368,176,17604,1,8,0:0:0:0:
224,176,17762,2,0,L|168:176,1,48,0|0,0:0|0:0,0:0:0:0:
408,336,17919,6,0,P|472:272|400:168,1,192,2|8,1:0|0:0,0:0:0:0:
328,152,18393,2,0,L|208:144,1,96,2|0,0:0|0:0,0:0:0:0:
392,96,18708,2,0,L|288:88,1,96,2|8,0:0|0:0,0:0:0:0:
64,88,19024,6,0,P|32:128|96:256,1,192,2|2,0:0|0:0,0:0:0:0:
192,280,19497,1,8,0:0:0:0:
296,184,19655,2,0,L|176:184,2,96,0|2|2,0:0|0:0|0:0,0:0:0:0:
408,184,20129,1,8,0:0:0:0:
296,184,20287,2,0,L|224:184,1,48,0|0,0:0|0:0,0:0:0:0:
448,112,20444,6,0,P|496:176|432:272,1,192,2|8,0:0|0:0,0:0:0:0:
320,280,20918,2,0,L|424:280,1,96,0|2,0:0|0:0,0:0:0:0:
248,232,21233,2,0,L|136:232,1,96,2|8,0:0|0:0,0:0:0:0:
448,200,21549,6,0,P|504:128|416:48,1,192,2|2,0:0|0:0,0:0:0:0:
352,32,22022,2,0,L|248:32,1,96,8|0,0:0|0:0,0:0:0:0:
144,120,22338,2,0,L|256:120,1,96,2|2,0:0|0:0,0:0:0:0:
344,120,22654,1,8,0:0:0:0:
216,272,22812,2,0,L|208:208,1,48,2|0,0:0|0:0,0:0:0:0:
408,328,22969,6,0,L|208:352,1,192,2|8,0:0|0:0,0:0:0:0:
96,288,23452,1,0,0:0:0:0:
224,224,23614,2,0,L|232:128,1,96,2|2,0:0|0:0,0:0:0:0:
128,72,23936,1,8,0:0:0:0:
432,48,24116,5,2,0:0:0:0:
296,112,24433,1,2,0:0:0:0:
416,152,24590,1,8,0:0:0:0:
296,224,24718,1,0,0:0:0:0:
416,288,24890,1,0,0:0:0:0:
304,344,25020,1,0,0:0:0:0:
48,272,25177,1,0,0:0:0:0:
144,208,25330,2,0,L|216:216,1,48,0|0,3:0|3:0,0:0:0:0:
432,168,25478,6,0,L|448:72,1,96,2|0,0:0|0:0,0:0:0:0:
288,176,25795,2,0,L|304:296,1,96,2|0,0:0|0:0,0:0:0:0:
464,320,26112,2,0,L|328:336,2,96,8|0|2,0:0|0:0|0:0,0:0:0:0:
152,256,26589,6,0,P|104:176|160:96,1,192,8|8,0:0|0:0,0:0:0:0:
264,48,27065,2,0,L|368:56,1,96,2|0,0:0|0:0,0:0:0:0:
80,216,27382,2,0,L|192:224,2,96,8|0|2,0:0|0:0|0:0,0:0:0:0:
224,152,27858,2,0,L|280:160,1,48,2|0,0:0|0:0,0:0:0:0:
48,48,28017,6,0,L|64:184,1,96,8|0,0:0|0:0,0:0:0:0:
288,336,28335,2,0,B|424:296|424:296|336:296|288:232|296:184|304:136|344:96|376:72|392:64|392:64|312:88|264:80,1,576,0|0,0:0|0:0,0:0:0:0:
32,64,29944,5,0,1:0:0:0:
400,112,30101,1,0,1:0:0:0:
