osu file format v14

[General]
AudioFilename: audio.mp3
AudioLeadIn: 0
PreviewTime: 4664
Countdown: 0
SampleSet: Soft
StackLeniency: 0.7
Mode: 3
LetterboxInBreaks: 0
SpecialStyle: 1
WidescreenStoryboard: 1

[Editor]
DistanceSpacing: 0.8
BeatDivisor: 4
GridSize: 16
TimelineZoom: 3.5

[Metadata]
Title:Zen Zen Zense
TitleUnicode:前前前世
Artist:Gom (HoneyWorks)
ArtistUnicode:Gom(HoneyWorks)
Creator:Antalf
Version:4K Normal
Source:君の名は。
Tags:Kimi no Na Wa Your Name Acoustic Cover Protastic101 LinkTaylord Kaito-Kun RADWIMPS
BeatmapID:1211270
BeatmapSetID:571547

[Difficulty]
HPDrainRate:7
CircleSize:4
OverallDifficulty:7
ApproachRate:5
SliderMultiplier:1.6
SliderTickRate:1

[Events]
//Background and Video events
0,0,"zenzenzen.jpg",0,0
//Break Periods
//Storyboard Layer 0 (Background)
//Storyboard Layer 1 (Fail)
//Storyboard Layer 2 (Pass)
//Storyboard Layer 3 (Foreground)
//Storyboard Sound Samples

[TimingPoints]
243,315.78946,4,2,1,60,1,0
5295,315.62186,4,2,1,60,1,0
5295,-101.0101,4,2,1,60,0,1
9398,-101.0101,4,2,1,60,0,0
15394,-101.0101,4,2,1,60,0,1
19497,-101.0101,4,2,1,60,0,0
22969,322.58066,4,2,1,60,1,0
22969,-97.89525,4,2,1,60,0,0
24116,317.46033,4,2,1,60,1,0
24116,-99.0099,4,2,1,60,0,0
24433,315.78946,4,2,1,60,1,0
24433,-100,4,2,1,60,0,0
24590,256.41025,4,2,1,60,1,0
24590,-123.15271,4,2,1,60,0,0
24718,315.78946,4,2,1,60,1,0
24718,-100,4,2,1,60,0,0
24890,315.78946,4,2,1,60,1,0
25020,315.78946,4,2,1,60,1,0
25190,315.78946,4,2,1,60,1,0
25330,315.78946,4,2,1,60,1,0
25478,317.46033,4,2,1,60,1,0
25478,-99.0099,4,2,1,60,0,0
29944,315.78946,4,2,1,60,1,0

[HitObjects]
64,192,243,5,8,0:0:0:60:
192,192,400,1,0,0:0:0:60:
448,192,558,1,0,0:0:0:60:
320,192,716,1,8,0:0:0:60:
192,192,874,1,0,0:0:0:60:
448,192,1032,1,0,0:0:0:60:
64,192,1190,1,0,0:0:0:60:
320,192,1348,128,8,1664:0:0:0:60:
448,192,1664,1,0,0:0:0:60:
64,192,1821,1,0,0:0:0:60:
448,192,1979,1,0,0:0:0:60:
320,192,2137,1,0,0:0:0:60:
192,192,2295,1,0,0:0:0:60:
64,192,2453,128,8,2769:0:0:0:60:
192,192,2769,1,8,0:0:0:60:
448,192,2907,1,0,0:0:0:60:
192,192,3085,1,0,0:0:0:60:
320,192,3242,1,8,0:0:0:60:
64,192,3400,1,0,0:0:0:60:
448,192,3558,1,0,0:0:0:60:
192,192,3716,1,0,0:0:0:60:
320,192,3874,1,0,0:0:0:60:
448,192,4032,1,8,0:0:0:60:
192,192,4242,1,8,0:0:0:60:
320,192,4453,1,8,0:0:0:60:
64,192,4664,1,8,0:0:0:60:
320,192,5295,128,12,5610:0:0:0:0:
192,192,5610,1,2,0:0:0:60:
64,192,5610,1,0,0:0:0:60:
448,192,5768,1,0,0:0:0:60:
192,192,5926,1,4,0:0:0:60:
320,192,6084,1,4,0:0:0:60:
64,192,6241,1,2,0:0:0:60:
448,192,6241,1,0,0:0:0:60:
320,192,6399,128,12,6715:0:0:0:60:
64,192,6715,1,4,0:0:0:60:
448,192,6873,1,2,0:0:0:60:
192,192,6873,1,0,0:0:0:60:
320,192,7030,1,0,0:0:0:60:
64,192,7188,1,4,0:0:0:60:
192,192,7346,1,4,0:0:0:60:
320,192,7504,1,2,0:0:0:60:
64,192,7504,1,0,0:0:0:60:
448,192,7662,1,0,0:0:0:60:
64,192,7819,128,12,8135:0:0:0:60:
320,192,8135,1,2,0:0:0:60:
448,192,8135,1,0,0:0:0:60:
192,192,8293,1,0,0:0:0:60:
320,192,8451,1,4,0:0:0:60:
448,192,8609,1,4,0:0:0:60:
192,192,8766,1,2,0:0:0:60:
64,192,8766,1,0,0:0:0:60:
320,192,8924,128,12,9240:0:0:0:60:
192,192,9240,1,4,0:0:0:60:
64,192,9398,1,2,0:0:0:60:
448,192,9398,1,0,0:0:0:60:
320,192,9555,1,0,0:0:0:60:
192,192,9713,1,4,0:0:0:60:
64,192,9871,1,4,0:0:0:60:
448,192,10029,1,2,0:0:0:60:
192,192,10029,1,0,0:0:0:60:
320,192,10187,1,4,0:0:0:60:
64,192,10344,128,12,10660:0:0:0:60:
192,192,10660,1,2,0:0:0:60:
448,192,10660,1,0,0:0:0:60:
320,192,10818,1,0,0:0:0:60:
64,192,10976,1,4,0:0:0:60:
192,192,11134,1,4,0:0:0:60:
320,192,11291,1,2,0:0:0:60:
448,192,11291,1,0,0:0:0:60:
64,192,11449,128,12,11765:0:0:0:60:
448,192,11765,1,4,0:0:0:60:
192,192,11923,1,2,0:0:0:60:
320,192,11923,1,0,0:0:0:60:
64,192,12080,1,0,0:0:0:60:
448,192,12238,1,4,0:0:0:60:
320,192,12396,1,4,0:0:0:60:
64,192,12554,1,2,0:0:0:60:
448,192,12554,1,0,0:0:0:60:
448,192,12869,128,12,13185:0:0:0:60:
64,192,13185,1,2,0:0:0:60:
192,192,13185,1,0,0:0:0:0:
320,192,13343,1,0,0:0:0:60:
64,192,13501,1,4,0:0:0:60:
192,192,13658,1,4,0:0:0:60:
320,192,13816,1,2,0:0:0:60:
448,192,13816,1,0,0:0:0:60:
64,192,13974,128,12,14290:0:0:0:60:
448,192,14290,1,4,0:0:0:60:
192,192,14448,1,2,0:0:0:60:
320,192,14448,1,0,0:0:0:60:
448,192,14605,128,12,14921:0:0:0:60:
64,192,14921,1,4,0:0:0:0:
192,192,15079,1,2,0:0:0:60:
320,192,15079,1,0,0:0:0:60:
448,192,15237,1,4,0:0:0:60:
320,192,15315,1,4,0:0:0:0:
192,192,15394,128,12,15710:0:0:0:60:
448,192,15710,1,2,0:0:0:60:
64,192,15710,1,0,0:0:0:0:
320,192,15868,1,0,0:0:0:0:
448,192,16026,1,4,0:0:0:60:
192,192,16183,1,4,0:0:0:60:
64,192,16341,1,2,0:0:0:60:
320,192,16341,1,0,0:0:0:60:
448,192,16499,128,12,16815:0:0:0:60:
64,192,16815,1,4,0:0:0:60:
192,192,16973,1,2,0:0:0:60:
320,192,16973,1,0,0:0:0:60:
448,192,17130,1,0,0:0:0:60:
64,192,17288,1,4,0:0:0:60:
192,192,17446,1,4,0:0:0:60:
320,192,17604,1,2,0:0:0:60:
448,192,17604,1,0,0:0:0:60:
192,192,17762,1,0,0:0:0:60:
64,192,17919,128,12,18235:0:0:0:60:
320,192,18235,1,2,0:0:0:60:
192,192,18235,1,0,0:0:0:60:
448,192,18393,1,0,0:0:0:60:
320,192,18551,1,4,0:0:0:60:
192,192,18708,1,4,0:0:0:60:
64,192,18866,1,2,0:0:0:60:
448,192,18866,1,0,0:0:0:60:
320,192,19024,128,12,19340:0:0:0:60:
192,192,19340,1,4,0:0:0:60:
448,192,19497,1,2,0:0:0:60:
64,192,19497,1,0,0:0:0:60:
320,192,19655,1,0,0:0:0:60:
64,192,19813,1,4,0:0:0:60:
448,192,19971,1,4,0:0:0:60:
192,192,20129,1,2,0:0:0:60:
320,192,20129,1,0,0:0:0:60:
64,192,20287,1,0,0:0:0:60:
448,192,20444,128,12,20760:0:0:0:60:
64,192,20760,1,2,0:0:0:60:
320,192,20760,1,0,0:0:0:60:
192,192,20918,1,0,0:0:0:0:
320,192,21076,1,4,0:0:0:60:
448,192,21233,1,4,0:0:0:60:
64,192,21391,1,2,0:0:0:60:
192,192,21391,1,0,0:0:0:60:
320,192,21549,128,12,21865:0:0:0:60:
448,192,21865,1,4,0:0:0:60:
192,192,22022,1,2,0:0:0:60:
64,192,22022,1,0,0:0:0:60:
448,192,22180,1,0,0:0:0:60:
64,192,22338,1,4,0:0:0:60:
192,192,22496,1,4,0:0:0:60:
320,192,22654,1,2,0:0:0:60:
448,192,22654,1,0,0:0:0:60:
64,192,22812,1,0,0:0:0:60:
192,192,22969,128,12,23291:0:0:0:60:
448,192,23291,1,2,0:0:0:60:
320,192,23291,1,0,0:0:0:0:
64,192,23452,1,0,0:0:0:0:
192,192,23614,1,4,0:0:0:60:
320,192,23775,1,4,0:0:0:0:
64,192,23936,1,2,0:0:0:60:
192,192,23936,1,0,0:0:0:0:
448,192,24116,128,12,24433:0:0:0:0:
320,192,24433,1,4,0:0:0:0:
64,192,24590,1,2,0:0:0:60:
192,192,24590,1,0,0:0:0:60:
320,192,24718,1,4,0:0:0:60:
192,192,25020,1,4,0:0:0:60:
448,192,25190,1,2,0:0:0:60:
320,192,25190,1,0,0:0:0:60:
64,192,25330,1,4,0:0:0:60:
192,192,25408,1,4,0:0:0:0:
448,192,25478,128,8,25795:0:0:0:60:
320,192,25478,1,4,0:0:0:60:
64,192,25795,1,4,0:0:0:60:
320,192,26112,1,2,0:0:0:60:
192,192,26112,128,8,26430:0:0:0:60:
448,192,26430,1,4,0:0:0:60:
320,192,26589,1,2,0:0:0:0:
64,192,26589,1,0,0:0:0:0:
192,192,26747,1,4,0:0:0:60:
448,192,26906,1,2,0:0:0:60:
320,192,26906,1,0,0:0:0:0:
64,192,27065,1,4,0:0:0:60:
192,192,27065,1,0,0:0:0:0:
320,192,27382,1,2,0:0:0:60:
448,192,27382,128,8,27700:0:0:0:60:
64,192,27700,1,4,0:0:0:60:
192,192,27858,1,2,0:0:0:60:
320,192,27858,1,0,0:0:0:0:
448,192,28017,128,8,29604:0:0:0:60:
64,192,28017,128,4,29604:0:0:0:60:
192,192,29944,1,8,0:0:0:60:
320,192,29944,1,4,0:0:0:60:
192,192,30101,128,4,30259:0:0:0:60:
320,192,30101,128,8,30259:0:0:0:60:
