osu file format v14

[General]
AudioFilename: audio.mp3
AudioLeadIn: 0
PreviewTime: 32074
Countdown: 0
SampleSet: None
StackLeniency: 0.7
Mode: 1
LetterboxInBreaks: 0
WidescreenStoryboard: 0

[Editor]
DistanceSpacing: 1.6
BeatDivisor: 4
GridSize: 4
TimelineZoom: 1.7

[Metadata]
Title:Ii Hito
TitleUnicode:いいひと
Artist:Golden Bomber
ArtistUnicode:Golden Bomber
Creator:Karee Pan
Version:Oni
Source:
Tags:
BeatmapID:1290279
BeatmapSetID:611176

[Difficulty]
HPDrainRate:6
CircleSize:4.5
OverallDifficulty:5
ApproachRate:8.5
SliderMultiplier:1.4
SliderTickRate:1

[Events]
//Background and Video events
0,0,"9175cf9c31a3426726a940587c080369.jpg",0,0
//Break Periods
//Storyboard Layer 0 (Background)
//Storyboard Layer 1 (Fail)
//Storyboard Layer 2 (Pass)
//Storyboard Layer 3 (Foreground)
//Storyboard Sound Samples

[TimingPoints]
8916.98671273621,263.157894736842,4,1,0,100,1,0
32074,-111.111111111111,4,1,0,100,0,0
59443,-100,4,1,0,100,0,1
74311,-100,4,1,0,100,0,0

[HitObjects]
248,200,8127,5,4,0:0:0:0:
248,200,8390,1,4,0:0:0:0:
248,200,8653,1,4,0:0:0:0:
248,200,8916,1,12,0:0:0:0:
248,200,9180,1,8,0:0:0:0:
248,200,9311,1,0,0:0:0:0:
248,200,9574,1,0,0:0:0:0:
248,200,9706,1,8,0:0:0:0:
248,200,9969,1,0,0:0:0:0:
248,200,10101,1,8,0:0:0:0:
248,200,10232,1,0,0:0:0:0:
248,200,10364,1,8,0:0:0:0:
248,200,10627,1,0,0:0:0:0:
248,200,10759,1,8,0:0:0:0:
244,192,10890,1,0,0:0:0:0:
244,192,10956,1,0,0:0:0:0:
248,200,11022,1,8,0:0:0:0:
248,200,11285,1,8,0:0:0:0:
248,200,11416,1,0,0:0:0:0:
248,200,11680,1,0,0:0:0:0:
248,200,11811,1,8,0:0:0:0:
248,200,12074,1,0,0:0:0:0:
248,200,12206,1,8,0:0:0:0:
248,200,12338,1,0,0:0:0:0:
248,200,12469,1,8,0:0:0:0:
248,200,12732,1,0,0:0:0:0:
248,200,12864,1,8,0:0:0:0:
188,168,12995,1,0,0:0:0:0:
188,168,13061,1,0,0:0:0:0:
248,200,13127,1,8,0:0:0:0:
248,200,13390,1,8,0:0:0:0:
248,200,13522,1,0,0:0:0:0:
248,200,13785,1,0,0:0:0:0:
248,200,13916,1,8,0:0:0:0:
248,200,14180,1,0,0:0:0:0:
248,200,14311,1,8,0:0:0:0:
248,200,14443,1,0,0:0:0:0:
248,200,14574,1,8,0:0:0:0:
248,200,14838,1,8,0:0:0:0:
248,200,14969,1,0,0:0:0:0:
256,192,15101,1,0,0:0:0:0:
256,200,15232,1,8,0:0:0:0:
256,192,15495,1,8,0:0:0:0:
256,192,15759,1,0,0:0:0:0:
256,192,16022,1,8,0:0:0:0:
256,192,16153,1,0,0:0:0:0:
256,192,16285,1,0,0:0:0:0:
256,192,16416,1,8,0:0:0:0:
256,196,16548,1,0,0:0:0:0:
256,192,16680,1,8,0:0:0:0:
256,192,16811,1,8,0:0:0:0:
256,192,16943,1,0,0:0:0:0:
256,192,17074,1,8,0:0:0:0:
256,192,17206,1,0,0:0:0:0:
256,192,17338,1,8,0:0:0:0:
256,192,17469,1,0,0:0:0:0:
252,188,17535,1,0,0:0:0:0:
256,192,17601,1,8,0:0:0:0:
256,192,17732,1,0,0:0:0:0:
252,196,17798,5,0,0:0:0:0:
252,196,17864,1,8,0:0:0:0:
260,196,17995,1,0,0:0:0:0:
260,196,18127,1,0,0:0:0:0:
260,196,18259,1,8,0:0:0:0:
260,196,18390,1,0,0:0:0:0:
260,196,18522,1,8,0:0:0:0:
260,196,18785,1,8,0:0:0:0:
260,196,18916,1,0,0:0:0:0:
228,184,19048,1,0,0:0:0:0:
260,196,19180,1,8,0:0:0:0:
260,196,19311,1,0,0:0:0:0:
260,196,19443,1,8,0:0:0:0:
260,196,19574,1,0,0:0:0:0:
260,196,19640,1,0,0:0:0:0:
260,196,19706,1,8,0:0:0:0:
260,196,19838,1,0,0:0:0:0:
260,196,19903,1,0,0:0:0:0:
280,192,19969,1,8,0:0:0:0:
272,200,20101,1,0,0:0:0:0:
280,200,20232,1,0,0:0:0:0:
280,200,20364,1,8,0:0:0:0:
280,200,20495,1,0,0:0:0:0:
280,200,20627,1,8,0:0:0:0:
280,200,20890,1,8,0:0:0:0:
288,200,21022,1,0,0:0:0:0:
292,176,21153,1,0,0:0:0:0:
280,200,21285,1,8,0:0:0:0:
280,200,21416,1,0,0:0:0:0:
280,200,21548,1,8,0:0:0:0:
280,200,21680,1,8,0:0:0:0:
280,200,21811,1,0,0:0:0:0:
280,200,21943,1,8,0:0:0:0:
280,200,22206,1,0,0:0:0:0:
280,200,22338,1,8,0:0:0:0:
280,200,22469,1,0,0:0:0:0:
280,200,22601,1,8,0:0:0:0:
280,200,22732,1,0,0:0:0:0:
280,200,22798,1,0,0:0:0:0:
280,200,22864,1,8,0:0:0:0:
280,200,22995,1,0,0:0:0:0:
280,200,23127,1,0,0:0:0:0:
280,200,23259,1,8,0:0:0:0:
280,200,23324,1,8,0:0:0:0:
288,200,23390,1,0,0:0:0:0:
280,200,23522,1,8,0:0:0:0:
280,200,23653,1,4,0:0:0:0:
280,200,23785,1,4,0:0:0:0:
280,200,23916,1,8,0:0:0:0:
280,200,24048,1,8,0:0:0:0:
280,200,24180,1,4,0:0:0:0:
280,200,24311,1,4,0:0:0:0:
280,200,24443,1,8,0:0:0:0:
280,200,24574,1,8,0:0:0:0:
280,200,24706,1,4,0:0:0:0:
280,200,24838,1,4,0:0:0:0:
280,200,24969,1,8,0:0:0:0:
280,200,25101,1,0,0:0:0:0:
280,200,25364,1,0,0:0:0:0:
280,200,25495,1,8,0:0:0:0:
280,200,25627,1,8,0:0:0:0:
280,200,25759,1,4,0:0:0:0:
280,200,25890,1,4,0:0:0:0:
276,208,26022,1,8,0:0:0:0:
276,208,26153,1,8,0:0:0:0:
276,208,26285,1,4,0:0:0:0:
276,208,26416,1,4,0:0:0:0:
276,208,26548,1,8,0:0:0:0:
276,208,26680,1,8,0:0:0:0:
280,208,26811,1,4,0:0:0:0:
280,208,26943,1,4,0:0:0:0:
276,208,27074,1,8,0:0:0:0:
276,208,27206,1,0,0:0:0:0:
276,208,27469,1,0,0:0:0:0:
276,208,27601,1,8,0:0:0:0:
280,208,27732,1,8,0:0:0:0:
280,208,27864,1,4,0:0:0:0:
276,208,27995,1,4,0:0:0:0:
276,208,28127,1,8,0:0:0:0:
276,208,28259,1,8,0:0:0:0:
276,208,28390,1,4,0:0:0:0:
276,208,28522,1,4,0:0:0:0:
276,208,28653,1,8,0:0:0:0:
280,208,28785,1,8,0:0:0:0:
280,208,28916,1,4,0:0:0:0:
276,208,29048,1,4,0:0:0:0:
276,208,29180,1,8,0:0:0:0:
276,208,29311,1,0,0:0:0:0:
276,208,29574,1,0,0:0:0:0:
276,208,29706,1,8,0:0:0:0:
280,208,29838,1,8,0:0:0:0:
276,208,29969,1,0,0:0:0:0:
276,208,30035,1,0,0:0:0:0:
276,208,30101,1,8,0:0:0:0:
276,208,30364,1,8,0:0:0:0:
276,208,30627,1,0,0:0:0:0:
272,208,30759,1,8,0:0:0:0:
276,208,30890,1,0,0:0:0:0:
276,208,31153,1,0,0:0:0:0:
276,208,31285,1,8,0:0:0:0:
276,208,31416,1,0,0:0:0:0:
276,208,31548,1,8,0:0:0:0:
272,208,31811,1,12,0:0:0:0:
276,208,32074,1,4,0:0:0:0:
276,208,32338,1,8,0:0:0:0:
256,212,32469,1,0,0:0:0:0:
272,208,32601,1,0,0:0:0:0:
276,208,32732,1,8,0:0:0:0:
272,208,32864,1,8,0:0:0:0:
256,212,32995,1,0,0:0:0:0:
272,208,33127,1,8,0:0:0:0:
276,208,33390,1,8,0:0:0:0:
272,208,33522,1,0,0:0:0:0:
272,208,33653,1,8,0:0:0:0:
280,204,33785,1,0,0:0:0:0:
256,212,33916,1,0,0:0:0:0:
256,212,34048,1,0,0:0:0:0:
256,212,34180,1,8,0:0:0:0:
268,212,34443,1,8,0:0:0:0:
264,204,34574,1,0,0:0:0:0:
256,212,34706,1,0,0:0:0:0:
256,212,34838,1,8,0:0:0:0:
256,212,34969,1,8,0:0:0:0:
256,212,35101,1,0,0:0:0:0:
256,212,35232,1,0,0:0:0:0:
256,212,35495,1,12,0:0:0:0:
256,212,35759,1,8,0:0:0:0:
256,212,35825,1,8,0:0:0:0:
256,204,35891,1,0,0:0:0:0:
256,212,36022,1,8,0:0:0:0:
256,212,36154,1,0,0:0:0:0:
256,212,36220,1,0,0:0:0:0:
256,212,36285,1,8,0:0:0:0:
248,208,36548,1,8,0:0:0:0:
248,208,36811,1,8,0:0:0:0:
248,208,36943,1,0,0:0:0:0:
248,208,37074,1,8,0:0:0:0:
248,208,37338,1,8,0:0:0:0:
260,212,37469,1,0,0:0:0:0:
268,208,37601,1,0,0:0:0:0:
264,212,37732,1,8,0:0:0:0:
264,212,37864,1,0,0:0:0:0:
264,212,37930,1,0,0:0:0:0:
264,212,37995,1,8,0:0:0:0:
272,208,38127,1,0,0:0:0:0:
264,212,38259,1,8,0:0:0:0:
276,208,38522,1,0,0:0:0:0:
276,208,38653,1,8,0:0:0:0:
276,208,38785,1,0,0:0:0:0:
276,208,38916,1,8,0:0:0:0:
276,208,39048,1,0,0:0:0:0:
276,208,39180,1,8,0:0:0:0:
276,208,39311,1,0,0:0:0:0:
276,208,39443,1,8,0:0:0:0:
276,208,39574,1,0,0:0:0:0:
276,208,39706,1,8,0:0:0:0:
276,208,39838,1,0,0:0:0:0:
276,208,39969,1,8,0:0:0:0:
276,208,40101,1,8,0:0:0:0:
276,208,40232,1,0,0:0:0:0:
296,208,40298,1,0,0:0:0:0:
276,208,40364,1,8,0:0:0:0:
276,208,40495,1,4,0:0:0:0:
276,208,40759,1,8,0:0:0:0:
256,212,40890,1,0,0:0:0:0:
272,208,41022,1,0,0:0:0:0:
272,208,41153,1,8,0:0:0:0:
272,208,41285,1,0,0:0:0:0:
256,212,41416,1,8,0:0:0:0:
276,208,41548,1,8,0:0:0:0:
276,208,41811,1,8,0:0:0:0:
272,208,41943,1,0,0:0:0:0:
272,208,42074,1,0,0:0:0:0:
256,212,42206,1,0,0:0:0:0:
256,212,42337,1,8,0:0:0:0:
280,204,42469,1,0,0:0:0:0:
256,212,42601,1,8,0:0:0:0:
268,212,42864,1,8,0:0:0:0:
260,208,42995,1,0,0:0:0:0:
256,212,43127,1,0,0:0:0:0:
256,212,43259,1,8,0:0:0:0:
256,212,43390,1,8,0:0:0:0:
256,212,43522,1,0,0:0:0:0:
256,212,43653,1,0,0:0:0:0:
256,212,43916,1,12,0:0:0:0:
256,212,44180,1,8,0:0:0:0:
256,212,44246,1,8,0:0:0:0:
256,212,44312,1,0,0:0:0:0:
256,212,44443,1,8,0:0:0:0:
256,212,44575,1,0,0:0:0:0:
256,212,44641,1,0,0:0:0:0:
256,212,44706,1,8,0:0:0:0:
248,208,44969,1,8,0:0:0:0:
248,208,45232,1,8,0:0:0:0:
248,208,45364,1,8,0:0:0:0:
248,208,45495,1,0,0:0:0:0:
244,192,45627,1,8,0:0:0:0:
248,208,45759,1,0,0:0:0:0:
268,208,46022,1,8,0:0:0:0:
264,212,46153,1,0,0:0:0:0:
264,212,46219,1,0,0:0:0:0:
264,212,46285,1,8,0:0:0:0:
264,212,46416,1,0,0:0:0:0:
264,212,46548,1,0,0:0:0:0:
272,208,46680,1,8,0:0:0:0:
276,208,46943,1,0,0:0:0:0:
276,208,47074,1,8,0:0:0:0:
276,208,47206,1,0,0:0:0:0:
276,208,47337,1,8,0:0:0:0:
276,208,47469,1,0,0:0:0:0:
276,208,47601,1,8,0:0:0:0:
276,208,47732,1,0,0:0:0:0:
276,208,47995,1,0,0:0:0:0:
276,208,48127,1,8,0:0:0:0:
276,208,48259,1,8,0:0:0:0:
276,208,48390,1,0,0:0:0:0:
252,192,48456,1,0,0:0:0:0:
276,208,48522,1,8,0:0:0:0:
276,208,48653,1,0,0:0:0:0:
276,208,48785,1,8,0:0:0:0:
276,208,48851,1,8,0:0:0:0:
288,204,48916,1,0,0:0:0:0:
276,208,49180,1,8,0:0:0:0:
276,208,49311,1,8,0:0:0:0:
276,208,49443,1,0,0:0:0:0:
276,208,49706,1,0,0:0:0:0:
276,208,49838,1,8,0:0:0:0:
276,208,50101,1,8,0:0:0:0:
276,208,50232,1,0,0:0:0:0:
276,208,50364,1,0,0:0:0:0:
276,208,50495,1,8,0:0:0:0:
276,208,50627,1,8,0:0:0:0:
276,208,50759,1,0,0:0:0:0:
276,208,50825,1,0,0:0:0:0:
276,208,50890,1,8,0:0:0:0:
264,212,51153,1,0,0:0:0:0:
264,212,51285,1,8,0:0:0:0:
264,212,51416,1,0,0:0:0:0:
264,212,51548,1,8,0:0:0:0:
268,208,51680,1,8,0:0:0:0:
268,208,51811,1,0,0:0:0:0:
268,208,51943,1,8,0:0:0:0:
268,208,52206,1,0,0:0:0:0:
268,208,52338,1,8,0:0:0:0:
268,208,52469,1,0,0:0:0:0:
268,208,52601,1,8,0:0:0:0:
268,208,52732,1,0,0:0:0:0:
268,208,52864,1,8,0:0:0:0:
268,208,52995,1,0,0:0:0:0:
268,208,53061,1,0,0:0:0:0:
272,196,53127,1,8,0:0:0:0:
272,196,53259,1,8,0:0:0:0:
272,196,53390,1,8,0:0:0:0:
272,196,53522,1,0,0:0:0:0:
272,196,53785,1,0,0:0:0:0:
272,196,53916,1,8,0:0:0:0:
272,196,54048,1,0,0:0:0:0:
296,176,54311,1,0,0:0:0:0:
272,196,54443,1,8,0:0:0:0:
296,176,54574,1,0,0:0:0:0:
296,176,54706,1,8,0:0:0:0:
296,176,54838,1,8,0:0:0:0:
296,176,55101,1,8,0:0:0:0:
296,176,55364,1,0,0:0:0:0:
296,176,55495,1,8,0:0:0:0:
300,180,55627,1,0,0:0:0:0:
300,180,55759,1,8,0:0:0:0:
300,180,55890,1,0,0:0:0:0:
300,180,56022,1,8,0:0:0:0:
300,180,56153,1,0,0:0:0:0:
300,180,56285,1,8,0:0:0:0:
300,180,56416,1,0,0:0:0:0:
300,180,56548,1,8,0:0:0:0:
300,180,56680,1,0,0:0:0:0:
300,180,56811,1,0,0:0:0:0:
308,184,56943,1,8,0:0:0:0:
256,208,57008,1,8,0:0:0:0:
300,180,57074,1,0,0:0:0:0:
308,184,57206,1,8,0:0:0:0:
308,184,57469,1,0,0:0:0:0:
308,184,57601,1,8,0:0:0:0:
308,184,57732,1,0,0:0:0:0:
308,184,57864,1,8,0:0:0:0:
308,184,57995,1,0,0:0:0:0:
308,184,58127,1,8,0:0:0:0:
172,176,58259,1,0,0:0:0:0:
308,184,58390,1,8,0:0:0:0:
256,204,58456,1,8,0:0:0:0:
308,184,58522,1,0,0:0:0:0:
308,184,58653,1,4,0:0:0:0:
308,184,58916,1,4,0:0:0:0:
308,184,59180,1,4,0:0:0:0:
248,200,59443,1,12,0:0:0:0:
248,200,59707,1,8,0:0:0:0:
248,200,59838,1,0,0:0:0:0:
248,200,60101,1,0,0:0:0:0:
248,200,60233,1,8,0:0:0:0:
248,200,60496,1,0,0:0:0:0:
248,200,60628,1,8,0:0:0:0:
264,200,60759,1,0,0:0:0:0:
264,200,60891,1,8,0:0:0:0:
248,200,61154,1,0,0:0:0:0:
248,200,61286,1,8,0:0:0:0:
248,200,61416,1,0,0:0:0:0:
248,200,61482,1,0,0:0:0:0:
248,200,61549,1,8,0:0:0:0:
248,200,61812,1,8,0:0:0:0:
248,200,61943,1,0,0:0:0:0:
248,200,62207,1,0,0:0:0:0:
248,200,62338,1,8,0:0:0:0:
248,200,62601,1,0,0:0:0:0:
248,200,62733,1,8,0:0:0:0:
248,200,62865,1,0,0:0:0:0:
248,200,62996,1,8,0:0:0:0:
248,200,63259,1,0,0:0:0:0:
248,200,63391,1,8,0:0:0:0:
248,208,63522,1,0,0:0:0:0:
248,208,63588,1,0,0:0:0:0:
248,200,63653,1,8,0:0:0:0:
248,200,63917,1,8,0:0:0:0:
248,200,64049,1,0,0:0:0:0:
248,200,64312,1,0,0:0:0:0:
248,200,64443,1,8,0:0:0:0:
248,200,64707,1,0,0:0:0:0:
248,200,64838,1,8,0:0:0:0:
248,200,64969,1,0,0:0:0:0:
248,200,65101,1,8,0:0:0:0:
248,200,65365,1,8,0:0:0:0:
256,192,65496,1,0,0:0:0:0:
256,200,65627,1,0,0:0:0:0:
248,200,65759,1,8,0:0:0:0:
256,192,66022,1,8,0:0:0:0:
256,192,66286,1,0,0:0:0:0:
256,192,66548,1,8,0:0:0:0:
256,192,66679,1,0,0:0:0:0:
256,192,66811,1,0,0:0:0:0:
256,192,66942,1,8,0:0:0:0:
256,196,67074,1,0,0:0:0:0:
256,192,67206,1,8,0:0:0:0:
256,192,67337,1,8,0:0:0:0:
256,192,67469,1,0,0:0:0:0:
256,192,67600,1,8,0:0:0:0:
256,192,67732,1,0,0:0:0:0:
256,192,67864,1,8,0:0:0:0:
256,192,67995,1,0,0:0:0:0:
252,188,68061,1,0,0:0:0:0:
256,192,68127,1,8,0:0:0:0:
256,192,68258,1,0,0:0:0:0:
252,196,68324,5,0,0:0:0:0:
252,196,68390,1,8,0:0:0:0:
260,196,68521,1,0,0:0:0:0:
260,196,68653,1,0,0:0:0:0:
260,196,68785,1,8,0:0:0:0:
260,196,68916,1,0,0:0:0:0:
260,196,69048,1,8,0:0:0:0:
260,196,69311,1,8,0:0:0:0:
260,196,69442,1,0,0:0:0:0:
228,184,69574,1,0,0:0:0:0:
260,196,69706,1,8,0:0:0:0:
260,196,69837,1,0,0:0:0:0:
260,196,69969,1,8,0:0:0:0:
260,196,70100,1,0,0:0:0:0:
260,196,70166,1,0,0:0:0:0:
260,196,70232,1,8,0:0:0:0:
260,196,70364,1,0,0:0:0:0:
260,196,70429,1,0,0:0:0:0:
280,192,70495,1,8,0:0:0:0:
272,200,70627,1,0,0:0:0:0:
280,200,70758,1,0,0:0:0:0:
280,200,70890,1,8,0:0:0:0:
280,200,71021,1,0,0:0:0:0:
280,200,71153,1,8,0:0:0:0:
280,200,71416,1,8,0:0:0:0:
288,200,71548,1,0,0:0:0:0:
292,176,71679,1,0,0:0:0:0:
280,200,71811,1,8,0:0:0:0:
280,200,71942,1,0,0:0:0:0:
280,200,72074,1,8,0:0:0:0:
280,200,72206,1,8,0:0:0:0:
280,200,72337,1,0,0:0:0:0:
280,200,72469,1,8,0:0:0:0:
280,200,72733,1,0,0:0:0:0:
280,200,72865,1,8,0:0:0:0:
280,200,72996,1,0,0:0:0:0:
280,200,73128,1,8,0:0:0:0:
280,200,73259,1,8,0:0:0:0:
280,200,73325,1,8,0:0:0:0:
280,200,73391,1,0,0:0:0:0:
280,200,73522,1,8,0:0:0:0:
280,200,73654,1,0,0:0:0:0:
280,200,73786,1,8,0:0:0:0:
280,200,73917,1,8,0:0:0:0:
280,200,74049,1,8,0:0:0:0:
280,200,74180,1,0,0:0:0:0:
280,200,74312,1,0,0:0:0:0:
