osu file format v14

[General]
AudioFilename: audio.mp3
AudioLeadIn: 0
PreviewTime: 32074
Countdown: 0
SampleSet: Normal
StackLeniency: 0.7
Mode: 1
LetterboxInBreaks: 0
WidescreenStoryboard: 0

[Editor]
DistanceSpacing: 1.6
BeatDivisor: 4
GridSize: 4
TimelineZoom: 1.7

[Metadata]
Title:Ii Hito
TitleUnicode:いいひと
Artist:Golden Bomber
ArtistUnicode:Golden Bomber
Creator:Karee Pan
Version:Muzukashii
Source:
Tags:
BeatmapID:1290278
BeatmapSetID:611176

[Difficulty]
HPDrainRate:5
CircleSize:4.5
OverallDifficulty:4
ApproachRate:8.5
SliderMultiplier:1.4
SliderTickRate:1

[Events]
//Background and Video events
0,0,"9175cf9c31a3426726a940587c080369.jpg",0,0
//Break Periods
//Storyboard Layer 0 (Background)
//Storyboard Layer 1 (Fail)
//Storyboard Layer 2 (Pass)
//Storyboard Layer 3 (Foreground)
//Storyboard Sound Samples

[TimingPoints]
8916.98671273621,263.157894736842,4,1,0,100,1,0
32074,-111.111111111111,4,1,0,100,0,0
59443,-100,4,1,0,100,0,1
74180,-100,4,1,0,100,0,0

[HitObjects]
252,224,8127,5,4,0:0:0:0:
252,224,8390,1,4,0:0:0:0:
252,224,8653,1,4,0:0:0:0:
252,224,8916,1,12,0:0:0:0:
252,224,9180,1,8,0:0:0:0:
252,224,9311,1,0,0:0:0:0:
252,224,9706,1,8,0:0:0:0:
252,224,9969,1,0,0:0:0:0:
252,224,10101,1,8,0:0:0:0:
252,224,10364,1,8,0:0:0:0:
256,220,10627,1,0,0:0:0:0:
280,216,10759,1,8,0:0:0:0:
280,216,11022,1,8,0:0:0:0:
280,216,11285,1,8,0:0:0:0:
280,216,11416,1,0,0:0:0:0:
280,216,11811,1,8,0:0:0:0:
280,216,12074,1,0,0:0:0:0:
280,216,12206,1,8,0:0:0:0:
280,216,12469,1,8,0:0:0:0:
256,220,12732,1,0,0:0:0:0:
280,216,12864,1,8,0:0:0:0:
280,216,13127,1,8,0:0:0:0:
280,216,13390,1,8,0:0:0:0:
280,216,13522,1,0,0:0:0:0:
280,216,13916,1,8,0:0:0:0:
280,216,14180,1,0,0:0:0:0:
280,216,14311,1,8,0:0:0:0:
280,216,14574,1,8,0:0:0:0:
280,216,14969,1,8,0:0:0:0:
280,216,15101,1,0,0:0:0:0:
280,216,15232,1,8,0:0:0:0:
280,216,15495,1,8,0:0:0:0:
280,216,15759,1,0,0:0:0:0:
280,216,16022,1,8,0:0:0:0:
284,200,16285,1,0,0:0:0:0:
264,208,16416,1,8,0:0:0:0:
284,200,16548,1,0,0:0:0:0:
284,200,16811,1,8,0:0:0:0:
272,208,17074,1,8,0:0:0:0:
284,200,17338,1,8,0:0:0:0:
264,184,17469,1,0,0:0:0:0:
284,200,17601,1,8,0:0:0:0:
284,200,17864,1,8,0:0:0:0:
284,200,17995,1,0,0:0:0:0:
284,200,18127,1,0,0:0:0:0:
284,200,18259,1,8,0:0:0:0:
284,200,18390,1,0,0:0:0:0:
284,200,18522,1,8,0:0:0:0:
284,200,18785,1,8,0:0:0:0:
248,184,19048,1,0,0:0:0:0:
284,200,19180,1,8,0:0:0:0:
284,200,19443,1,8,0:0:0:0:
296,200,19574,1,0,0:0:0:0:
284,200,19706,1,8,0:0:0:0:
284,200,19969,1,8,0:0:0:0:
284,200,20101,1,0,0:0:0:0:
288,196,20232,1,0,0:0:0:0:
284,200,20364,1,8,0:0:0:0:
284,200,20495,1,0,0:0:0:0:
284,200,20627,1,8,0:0:0:0:
284,200,20890,1,8,0:0:0:0:
252,176,21153,1,0,0:0:0:0:
284,200,21285,1,8,0:0:0:0:
300,192,21548,1,8,0:0:0:0:
284,200,21680,1,8,0:0:0:0:
300,192,21811,1,0,0:0:0:0:
300,192,21943,1,8,0:0:0:0:
300,192,22206,1,0,0:0:0:0:
300,192,22338,1,8,0:0:0:0:
276,176,22469,1,0,0:0:0:0:
300,192,22601,1,8,0:0:0:0:
300,192,22732,1,8,0:0:0:0:
300,192,22995,1,8,0:0:0:0:
300,192,23259,1,8,0:0:0:0:
300,192,23390,1,8,0:0:0:0:
300,192,23522,1,8,0:0:0:0:
300,192,23653,1,0,0:0:0:0:
300,192,23785,1,0,0:0:0:0:
292,200,23916,1,8,0:0:0:0:
300,192,24180,1,0,0:0:0:0:
300,192,24311,1,0,0:0:0:0:
292,200,24443,1,8,0:0:0:0:
292,200,24706,1,0,0:0:0:0:
292,200,24838,1,0,0:0:0:0:
292,200,24969,1,8,0:0:0:0:
292,200,25101,1,0,0:0:0:0:
292,200,25364,1,0,0:0:0:0:
292,200,25495,1,8,0:0:0:0:
292,200,25759,1,0,0:0:0:0:
292,200,25890,1,0,0:0:0:0:
292,200,26022,1,8,0:0:0:0:
292,200,26285,1,0,0:0:0:0:
292,200,26416,1,0,0:0:0:0:
292,200,26548,1,8,0:0:0:0:
292,200,26811,1,0,0:0:0:0:
292,200,26943,1,0,0:0:0:0:
292,200,27074,1,8,0:0:0:0:
292,200,27206,1,0,0:0:0:0:
280,184,27469,1,0,0:0:0:0:
292,200,27601,1,8,0:0:0:0:
292,200,27864,1,0,0:0:0:0:
292,200,27995,1,0,0:0:0:0:
292,200,28127,1,8,0:0:0:0:
292,200,28390,1,0,0:0:0:0:
292,200,28522,1,0,0:0:0:0:
292,200,28653,1,8,0:0:0:0:
292,200,28916,1,0,0:0:0:0:
292,200,29048,1,0,0:0:0:0:
292,200,29180,1,8,0:0:0:0:
292,200,29311,1,0,0:0:0:0:
292,200,29574,1,0,0:0:0:0:
304,196,29706,1,8,0:0:0:0:
292,200,29838,1,0,0:0:0:0:
292,200,29969,1,8,0:0:0:0:
284,188,30101,1,8,0:0:0:0:
292,200,30364,1,8,0:0:0:0:
288,188,30627,1,8,0:0:0:0:
292,200,30890,1,0,0:0:0:0:
288,192,31153,1,0,0:0:0:0:
288,192,31285,1,0,0:0:0:0:
288,192,31416,1,0,0:0:0:0:
292,200,31548,1,8,0:0:0:0:
292,200,31811,1,8,0:0:0:0:
272,196,32074,1,4,0:0:0:0:
272,196,32338,1,8,0:0:0:0:
272,192,32601,1,0,0:0:0:0:
284,196,32732,1,8,0:0:0:0:
264,192,32864,1,8,0:0:0:0:
272,196,32995,1,0,0:0:0:0:
256,184,33127,1,8,0:0:0:0:
264,192,33390,1,8,0:0:0:0:
260,160,33653,1,8,0:0:0:0:
272,192,33785,1,0,0:0:0:0:
280,184,33916,1,8,0:0:0:0:
256,184,34048,1,0,0:0:0:0:
276,188,34180,1,8,0:0:0:0:
268,180,34443,1,8,0:0:0:0:
252,172,34706,1,0,0:0:0:0:
252,172,34838,1,8,0:0:0:0:
252,172,34969,1,8,0:0:0:0:
252,172,35101,1,8,0:0:0:0:
256,172,35232,1,0,0:0:0:0:
268,180,35495,1,8,0:0:0:0:
268,180,35759,1,8,0:0:0:0:
268,180,35890,1,0,0:0:0:0:
256,172,36022,1,8,0:0:0:0:
256,172,36153,1,0,0:0:0:0:
256,172,36285,1,8,0:0:0:0:
252,172,36548,1,8,0:0:0:0:
252,172,36811,1,8,0:0:0:0:
252,172,37074,1,8,0:0:0:0:
252,172,37338,1,8,0:0:0:0:
252,172,37469,1,0,0:0:0:0:
252,172,37732,1,0,0:0:0:0:
252,172,37995,1,0,0:0:0:0:
252,172,38259,1,8,0:0:0:0:
244,168,38522,1,0,0:0:0:0:
256,164,38653,1,8,0:0:0:0:
256,164,38916,1,8,0:0:0:0:
256,164,39180,1,8,0:0:0:0:
256,164,39443,1,8,0:0:0:0:
256,164,39706,1,8,0:0:0:0:
256,164,39969,1,8,0:0:0:0:
256,164,40101,1,8,0:0:0:0:
256,164,40232,1,8,0:0:0:0:
256,164,40364,1,8,0:0:0:0:
264,192,40495,1,4,0:0:0:0:
264,192,40759,1,8,0:0:0:0:
264,192,41022,1,0,0:0:0:0:
256,176,41153,1,8,0:0:0:0:
264,192,41285,1,0,0:0:0:0:
248,176,41416,1,8,0:0:0:0:
264,192,41548,1,8,0:0:0:0:
248,176,41811,1,8,0:0:0:0:
272,192,42074,1,0,0:0:0:0:
272,192,42206,1,0,0:0:0:0:
272,192,42338,1,8,0:0:0:0:
260,184,42469,1,0,0:0:0:0:
272,172,42601,1,8,0:0:0:0:
272,192,42864,1,8,0:0:0:0:
272,192,43127,1,0,0:0:0:0:
272,192,43259,1,8,0:0:0:0:
272,192,43390,1,8,0:0:0:0:
272,192,43522,1,0,0:0:0:0:
264,180,43653,1,0,0:0:0:0:
276,196,43916,1,8,0:0:0:0:
276,196,44180,1,8,0:0:0:0:
276,196,44311,1,0,0:0:0:0:
276,196,44443,1,8,0:0:0:0:
276,196,44574,1,0,0:0:0:0:
276,196,44706,1,8,0:0:0:0:
272,192,44969,1,8,0:0:0:0:
272,192,45232,1,8,0:0:0:0:
272,192,45364,1,8,0:0:0:0:
272,192,45627,1,8,0:0:0:0:
272,192,45759,1,0,0:0:0:0:
272,192,46153,1,0,0:0:0:0:
272,192,46416,1,0,0:0:0:0:
272,184,46548,1,0,0:0:0:0:
272,192,46680,1,8,0:0:0:0:
260,188,47074,1,8,0:0:0:0:
260,184,47338,1,8,0:0:0:0:
260,184,47601,1,8,0:0:0:0:
260,188,47864,1,8,0:0:0:0:
260,184,48127,1,8,0:0:0:0:
248,168,48259,1,8,0:0:0:0:
264,188,48390,1,0,0:0:0:0:
264,188,48522,1,0,0:0:0:0:
264,188,48653,1,0,0:0:0:0:
276,188,48785,1,0,0:0:0:0:
264,188,48916,1,8,0:0:0:0:
264,188,49180,1,8,0:0:0:0:
264,188,49311,1,8,0:0:0:0:
264,188,49443,1,0,0:0:0:0:
268,192,49706,1,8,0:0:0:0:
268,192,49838,1,0,0:0:0:0:
268,192,50101,1,8,0:0:0:0:
268,192,50232,1,0,0:0:0:0:
268,192,50890,1,8,0:0:0:0:
268,192,51153,1,0,0:0:0:0:
268,192,51285,1,8,0:0:0:0:
268,192,51548,1,8,0:0:0:0:
268,192,51680,1,8,0:0:0:0:
268,192,51811,1,0,0:0:0:0:
268,192,51943,1,8,0:0:0:0:
268,192,52338,1,8,0:0:0:0:
268,192,52601,1,8,0:0:0:0:
268,192,52864,1,8,0:0:0:0:
268,192,53127,1,8,0:0:0:0:
256,184,53259,1,8,0:0:0:0:
256,184,53390,1,8,0:0:0:0:
216,184,53522,1,0,0:0:0:0:
224,176,53785,1,0,0:0:0:0:
268,192,53916,1,8,0:0:0:0:
268,192,54048,1,0,0:0:0:0:
268,192,54311,1,0,0:0:0:0:
268,192,54443,1,8,0:0:0:0:
240,192,54574,1,0,0:0:0:0:
240,192,54706,1,8,0:0:0:0:
240,192,54838,1,8,0:0:0:0:
244,184,55101,1,8,0:0:0:0:
248,184,55495,1,8,0:0:0:0:
248,184,55759,1,8,0:0:0:0:
244,184,56022,1,8,0:0:0:0:
248,184,56285,1,8,0:0:0:0:
248,184,56548,1,8,0:0:0:0:
244,184,56811,1,8,0:0:0:0:
248,184,57074,1,0,0:0:0:0:
248,184,57206,1,8,0:0:0:0:
248,184,57601,1,8,0:0:0:0:
248,184,57864,1,8,0:0:0:0:
248,184,58127,1,8,0:0:0:0:
248,184,58390,1,8,0:0:0:0:
248,184,58653,1,4,0:0:0:0:
248,184,58916,1,4,0:0:0:0:
248,184,59180,1,4,0:0:0:0:
252,224,59443,1,12,0:0:0:0:
252,224,59707,1,8,0:0:0:0:
252,224,59838,1,0,0:0:0:0:
252,224,60233,1,8,0:0:0:0:
252,224,60496,1,0,0:0:0:0:
252,224,60628,1,8,0:0:0:0:
252,224,60891,1,8,0:0:0:0:
280,216,61154,1,0,0:0:0:0:
280,216,61286,1,8,0:0:0:0:
280,216,61549,1,8,0:0:0:0:
280,216,61812,1,8,0:0:0:0:
280,216,61943,1,0,0:0:0:0:
280,216,62338,1,8,0:0:0:0:
280,216,62601,1,0,0:0:0:0:
280,216,62733,1,8,0:0:0:0:
280,216,62996,1,8,0:0:0:0:
280,216,63259,1,0,0:0:0:0:
280,216,63391,1,8,0:0:0:0:
280,216,63654,1,8,0:0:0:0:
280,216,63917,1,8,0:0:0:0:
280,216,64049,1,0,0:0:0:0:
280,216,64443,1,8,0:0:0:0:
280,216,64707,1,0,0:0:0:0:
280,216,64838,1,8,0:0:0:0:
280,216,65101,1,8,0:0:0:0:
280,216,65496,1,8,0:0:0:0:
280,216,65628,1,0,0:0:0:0:
280,216,65759,1,8,0:0:0:0:
280,216,66022,1,8,0:0:0:0:
280,216,66285,1,0,0:0:0:0:
280,216,66417,1,0,0:0:0:0:
280,216,66549,1,8,0:0:0:0:
272,220,66680,1,0,0:0:0:0:
284,200,66812,1,8,0:0:0:0:
284,200,67074,1,8,0:0:0:0:
284,200,67338,1,8,0:0:0:0:
288,200,67601,1,8,0:0:0:0:
284,200,67865,1,8,0:0:0:0:
312,184,67995,1,0,0:0:0:0:
284,200,68128,1,8,0:0:0:0:
284,200,68391,1,0,0:0:0:0:
284,200,68522,1,0,0:0:0:0:
284,200,68654,1,8,0:0:0:0:
284,200,68786,1,0,0:0:0:0:
284,200,68917,1,0,0:0:0:0:
284,200,69049,1,8,0:0:0:0:
284,200,69312,1,8,0:0:0:0:
272,192,69575,1,0,0:0:0:0:
284,200,69707,1,8,0:0:0:0:
284,200,69970,1,8,0:0:0:0:
292,196,70101,1,0,0:0:0:0:
284,200,70233,1,8,0:0:0:0:
284,200,70496,1,0,0:0:0:0:
284,200,70628,1,0,0:0:0:0:
288,196,70759,1,0,0:0:0:0:
284,200,70891,1,8,0:0:0:0:
284,200,71022,1,0,0:0:0:0:
284,200,71154,1,8,0:0:0:0:
284,200,71417,1,8,0:0:0:0:
280,176,71680,1,0,0:0:0:0:
284,200,71812,1,8,0:0:0:0:
300,192,72075,1,8,0:0:0:0:
284,200,72207,1,0,0:0:0:0:
300,192,72338,1,8,0:0:0:0:
300,192,72470,1,0,0:0:0:0:
300,192,72733,1,0,0:0:0:0:
300,192,72865,1,8,0:0:0:0:
276,176,72996,1,0,0:0:0:0:
300,192,73128,1,8,0:0:0:0:
300,192,73259,1,8,0:0:0:0:
300,192,73522,1,8,0:0:0:0:
300,192,73786,1,8,0:0:0:0:
300,192,73917,1,8,0:0:0:0:
300,192,74049,1,8,0:0:0:0:
300,192,74180,1,0,0:0:0:0:
300,192,74312,1,0,0:0:0:0:
