osu file format v14

[General]
AudioFilename: audio.mp3
AudioLeadIn: 0
PreviewTime: 32074
Countdown: 0
SampleSet: Normal
StackLeniency: 0.7
Mode: 1
LetterboxInBreaks: 0
WidescreenStoryboard: 0

[Editor]
DistanceSpacing: 1.6
BeatDivisor: 4
GridSize: 4
TimelineZoom: 1.7

[Metadata]
Title:Ii Hito
TitleUnicode:いいひと
Artist:Golden Bomber
ArtistUnicode:Golden Bomber
Creator:Karee Pan
Version:Futsuu
Source:
Tags:
BeatmapID:1290275
BeatmapSetID:611176

[Difficulty]
HPDrainRate:7
CircleSize:4.5
OverallDifficulty:3
ApproachRate:8.5
SliderMultiplier:1.4
SliderTickRate:1

[Events]
//Background and Video events
0,0,"9175cf9c31a3426726a940587c080369.jpg",0,0
//Break Periods
//Storyboard Layer 0 (Background)
//Storyboard Layer 1 (Fail)
//Storyboard Layer 2 (Pass)
//Storyboard Layer 3 (Foreground)
//Storyboard Sound Samples

[TimingPoints]
8916.98671273621,263.157894736842,4,1,0,100,1,0
59443,-100,4,1,0,100,0,1
74180,-100,4,1,0,100,0,0

[HitObjects]
264,192,8127,5,4,0:0:0:0:
264,192,8390,1,4,0:0:0:0:
264,192,8653,1,4,0:0:0:0:
268,192,8916,1,8,0:0:0:0:
272,188,9311,1,0,0:0:0:0:
272,184,9706,1,8,0:0:0:0:
264,176,9969,1,0,0:0:0:0:
264,176,10364,1,8,0:0:0:0:
268,192,11022,1,8,0:0:0:0:
272,188,11416,1,0,0:0:0:0:
272,184,11812,1,8,0:0:0:0:
264,176,12075,1,0,0:0:0:0:
264,176,12470,1,8,0:0:0:0:
268,192,13127,1,8,0:0:0:0:
272,188,13522,1,0,0:0:0:0:
272,184,13917,1,8,0:0:0:0:
264,176,14180,1,0,0:0:0:0:
264,176,14575,1,8,0:0:0:0:
264,176,14969,1,8,0:0:0:0:
260,176,15232,1,8,0:0:0:0:
264,176,16022,1,8,0:0:0:0:
264,176,16285,1,0,0:0:0:0:
264,176,16680,1,8,0:0:0:0:
264,176,17338,1,8,0:0:0:0:
264,176,17864,1,8,0:0:0:0:
264,176,18390,1,0,0:0:0:0:
248,176,18653,1,0,0:0:0:0:
248,176,18916,1,8,0:0:0:0:
264,176,19443,1,8,0:0:0:0:
264,176,19969,1,8,0:0:0:0:
264,176,20495,1,0,0:0:0:0:
264,176,20759,1,0,0:0:0:0:
264,176,21022,1,8,0:0:0:0:
264,176,21548,1,8,0:0:0:0:
264,176,22601,1,8,0:0:0:0:
260,184,23653,1,0,0:0:0:0:
260,184,24180,1,8,0:0:0:0:
260,184,24706,1,0,0:0:0:0:
260,184,25101,1,8,0:0:0:0:
260,184,25759,1,0,0:0:0:0:
260,184,26285,1,8,0:0:0:0:
260,184,26811,1,0,0:0:0:0:
260,184,27206,1,8,0:0:0:0:
260,184,27864,1,0,0:0:0:0:
260,184,28390,1,8,0:0:0:0:
260,184,28916,1,0,0:0:0:0:
260,184,29311,1,8,0:0:0:0:
260,176,29969,1,0,0:0:0:0:
256,176,30364,1,8,0:0:0:0:
256,176,30890,1,0,0:0:0:0:
240,176,31548,1,0,0:0:0:0:
240,176,31811,1,8,0:0:0:0:
240,176,32074,1,0,0:0:0:0:
240,184,32338,1,0,0:0:0:0:
244,168,32864,1,0,0:0:0:0:
244,168,33127,1,8,0:0:0:0:
232,164,33390,1,8,0:0:0:0:
244,168,33916,1,8,0:0:0:0:
244,168,34180,1,0,0:0:0:0:
220,164,34443,1,8,0:0:0:0:
240,156,34969,1,8,0:0:0:0:
240,164,35232,1,0,0:0:0:0:
228,160,35495,1,0,0:0:0:0:
228,160,36022,1,0,0:0:0:0:
252,156,36285,1,8,0:0:0:0:
232,152,36811,1,8,0:0:0:0:
232,152,37338,1,8,0:0:0:0:
232,152,37732,1,0,0:0:0:0:
232,152,37995,1,0,0:0:0:0:
256,192,38259,12,0,39706,0:0:0:0:
252,180,40232,5,8,0:0:0:0:
252,180,40495,1,0,0:0:0:0:
252,180,40759,1,0,0:0:0:0:
252,180,41285,1,0,0:0:0:0:
252,180,41548,1,8,0:0:0:0:
252,172,41811,1,8,0:0:0:0:
252,172,42338,1,8,0:0:0:0:
252,172,42601,1,0,0:0:0:0:
252,172,42864,1,8,0:0:0:0:
252,172,43390,1,8,0:0:0:0:
252,172,43653,1,0,0:0:0:0:
240,168,43916,1,0,0:0:0:0:
252,180,44443,1,0,0:0:0:0:
252,180,44706,1,8,0:0:0:0:
252,180,45232,1,8,0:0:0:0:
252,180,45759,1,8,0:0:0:0:
252,180,46153,1,0,0:0:0:0:
252,180,46416,1,0,0:0:0:0:
256,192,46680,12,0,48127,0:0:0:0:
244,196,48916,5,8,0:0:0:0:
244,196,49443,1,0,0:0:0:0:
244,196,49838,1,0,0:0:0:0:
232,200,50890,1,0,0:0:0:0:
232,192,51548,1,8,0:0:0:0:
232,192,51943,1,0,0:0:0:0:
232,188,53127,1,8,0:0:0:0:
232,188,53522,1,8,0:0:0:0:
240,192,54048,1,0,0:0:0:0:
240,184,54443,1,0,0:0:0:0:
240,192,54706,1,0,0:0:0:0:
256,192,55101,12,0,57074,0:0:0:0:
256,192,57206,12,0,58390,0:0:0:0:
248,200,58653,5,4,0:0:0:0:
248,200,58916,1,4,0:0:0:0:
248,200,59180,1,4,0:0:0:0:
268,192,59443,1,8,0:0:0:0:
272,188,59838,1,0,0:0:0:0:
272,184,60233,1,8,0:0:0:0:
264,176,60496,1,0,0:0:0:0:
264,176,60891,1,8,0:0:0:0:
268,192,61549,1,8,0:0:0:0:
272,188,61943,1,0,0:0:0:0:
272,184,62339,1,8,0:0:0:0:
264,176,62602,1,0,0:0:0:0:
264,176,62997,1,8,0:0:0:0:
268,192,63654,1,8,0:0:0:0:
272,188,64049,1,0,0:0:0:0:
272,184,64444,1,8,0:0:0:0:
264,176,64707,1,0,0:0:0:0:
264,176,65102,1,8,0:0:0:0:
260,176,65496,1,0,0:0:0:0:
264,176,65759,1,8,0:0:0:0:
240,168,66285,1,0,0:0:0:0:
264,176,66811,1,0,0:0:0:0:
264,176,67207,1,8,0:0:0:0:
232,168,67601,1,0,0:0:0:0:
264,176,67865,1,8,0:0:0:0:
264,176,68390,1,8,0:0:0:0:
264,176,68917,1,0,0:0:0:0:
264,176,69180,1,8,0:0:0:0:
264,176,69443,1,0,0:0:0:0:
264,176,69970,1,8,0:0:0:0:
264,176,70496,1,8,0:0:0:0:
264,176,71022,1,0,0:0:0:0:
264,176,71286,1,8,0:0:0:0:
264,176,71549,1,0,0:0:0:0:
264,176,72075,1,8,0:0:0:0:
272,176,72601,1,0,0:0:0:0:
264,176,73128,1,8,0:0:0:0:
248,172,73522,1,8,0:0:0:0:
272,168,73916,1,0,0:0:0:0:
260,184,74180,1,0,0:0:0:0:
