osu file format v14

[General]
AudioFilename: experimenta.mp3
AudioLeadIn: 0
PreviewTime: 129317
Countdown: 0
SampleSet: Soft
StackLeniency: 0.2
Mode: 0
LetterboxInBreaks: 0
WidescreenStoryboard: 0

[Editor]
DistanceSpacing: 0.14
BeatDivisor: 4
GridSize: 32
TimelineZoom: 1.4

[Metadata]
Title:Experiment A (Cut Ver.)
TitleUnicode:Experiment A (Cut Ver.)
Artist:Gold Season
ArtistUnicode:Gold Season
Creator:pishifat
Version:Insane
Source:
Tags:english rock allseer alternative post hardcore metal milan-
BeatmapID:1077954
BeatmapSetID:498498

[Difficulty]
HPDrainRate:5
CircleSize:4
OverallDifficulty:7
ApproachRate:8.5
SliderMultiplier:0.999999999999999
SliderTickRate:1

[Events]
//Background and Video events
0,0,"BACKFTROUNDF.jpg",0,0
//Break Periods
2,37736,42298
2,89110,92735
2,116111,124236
//Storyboard Layer 0 (Background)
//Storyboard Layer 1 (Fail)
//Storyboard Layer 2 (Pass)
//Storyboard Layer 3 (Foreground)
//Storyboard Layer 4 (Overlay)
//Storyboard Sound Samples

[TimingPoints]
538,333.333333333333,4,2,1,70,1,0
538,-66.6666666666667,4,2,1,70,0,0
1121,-100,4,2,1,45,0,0
1204,-66.6666666666667,4,2,1,70,0,0
1954,-100,4,2,1,55,0,0
2037,-66.6666666666667,4,2,1,70,0,0
2287,-100,4,2,1,55,0,0
2371,-66.6666666666667,4,2,1,70,0,0
4204,-100,4,2,1,60,0,0
5704,-100,4,2,1,70,0,0
7204,-100,4,2,1,60,0,0
7537,333.333333333333,4,2,1,75,1,0
7537,-76.9230769230769,4,2,1,75,0,0
7787,-76.9230769230769,4,2,1,41,0,0
7870,-76.9230769230769,4,2,1,75,0,0
9370,-76.9230769230769,4,2,1,55,0,0
9536,-76.9230769230769,4,2,1,65,0,0
9703,-76.9230769230769,4,2,1,75,0,0
9870,-76.9230769230769,4,2,1,75,0,0
10453,-76.9230769230769,4,2,1,41,0,0
10536,-76.9230769230769,4,2,1,75,0,0
11870,-100,4,2,1,75,0,0
12203,-100,4,2,1,65,0,0
12870,-76.9230769230769,4,2,1,75,0,0
13120,-76.9230769230769,4,2,1,41,0,0
13203,-76.9230769230769,4,2,1,75,0,0
14703,-76.9230769230769,4,2,1,55,0,0
14870,-76.9230769230769,4,2,1,65,0,0
15036,-76.9230769230769,4,2,1,75,0,0
15786,-76.9230769230769,4,2,1,41,0,0
15870,-76.9230769230769,4,2,1,75,0,0
17536,-76.9230769230769,4,2,1,65,0,0
18203,-76.9230769230769,4,2,1,75,0,0
18453,-76.9230769230769,4,2,1,41,0,0
18536,-76.9230769230769,4,2,1,75,0,0
20036,-76.9230769230769,4,2,1,55,0,0
20203,-76.9230769230769,4,2,1,65,0,0
20370,-76.9230769230769,4,2,1,75,0,0
21120,-76.9230769230769,4,2,1,41,0,0
21203,-76.9230769230769,4,2,1,75,0,0
22870,-76.9230769230769,4,2,1,65,0,0
23536,-76.9230769230769,4,2,1,75,0,0
23786,-76.9230769230769,4,2,1,41,0,0
23870,-76.9230769230769,4,2,1,75,0,0
25870,-100,4,2,1,75,0,0
26036,-100,4,2,1,60,0,0
26203,-76.9230769230769,4,2,1,75,0,0
26370,-76.9230769230769,4,2,1,55,0,0
26536,-76.9230769230769,4,2,1,65,0,0
26703,-76.9230769230769,4,2,1,75,0,0
27120,-76.9230769230769,4,2,1,75,0,0
27370,-76.9230769230769,4,2,1,75,0,0
28870,-76.9230769230769,4,2,1,65,0,0
31203,-76.9230769230769,4,2,1,75,0,0
31536,375,4,2,2,85,1,0
31536,-58.8235294117647,4,2,2,85,0,0
31723,-100,4,2,2,5,0,0
31817,-100,4,2,2,85,0,0
32004,-100,4,2,2,5,0,0
32098,-58.8235294117647,4,2,2,85,0,0
32379,-100,4,2,2,5,0,0
32473,-100,4,2,2,85,0,0
32661,-58.8235294117647,4,2,2,85,0,0
32942,-58.8235294117647,4,2,2,85,0,0
33129,-58.8235294117647,4,2,2,5,0,0
33223,-58.8235294117647,4,2,2,85,0,0
34723,-58.8235294117647,4,2,2,5,0,0
34817,-58.8235294117647,4,2,2,65,0,0
35004,-58.8235294117647,4,2,2,5,0,0
35098,-46.5116279069767,4,2,2,85,0,0
35286,-46.5116279069767,4,2,2,5,0,0
35379,-58.8235294117647,4,2,2,65,0,0
35567,-58.8235294117647,4,2,2,5,0,0
35661,-38.4615384615385,4,2,2,85,0,0
35848,-38.4615384615385,4,2,2,5,0,0
35942,-58.8235294117647,4,2,2,65,0,0
36129,-58.8235294117647,4,2,2,5,0,0
36223,-71.4285714285714,4,2,2,65,0,0
36786,-58.8235294117647,4,2,2,85,0,0
37536,-58.8235294117647,4,2,1,60,0,0
39692,-58.8235294117647,4,2,1,50,0,0
39786,-58.8235294117647,4,2,1,60,0,0
42692,-100,4,2,1,50,0,0
42786,-100,4,2,1,60,0,0
43536,-66.6666666666667,4,2,1,75,0,0
54973,-66.6666666666667,4,2,1,55,0,0
55161,-66.6666666666667,4,2,1,65,0,0
55348,-66.6666666666667,4,2,1,75,0,0
55536,-66.6666666666667,4,2,1,75,0,0
56567,-66.6666666666667,4,2,1,55,0,0
56661,-66.6666666666667,4,2,1,75,0,0
57411,-100,4,2,1,65,0,0
58536,-66.6666666666667,4,2,1,75,0,0
59098,-66.6666666666667,4,2,1,55,0,0
59286,-66.6666666666667,4,2,1,75,0,0
60411,-100,4,2,1,75,0,0
60973,-66.6666666666667,4,2,1,55,0,0
61161,-66.6666666666667,4,2,1,65,0,0
61348,-66.6666666666667,4,2,1,75,0,0
62567,-66.6666666666667,4,2,1,55,0,0
62661,-66.6666666666667,4,2,1,75,0,0
63411,-100,4,2,1,65,0,0
64442,-66.6666666666667,4,2,1,55,0,0
64536,-66.6666666666667,4,2,1,75,0,0
65661,375,3,2,2,85,1,0
65661,-55.5555555555556,3,2,2,85,0,0
65848,-100,3,2,2,5,0,0
65942,-100,3,2,2,85,0,0
66129,-100,3,2,2,5,0,0
66223,-100,3,2,2,85,0,0
66317,-100,3,2,2,45,0,0
66411,-55.5555555555556,3,2,2,85,0,0
66973,-100,3,2,2,5,0,0
67067,-100,3,2,2,85,0,0
67254,-100,3,2,2,5,0,0
67348,-55.5555555555556,3,2,2,85,0,0
68473,375,4,2,2,85,1,0
68473,-58.8235294117647,4,2,2,85,0,0
68661,-50,4,2,2,5,0,0
68754,-50,4,2,2,85,0,0
68941,-50,4,2,2,5,0,0
69035,-50,4,2,2,85,0,0
69223,-50,4,2,2,5,0,0
69316,-50,4,2,2,85,0,0
69504,-50,4,2,2,5,0,0
69598,-50,4,2,2,85,0,0
69691,-50,4,2,2,45,0,0
69785,375,3,2,2,85,1,0
69785,-58.8235294117647,3,2,2,85,0,0
70816,-58.8235294117647,3,2,2,5,0,0
70911,-58.8235294117647,3,2,2,85,0,0
71097,-58.8235294117647,3,2,2,5,0,0
71191,-58.8235294117647,3,2,2,85,0,0
71378,-58.8235294117647,3,2,2,5,0,0
71472,-58.8235294117647,3,2,2,85,0,0
71566,-58.8235294117647,3,2,2,45,0,0
71660,-58.8235294117647,3,2,2,85,0,0
72222,-58.8235294117647,3,2,2,5,0,0
72316,-58.8235294117647,3,2,2,85,0,0
72503,-58.8235294117647,3,2,2,5,0,0
72597,-58.8235294117647,3,2,2,85,0,0
73723,375,4,2,2,85,1,0
73723,-58.8235294117647,4,2,2,85,0,0
73910,-100,4,2,2,5,0,0
74004,-100,4,2,2,85,0,0
74191,-100,4,2,2,5,0,0
74285,-50,4,2,2,85,0,0
74473,-50,4,2,2,5,0,0
74566,-50,4,2,2,85,0,0
74754,-50,4,2,2,5,0,0
74848,-50,4,2,2,85,0,0
74941,-50,4,2,2,45,0,0
75035,375,3,2,2,85,1,0
75035,-58.8235294117647,3,2,2,85,0,0
75973,-58.8235294117647,4,2,2,85,0,0
76160,-71.4285714285714,4,2,2,85,0,0
76161,-71.4285714285714,4,2,2,75,0,0
76347,-71.4285714285714,4,2,2,5,0,0
76441,-71.4285714285714,4,2,2,75,0,0
76628,-50,4,2,2,5,0,0
76722,-71.4285714285714,4,2,2,75,0,0
76816,-71.4285714285714,4,2,2,5,0,0
76911,375,3,2,2,85,1,0
76911,-58.8235294117647,3,2,2,85,0,0
77098,-100,3,2,2,5,0,0
77192,-100,3,2,2,85,0,0
77379,-100,3,2,2,5,0,0
77473,-100,3,2,2,85,0,0
77567,-100,3,2,2,45,0,0
77661,-58.8235294117647,3,2,2,85,0,0
78223,-100,3,2,2,5,0,0
78317,-100,3,2,2,85,0,0
78504,-100,3,2,2,5,0,0
78598,-100,3,2,2,85,0,0
79161,-58.8235294117647,4,2,2,85,0,0
79723,375,4,2,2,85,1,0
79723,-58.8235294117647,4,2,2,85,0,0
79910,-100,4,2,2,5,0,0
80004,-100,4,2,2,85,0,0
80191,-100,4,2,2,5,0,0
80285,-100,4,2,2,85,0,0
80379,-100,4,2,2,45,0,0
80473,-58.8235294117647,4,2,2,85,0,0
80566,-100,4,2,2,45,0,0
80660,-100,4,2,2,85,0,0
81035,375,3,2,2,85,1,0
81035,-58.8235294117647,3,2,2,85,0,0
82066,-58.8235294117647,3,2,2,5,0,0
82160,375,4,2,2,75,1,0
82160,-71.4285714285714,4,2,2,75,0,0
82347,-100,4,2,2,5,0,0
82441,-71.4285714285714,4,2,2,75,0,0
82628,-100,4,2,2,5,0,0
82722,-100,4,2,2,75,0,0
82816,-100,4,2,2,5,0,0
82910,-71.4285714285714,4,2,2,75,0,0
83097,-71.4285714285714,4,2,2,5,0,0
83191,-71.4285714285714,4,2,2,75,0,0
83378,-71.4285714285714,4,2,2,5,0,0
83472,-71.4285714285714,4,2,2,75,0,0
83567,-100,4,2,2,5,0,0
83661,375,3,2,2,85,1,0
83661,-58.8235294117647,3,2,2,85,0,0
83848,-100,3,2,2,5,0,0
83942,-100,3,2,2,85,0,0
84129,-100,3,2,2,5,0,0
84223,-100,3,2,2,85,0,0
84317,-100,3,2,2,45,0,0
84411,-58.8235294117647,3,2,2,85,0,0
84973,-100,3,2,2,5,0,0
85067,-100,3,2,2,85,0,0
85254,-100,3,2,2,5,0,0
85348,-58.8235294117647,3,2,2,85,0,0
86473,375,4,2,2,85,1,0
86473,-58.8235294117647,4,2,2,85,0,0
86660,-100,4,2,2,5,0,0
86754,-100,4,2,2,85,0,0
86941,-100,4,2,2,5,0,0
87035,-50,4,2,2,85,0,0
87223,-50,4,2,2,5,0,0
87316,-50,4,2,2,85,0,0
87504,-50,4,2,2,5,0,0
87598,-50,4,2,2,85,0,0
87691,-50,4,2,2,45,0,0
87785,375,3,2,2,85,1,0
88910,375,4,2,2,55,1,0
88911,-100,4,2,2,55,0,0
93410,-200,4,2,2,55,0,0
93503,-100,4,2,1,45,0,0
93972,-100,4,2,1,55,0,0
96411,375,3,2,2,85,1,0
96411,-40,3,2,2,85,0,0
96692,-40,3,2,2,85,0,0
97536,-40,3,2,2,85,0,0
97817,-40,3,2,2,85,0,0
98661,-40,3,2,2,85,0,0
98942,-40,3,2,2,85,0,0
99411,375,3,2,2,85,1,0
99411,-40,3,2,2,85,0,0
99692,-40,3,2,2,85,0,0
100536,375,4,2,2,85,1,0
100536,-40,4,2,2,85,0,0
100817,-40,4,2,2,85,0,0
101286,-40,4,2,2,75,0,0
101661,-40,4,2,2,85,0,0
102036,375,3,2,2,85,1,0
102036,-40,3,2,2,85,0,0
102317,-40,3,2,2,85,0,0
103161,-40,3,2,2,85,0,0
103348,-40,3,2,2,85,0,0
104286,375,5,2,2,85,1,0
104286,-40,5,2,2,85,0,0
104567,-40,5,2,2,85,0,0
106161,375,4,2,2,85,1,0
106161,-40,4,2,2,85,0,0
106348,-40,4,2,2,5,0,0
106411,-40,4,2,2,70,0,0
106598,-40,4,2,2,5,0,0
106661,-40,4,2,2,70,0,0
106848,-40,4,2,2,5,0,0
106911,-40,4,2,2,70,0,0
107098,-40,4,2,2,5,0,0
107161,-40,4,2,2,70,0,0
107348,-40,4,2,2,5,0,0
107411,-40,4,2,2,70,0,0
107598,-40,4,2,2,5,0,0
107661,-40,4,2,2,70,0,0
107848,-40,4,2,2,5,0,0
107911,-40,4,2,2,70,0,0
108098,-40,4,2,2,5,0,0
108161,-40,4,2,2,70,0,0
108348,-40,4,2,2,5,0,0
108411,-40,4,2,2,70,0,0
108598,-40,4,2,2,5,0,0
108661,-40,4,2,2,70,0,0
108848,-40,4,2,2,5,0,0
108911,-40,4,2,2,70,0,0
109098,-40,4,2,2,5,0,0
109161,-40,4,2,2,85,0,0
109911,-40,4,2,2,85,0,0
110661,-40,4,2,2,85,0,0
111411,-40,4,2,2,85,0,0
112161,-40,4,2,2,85,0,0
112911,375,4,2,1,75,1,0
113286,-40,4,2,1,75,0,0
113661,-40,4,2,1,60,0,0
114223,-100,4,2,1,75,0,0
115067,-40,4,2,1,41,0,0
115161,-40,4,2,1,75,0,0
115723,-40,4,2,1,65,0,0
115911,-40,4,2,1,75,0,0
118536,-40,4,2,1,45,0,0
118723,-40,4,2,1,75,0,0
124723,-100,4,2,1,60,0,0
124911,-100,4,2,1,45,0,0
125286,-100,4,2,1,55,0,0
125661,-100,4,2,1,65,0,0
126036,-100,4,2,1,55,0,0
126598,-100,4,2,1,60,0,0
127161,-100,4,2,1,55,0,0
129411,-62.5,4,2,1,75,0,1
130161,-62.5,4,2,1,75,0,1
132411,-62.5,4,2,1,75,0,1
132786,-62.5,4,2,1,75,0,1
135411,-62.5,4,2,1,75,0,1
135786,-62.5,4,2,1,75,0,1
138411,-55.5555555555556,4,2,1,75,0,0
140473,-62.5,4,2,1,75,0,0
141036,-62.5,4,2,1,75,0,0
141411,-62.5,4,2,1,75,0,1
141786,-62.5,4,2,1,75,0,1
144411,-62.5,4,2,1,75,0,1
144786,-62.5,4,2,1,75,0,1
147411,-62.5,4,2,1,75,0,1
147786,-62.5,4,2,1,75,0,1
150411,-55.5555555555556,4,2,1,75,0,0
152723,-62.5,4,2,1,45,0,0
153036,-62.5,4,2,1,75,0,0
153411,-62.5,4,2,1,75,0,0

[Colours]
Combo1 : 113,189,151
Combo2 : 192,192,192
Combo3 : 192,218,177
Combo4 : 149,217,253

[HitObjects]
115,177,538,6,0,P|140:159|192:168,1,75.000002861023,4|8,1:0|0:0,0:0:0:0:
179,168,787,1,8,0:0:0:0:
175,174,871,2,0,P|187:146|243:123,1,75.000002861023,8|8,0:0|0:0,0:0:0:0:
224,131,1121,1,8,0:0:0:0:
227,137,1204,2,0,P|235:88|259:66,2,75.000002861023,6|4|8,0:0|0:3|0:3,0:0:0:0:
408,267,1704,6,0,P|405:231|383:201,1,75.000002861023,8|4,0:0|0:3,0:0:0:0:
282,324,2037,2,0,P|314:340|351:336,1,75.000002861023,8|4,0:0|0:3,0:0:0:0:
347,329,2287,1,8,0:0:0:0:
340,324,2371,1,8,0:0:0:0:
332,322,2454,1,8,0:3:0:0:
324,322,2537,1,4,0:3:0:0:
316,324,2621,1,8,0:0:0:0:
309,327,2704,1,4,0:3:0:0:
303,332,2787,1,4,0:3:0:0:
299,338,2871,6,0,L|302:239,1,75.000002861023,10|8,0:0|0:0,0:0:0:0:
305,269,3121,1,8,0:0:0:0:
309,276,3204,2,0,P|342:299|394:296,1,75.000002861023,4|0,1:0|0:0,0:0:0:0:
383,298,3454,2,0,P|328:333|312:392,1,112.500004291535,4|4,0:3|0:3,0:0:0:0:
319,373,3787,1,8,0:0:0:0:
324,368,3871,5,6,0:0:0:0:
277,157,4871,5,8,0:3:0:0:
281,161,4954,1,8,0:3:0:0:
282,166,5037,1,8,0:3:0:0:
191,237,5204,5,8,0:3:0:0:
195,218,5371,1,4,0:3:0:0:
206,202,5537,1,4,0:3:0:0:
226,332,5704,5,10,0:0:0:0:
226,332,7204,1,8,0:0:0:0:
129,76,7537,6,0,P|92:42|35:58,1,97.4999955368043,6|0,0:0|0:0,0:0:0:0:
53,51,7870,1,8,0:0:0:0:
253,206,8203,2,0,P|271:174|259:126,1,64.9999970245362,4|4,0:3|0:3,0:0:0:0:
210,90,8536,1,10,0:0:0:0:
351,144,8703,6,0,P|325:85|196:111,1,194.999991073609,4|10,0:3|0:0,0:0:0:0:
458,88,9370,1,8,0:0:0:0:
462,82,9454,1,8,0:0:0:0:
460,76,9537,1,8,0:0:0:0:
454,74,9620,1,8,0:0:0:0:
448,77,9704,1,8,0:0:0:0:
447,84,9787,1,8,0:0:0:0:
452,89,9870,1,4,0:3:0:0:
489,328,10203,6,0,P|437:335|377:307,1,97.4999955368043,4|0,0:0|0:0,0:0:0:0:
401,318,10536,1,8,0:0:0:0:
187,335,10870,1,4,0:3:0:0:
124,280,11036,1,4,0:3:0:0:
153,204,11203,1,4,0:3:0:0:
45,293,11370,6,0,P|-8:233|18:175,1,129.999994049072,8|4,0:0|0:3,0:0:0:0:
166,78,11870,6,0,L|172:137,1,50,10|4,0:0|0:3,0:0:0:0:
166,78,12203,2,0,L|214:43,1,50,4|8,0:3|0:3,0:0:0:0:
166,78,12536,2,0,L|111:53,1,50,4|4,0:3|0:3,0:0:0:0:
427,120,12870,6,0,P|465:166|445:215,1,97.4999955368043,6|0,0:0|0:0,0:0:0:0:
452,196,13203,1,8,0:0:0:0:
215,284,13536,2,0,P|228:234|265:217,1,64.9999970245362,4|4,0:3|0:3,0:0:0:0:
313,257,13870,1,10,0:0:0:0:
185,142,14036,5,4,0:3:0:0:
260,103,14203,2,0,P|282:152|275:179,2,64.9999970245362,2|4|8,0:0|0:3|0:0,0:0:0:0:
50,129,14703,1,10,0:0:0:0:
52,135,14787,1,8,0:0:0:0:
57,138,14870,1,8,0:0:0:0:
63,134,14953,1,8,0:0:0:0:
64,128,15037,1,8,0:0:0:0:
60,123,15120,1,8,0:0:0:0:
53,123,15203,1,4,0:3:0:0:
176,383,15536,6,0,P|229:356|281:375,1,97.4999955368043,4|0,0:0|0:0,0:0:0:0:
259,367,15870,1,8,0:0:0:0:
183,183,16203,1,4,0:3:0:0:
243,240,16370,1,4,0:3:0:0:
201,309,16536,1,4,0:3:0:0:
183,183,16703,5,8,0:0:0:0:
138,253,16870,2,0,P|103:265|56:250,1,64.9999970245362,2|4,0:0|0:3,0:0:0:0:
60,77,17203,1,8,0:0:0:0:
121,129,17370,1,4,0:3:0:0:
60,77,17536,1,10,0:0:0:0:
121,129,17703,1,4,0:3:0:0:
60,77,17870,1,10,0:0:0:0:
121,129,18036,1,4,0:3:0:0:
353,93,18203,6,0,P|333:28|301:7,1,97.4999955368043,6|0,0:0|0:0,0:0:0:0:
310,18,18536,1,8,0:0:0:0:
447,277,18870,2,0,P|469:253|477:221,1,64.9999970245362,4|4,0:3|0:3,0:0:0:0:
422,152,19203,1,10,0:0:0:0:
338,250,19370,6,0,P|418:291|477:222,1,194.999991073609,4|10,0:3|0:0,0:0:0:0:
302,353,20036,1,8,0:0:0:0:
302,360,20120,1,8,0:0:0:0:
307,363,20203,1,10,0:0:0:0:
313,361,20286,1,8,0:0:0:0:
316,355,20370,1,8,0:0:0:0:
313,349,20453,1,8,0:0:0:0:
306,348,20536,1,4,0:3:0:0:
135,104,20870,6,0,P|193:69|242:87,1,97.4999955368043,6|0,0:0|0:0,0:0:0:0:
214,77,21203,1,8,0:0:0:0:
405,26,21536,1,4,0:3:0:0:
449,95,21703,1,4,0:3:0:0:
396,150,21870,1,4,0:3:0:0:
243,209,22036,6,0,P|327:213|351:261,1,129.999994049072,8|4,0:0|0:3,0:0:0:0:
196,368,22536,1,10,0:0:0:0:
222,289,22703,1,4,0:3:0:0:
196,368,22870,1,14,0:0:0:0:
222,289,23036,1,4,0:3:0:0:
196,368,23203,1,14,0:0:0:0:
222,289,23370,1,4,0:3:0:0:
62,203,23536,6,0,P|39:176|42:109,1,97.4999955368043,6|0,0:0|0:0,0:0:0:0:
42,121,23870,1,8,0:0:0:0:
183,17,24203,1,4,0:3:0:0:
245,67,24370,1,4,0:3:0:0:
216,142,24536,1,8,0:0:0:0:
354,59,24703,5,4,0:3:0:0:
396,132,24870,2,0,P|449:150|475:142,2,64.9999970245362,2|4|8,0:0|0:3|0:0,0:0:0:0:
413,0,25370,1,4,0:3:0:0:
419,2,25453,1,4,0:3:0:0:
424,5,25536,1,4,0:3:0:0:
429,9,25619,1,8,0:0:0:0:
434,14,25703,1,0,0:0:0:0:
437,19,25786,1,4,0:3:0:0:
438,25,25870,2,0,P|454:-2|486:-17,1,50,10|4,0:0|0:3,0:0:0:0:
322,229,26203,6,0,P|261:209|247:189,1,64.9999970245362,4|8,0:0|0:0,0:0:0:0:
268,208,26453,1,8,0:0:0:0:
274,210,26536,1,8,0:0:0:0:
279,214,26620,1,8,0:0:0:0:
282,219,26703,1,8,0:0:0:0:
120,179,26870,2,0,P|170:146|217:152,2,97.4999955368043,8|8|8,0:0|0:0|0:0,0:0:0:0:
123,184,27453,1,8,0:0:0:0:
128,187,27536,6,0,P|149:149|142:100,1,64.9999970245362,8|4,0:0|1:0,0:0:0:0:
60,16,27870,2,0,P|43:21|26:47,3,32.4999985122681,8|8|8|8,0:0|0:0|0:0|0:0,0:0:0:0:
30,38,28203,1,8,0:0:0:0:
30,44,28286,1,8,0:0:0:0:
31,50,28369,1,8,0:0:0:0:
33,57,28452,1,8,0:0:0:0:
36,62,28536,1,8,0:0:0:0:
39,68,28619,1,8,0:3:0:0:
43,73,28702,1,4,0:3:0:0:
48,78,28786,1,4,0:3:0:0:
53,82,28869,5,6,0:0:0:0:
108,142,29203,1,10,0:0:0:0:
59,214,29536,1,4,0:3:0:0:
103,290,29870,2,0,L|114:381,1,64.9999970245362,10|0,0:0|0:0,0:0:0:0:
114,351,30120,1,8,0:0:0:0:
117,347,30203,5,4,0:3:0:0:
195,310,30536,1,10,0:0:0:0:
260,359,30703,5,0,0:0:0:0:
265,356,30786,1,0,0:0:0:0:
271,354,30870,2,0,L|328:360,3,32.4999985122681,4|8|8|8,0:3|0:0|0:0|0:0,0:0:0:0:
309,354,31203,2,0,L|341:350,3,32.4999985122681,8|8|4|4,0:0|0:3|0:3|0:3,0:0:0:0:
401,283,31536,6,0,P|417:215|373:181,1,127.500002431869,4|8,1:0|0:0,0:0:0:0:
379,182,32098,2,0,P|405:235|321:242,1,170.000003242493,4|0,0:3|0:0,0:0:0:0:
507,107,32661,1,6,0:0:0:0:
510,111,32754,1,0,0:0:0:0:
511,116,32848,1,0,0:0:0:0:
511,121,32942,2,0,P|433:105|421:84,1,85.0000016212463,8|0,0:0|0:0,0:0:0:0:
392,26,33223,5,4,0:3:0:0:
216,38,33411,1,4,0:3:0:0:
46,52,33598,1,4,0:3:0:0:
204,122,33786,6,0,P|246:117|264:106,4,42.5000008106231,8|8|4|4|8,0:0|0:3|0:3|0:3|0:0,0:0:0:0:
236,282,34348,1,8,0:0:0:0:
241,283,34442,1,8,0:0:0:0:
246,282,34536,6,0,P|203:222|125:226,1,127.500002431869,4|4,1:0|1:0,0:0:0:0:
153,214,35098,6,0,P|233:241|290:179,1,161.25000246048,6|6,0:0|0:0,0:0:0:0:
285,195,35661,6,0,P|220:276|294:372,1,194.999991073609,6|6,0:0|0:0,0:0:0:0:
252,351,36223,6,0,P|227:297|247:243,1,104.999996795654,4|4,0:3|0:3,0:0:0:0:
238,255,36786,1,8,0:0:0:0:
275,129,37536,5,4,0:0:0:0:
217,161,42973,5,8,0:0:0:0:
212,158,43067,1,8,0:0:0:0:
210,153,43161,1,8,0:0:0:0:
287,114,43348,1,8,0:0:0:0:
169,257,43536,6,0,P|135:254|88:209,1,75.000002861023,4|0,0:0|0:0,0:0:0:0:
169,257,43911,1,10,0:0:0:0:
150,37,44286,1,4,0:3:0:0:
66,26,44473,1,4,0:3:0:0:
150,37,44661,1,10,0:0:0:0:
66,26,44848,6,0,P|15:67|43:168,1,150.000005722046,4|4,0:3|0:3,0:0:0:0:
66,26,45411,1,10,0:0:0:0:
292,118,45786,1,4,0:3:0:0:
217,154,45973,1,4,0:3:0:0:
229,237,46161,1,8,0:0:0:0:
303,197,46348,1,0,0:0:0:0:
229,237,46536,6,0,P|207:277|222:320,1,75.000002861023,4|0,0:3|0:0,0:0:0:0:
229,237,46911,1,10,0:0:0:0:
416,144,47286,2,0,P|456:181|453:236,1,112.500004291534,4|4,0:3|0:3,0:0:0:0:
449,230,47661,1,10,0:0:0:0:
443,384,47848,5,4,0:3:0:0:
363,348,48036,2,0,P|364:297|386:265,1,75.000002861023,2|4,0:0|0:3,0:0:0:0:
417,144,48411,2,0,P|363:177|325:170,1,75.000002861023,10|2,0:0|0:0,0:0:0:0:
224,55,48786,1,4,0:3:0:0:
254,133,48973,1,4,0:3:0:0:
224,55,49161,1,8,0:0:0:0:
254,133,49348,1,4,0:3:0:0:
127,290,49536,6,0,P|185:257|219:264,1,75.000002861023,4|0,0:0|0:0,0:0:0:0:
127,290,49911,1,8,0:0:0:0:
82,5,50286,2,0,P|41:69|74:124,1,112.500004291534,4|4,0:3|0:3,0:0:0:0:
52,92,50661,1,10,0:0:0:0:
239,35,50848,1,4,0:3:0:0:
186,144,51036,6,0,P|239:132|262:104,1,75.000002861023,2|4,0:0|0:3,0:0:0:0:
137,72,51411,1,8,0:0:0:0:
42,178,51598,1,2,0:0:0:0:
100,288,51786,2,0,P|121:252|115:200,1,75.000002861023,4|4,0:3|0:3,0:0:0:0:
14,280,52161,1,10,0:0:0:0:
37,362,52348,1,0,0:0:0:0:
275,310,52536,6,0,P|200:313|170:391,1,150.000005722046,4|8,0:3|0:0,0:0:0:0:
263,222,53098,1,2,0:0:0:0:
275,310,53286,2,0,P|326:342|385:321,1,112.500004291534,4|4,0:3|0:3,0:0:0:0:
368,324,53661,1,10,0:0:0:0:
483,378,53848,5,4,0:3:0:0:
490,238,54036,2,0,P|459:264|453:307,1,75.000002861023,2|4,0:0|0:3,0:0:0:0:
490,238,54411,1,10,0:0:0:0:
220,91,54786,1,4,0:3:0:0:
350,169,54973,1,10,0:0:0:0:
356,168,55067,1,8,0:0:0:0:
359,163,55161,1,10,0:0:0:0:
357,157,55254,1,8,0:3:0:0:
351,154,55348,1,4,0:3:0:0:
345,158,55442,1,4,0:3:0:0:
343,162,55536,6,0,P|344:207|367:238,1,75.000002861023,4|0,0:0|0:0,0:0:0:0:
281,100,55911,2,0,P|242:83|198:90,1,75.000002861023,10|0,0:0|0:0,0:0:0:0:
173,296,56286,2,0,P|234:306|270:262,1,112.500004291534,4|8,0:3|0:0,0:0:0:0:
259,272,56661,1,10,0:0:0:0:
90,376,56848,6,0,P|159:365|172:293,1,150.000005722046,4|4,0:0|0:3,0:0:0:0:
31,171,57411,6,0,L|89:178,1,50,10|0,0:0|0:0,0:0:0:0:
31,171,57786,2,0,L|7:116,1,50,6|2,0:3|0:0,0:0:0:0:
31,171,58161,2,0,L|-6:218,1,50,10|2,0:0|0:0,0:0:0:0:
256,136,58536,6,0,P|205:108|168:116,1,75.000002861023,6|0,0:0|0:0,0:0:0:0:
261,33,58911,1,10,0:0:0:0:
152,189,59098,1,8,0:0:0:0:
149,196,59192,1,8,0:0:0:0:
151,203,59286,2,0,P|180:225|216:230,1,75.000002861023,4|8,0:3|0:0,0:0:0:0:
212,224,59567,1,8,0:0:0:0:
204,224,59661,1,10,0:0:0:0:
197,227,59754,1,8,0:0:0:0:
191,231,59848,5,4,0:0:0:0:
256,136,60036,2,0,P|205:108|168:116,1,75.000002861023,2|4,0:0|0:3,0:0:0:0:
294,232,60411,6,0,L|363:226,1,50,8|4,0:0|0:3,0:0:0:0:
339,224,60786,1,4,0:3:0:0:
357,327,60973,1,8,0:0:0:0:
360,332,61067,1,8,0:0:0:0:
366,334,61161,1,10,0:0:0:0:
371,330,61254,1,8,0:3:0:0:
372,324,61348,1,4,0:3:0:0:
368,320,61442,1,4,0:3:0:0:
363,318,61536,6,0,P|320:332|297:363,1,75.000002861023,4|0,0:0|0:0,0:0:0:0:
442,271,61911,2,0,P|461:224|448:180,1,75.000002861023,10|0,0:0|0:0,0:0:0:0:
281,108,62286,2,0,P|352:153|397:134,1,112.500004291534,4|8,0:3|0:0,0:0:0:0:
368,143,62661,1,8,0:0:0:0:
219,48,62848,5,6,0:0:0:0:
248,171,63036,2,0,P|280:125|270:78,1,75.000002861023,2|4,0:0|0:3,0:0:0:0:
76,178,63411,6,0,L|134:170,1,50,10|2,0:0|0:0,0:0:0:0:
76,178,63786,2,0,L|52:232,1,50,4|2,0:3|0:0,0:0:0:0:
76,178,64161,2,0,L|39:130,1,50,10|0,0:0|0:0,0:0:0:0:
312,230,64536,6,0,P|331:272|320:321,1,75.000002861023,4|0,0:3|0:0,0:0:0:0:
230,200,64911,1,10,0:0:0:0:
260,352,65099,1,8,0:0:0:0:
253,352,65192,1,8,0:0:0:0:
247,350,65286,1,4,0:3:0:0:
312,230,65473,1,4,0:3:0:0:
170,309,65661,6,0,P|109:257|45:284,1,134.999995880127,4|4,1:0|0:3,0:0:0:0:
61,268,66223,1,4,0:3:0:0:
158,93,66411,2,0,P|123:145|132:186,1,89.999997253418,8|4,0:0|0:3,0:0:0:0:
282,338,66786,6,0,P|192:296|157:321,1,134.999995880127,4|4,1:0|0:3,0:0:0:0:
169,308,67348,1,8,0:0:0:0:
332,265,67536,1,8,0:0:0:0:
169,308,67723,1,4,0:3:0:0:
282,196,67911,6,0,P|262:181|225:181,1,44.999998626709,4|4,0:3|0:3,0:0:0:0:
233,172,68098,2,0,P|264:151|272:128,1,44.999998626709,4|4,0:3|0:3,0:0:0:0:
267,136,68286,1,8,0:0:0:0:
262,128,68379,1,8,0:0:0:0:
255,122,68473,6,0,P|178:134|150:185,1,127.500002431869,4|4,1:0|0:3,0:0:0:0:
153,171,69035,6,0,P|163:106|98:52,1,150,8|4,0:0|0:3,0:0:0:0:
106,53,69598,1,4,0:3:0:0:
345,162,69785,5,8,0:0:0:0:
346,156,69878,1,8,0:3:0:0:
347,150,69972,1,4,0:3:0:0:
333,125,70066,5,8,0:0:0:0:
332,119,70159,1,4,0:3:0:0:
331,113,70253,1,4,0:3:0:0:
346,86,70347,5,8,0:0:0:0:
349,82,70441,1,8,0:0:0:0:
354,80,70535,1,6,0:3:0:0:
359,80,70628,1,0,0:0:0:0:
364,82,70722,1,2,0:3:0:0:
174,256,70910,6,0,P|122:198|151:137,1,127.500002431869,4|4,1:0|0:3,0:0:0:0:
132,155,71472,1,4,0:3:0:0:
1,54,71660,2,0,P|66:67|89:105,1,85.0000016212463,8|4,0:0|0:3,0:0:0:0:
80,307,72035,6,0,P|111:255|196:278,1,127.500002431869,4|4,1:0|0:3,0:0:0:0:
173,255,72597,1,8,0:0:0:0:
197,95,72785,1,8,0:0:0:0:
173,255,72972,1,4,0:3:0:0:
391,159,73160,6,0,P|346:135|318:140,1,42.5000008106231,4|4,0:3|0:3,0:0:0:0:
350,138,73347,2,0,P|314:180|314:200,1,42.5000008106231,4|4,0:3|0:3,0:0:0:0:
323,170,73535,1,8,0:0:0:0:
328,174,73628,1,8,0:0:0:0:
334,176,73723,6,0,P|352:109|297:64,1,127.500002431869,4|4,1:0|0:3,0:0:0:0:
317,70,74285,6,0,P|422:54|433:4,1,150,8|4,0:0|0:3,0:0:0:0:
433,26,74848,1,4,0:3:0:0:
240,58,75035,5,8,0:0:0:0:
239,64,75128,1,8,0:3:0:0:
238,70,75222,1,4,0:3:0:0:
252,95,75316,5,8,0:0:0:0:
253,101,75409,1,4,0:3:0:0:
254,107,75503,1,4,0:3:0:0:
239,134,75597,5,8,0:0:0:0:
236,138,75691,1,8,0:3:0:0:
231,140,75785,1,4,0:3:0:0:
226,140,75878,1,0,0:0:0:0:
221,138,75972,1,10,0:3:0:0:
373,168,76160,6,0,P|397:208|388:260,1,69.9999978637695,4|0,0:2|0:0,0:0:0:0:
392,229,76441,2,0,P|414:188|464:170,1,69.9999978637695,4|0,0:0|0:0,0:0:0:0:
436,180,76722,1,4,0:0:0:0:
307,243,76911,6,0,P|368:259|376:335,1,127.500002431869,4|4,1:0|0:3,0:0:0:0:
383,315,77473,1,4,0:3:0:0:
189,175,77661,2,0,P|220:217|207:272,1,85.0000016212463,8|4,0:0|0:3,0:0:0:0:
213,251,77942,1,0,0:0:0:0:
206,250,78036,6,0,P|240:164|290:162,1,127.500002431869,4|4,1:0|0:3,0:0:0:0:
264,158,78598,1,8,0:0:0:0:
105,132,78786,1,8,0:0:0:0:
264,158,78973,1,4,0:3:0:0:
149,11,79161,6,0,P|110:41|105:55,1,42.5000008106231,4|4,0:3|0:3,0:0:0:0:
118,39,79348,2,0,P|175:56|193:50,1,42.5000008106231,4|4,0:3|0:3,0:0:0:0:
162,54,79536,1,8,0:0:0:0:
166,49,79629,1,8,0:0:0:0:
167,45,79723,6,0,P|107:-7|37:24,1,127.500002431869,4|4,1:0|0:3,0:0:0:0:
66,0,80285,1,8,0:0:0:0:
70,205,80473,2,0,P|111:211|145:188,1,85.0000016212463,4|4,0:3|0:3,0:0:0:0:
66,0,80848,1,4,0:0:0:0:
146,189,81035,5,8,0:0:0:0:
151,187,81128,1,8,0:3:0:0:
157,186,81222,1,4,0:3:0:0:
177,165,81316,5,8,0:0:0:0:
182,162,81409,1,4,0:3:0:0:
187,159,81503,1,4,0:3:0:0:
218,165,81597,5,8,0:0:0:0:
222,166,81691,1,8,0:0:0:0:
226,170,81785,1,4,0:3:0:0:
228,175,81878,1,0,0:0:0:0:
227,180,81972,1,2,0:3:0:0:
347,310,82160,6,0,P|395:268|397:240,1,69.9999978637695,4|0,0:0|0:0,0:0:0:0:
390,265,82441,2,0,P|402:327|425:343,1,69.9999978637695,4|0,0:0|0:0,0:0:0:0:
410,329,82722,1,4,0:0:0:0:
457,132,82910,6,0,P|409:174|407:202,1,69.9999978637695,4|0,0:0|0:0,0:0:0:0:
414,177,83191,2,0,P|401:114|378:98,1,69.9999978637695,4|0,0:0|0:0,0:0:0:0:
394,113,83472,1,4,0:0:0:0:
271,266,83661,6,0,P|196:267|159:220,1,127.500002431869,4|4,1:0|0:3,0:0:0:0:
163,231,84223,1,4,0:3:0:0:
128,370,84411,2,0,P|102:323|113:275,1,85.0000016212463,8|4,0:0|0:3,0:0:0:0:
201,90,84786,6,0,P|250:142|219:210,1,127.500002431869,4|4,1:0|0:3,0:0:0:0:
238,191,85348,1,8,0:0:0:0:
259,11,85536,1,8,0:0:0:0:
238,191,85723,1,4,0:3:0:0:
471,135,85911,6,0,P|425:114|400:120,1,42.5000008106231,4|4,0:3|0:3,0:0:0:0:
428,116,86098,2,0,P|395:148|389:177,1,42.5000008106231,4|4,0:3|0:3,0:0:0:0:
401,149,86286,1,8,0:0:0:0:
407,151,86379,1,8,0:0:0:0:
413,148,86473,6,0,P|389:91|320:68,1,127.500002431869,4|4,1:0|0:3,0:0:0:0:
332,67,87035,6,0,P|421:69|466:22,1,150,8|4,0:0|0:3,0:0:0:0:
462,30,87598,1,4,0:3:0:0:
413,246,87785,5,8,0:0:0:0:
412,240,87878,1,8,0:3:0:0:
413,234,87972,1,4,0:3:0:0:
399,209,88066,5,8,0:0:0:0:
398,203,88159,1,0,0:0:0:0:
397,197,88253,1,4,0:3:0:0:
412,170,88347,5,8,0:0:0:0:
414,166,88441,1,8,0:3:0:0:
419,164,88535,1,4,0:3:0:0:
424,163,88628,1,0,0:0:0:0:
429,165,88722,1,10,0:3:0:0:
328,256,88910,5,4,0:0:0:0:
256,155,93410,6,0,L|256:238,1,74.9999999999999,4|4,0:0|0:0,0:0:0:0:
193,60,96411,6,0,L|-43:101,1,187.5,12|8,1:1|0:0,0:0:0:0:
8,92,96973,2,0,L|69:103,1,62.4999999999999,8|0,0:0|0:0,0:0:0:0:
210,146,97161,2,0,L|148:157,1,62.4999999999999,8|0,0:0|0:0,0:0:0:0:
1,185,97348,2,0,L|62:196,1,62.4999999999999,8|0,0:0|0:0,0:0:0:0:
173,250,97536,6,0,L|361:204,1,187.5,12|8,0:1|0:0,0:0:0:0:
355,205,98098,2,0,L|340:292,1,62.4999999999999,8|0,0:0|0:0,0:0:0:0:
413,333,98286,2,0,L|471:311,1,62.4999999999999,8|0,0:0|0:0,0:0:0:0:
495,215,98473,2,0,L|447:176,1,62.4999999999999,8|0,0:0|0:0,0:0:0:0:
266,167,98661,6,0,L|234:367,1,187.5,12|8,0:1|0:0,0:0:0:0:
236,352,99223,2,0,L|223:248,1,62.4999999999999,8|0,0:0|0:0,0:0:0:0:
114,91,99411,6,0,L|136:283,1,187.5,12|8,0:1|0:0,0:0:0:0:
135,277,99973,2,0,L|42:255,1,62.4999999999999,8|0,0:0|0:0,0:0:0:0:
217,168,100161,2,0,L|277:153,1,62.4999999999999,8|0,0:0|0:0,0:0:0:0:
114,91,100348,2,0,L|53:76,1,62.4999999999999,8|0,0:0|0:0,0:0:0:0:
231,260,100536,6,0,L|429:215,1,187.5,12|8,0:1|0:0,0:0:0:0:
413,218,101098,2,0,L|399:315,1,62.4999999999999,8|0,0:0|0:0,0:0:0:0:
426,135,101286,5,4,0:3:0:0:
427,129,101380,1,4,0:3:0:0:
428,123,101474,1,4,0:3:0:0:
429,117,101567,1,4,0:3:0:0:
444,106,101661,5,8,0:0:0:0:
437,147,101754,1,8,0:0:0:0:
430,188,101848,1,8,0:0:0:0:
423,229,101942,1,8,0:0:0:0:
432,244,102036,6,0,L|232:217,1,187.5,12|8,1:1|0:0,0:0:0:0:
246,218,102598,2,0,L|265:306,1,62.4999999999999,8|0,0:0|0:0,0:0:0:0:
191,339,102786,2,0,L|131:319,1,62.4999999999999,8|0,0:0|0:0,0:0:0:0:
112,234,102973,2,0,L|158:192,1,62.4999999999999,8|0,0:0|0:0,0:0:0:0:
364,152,103161,6,0,L|343:361,1,187.5,12|8,0:1|0:0,0:0:0:0:
345,338,103723,2,0,L|432:317,1,62.4999999999999,8|0,0:0|0:0,0:0:0:0:
364,152,103911,2,0,L|303:166,1,62.4999999999999,8|0,0:0|0:0,0:0:0:0:
216,276,104098,2,0,L|303:255,1,62.4999999999999,8|0,0:0|0:0,0:0:0:0:
402,44,104286,6,0,L|199:89,1,187.5,12|8,0:1|0:0,0:0:0:0:
218,84,104848,2,0,L|234:-15,1,62.4999999999999,8|0,0:0|0:0,0:0:0:0:
256,182,105036,6,0,L|29:141,1,187.5,12|8,0:1|0:0,0:0:0:0:
71,148,105598,2,0,L|160:132,1,62.4999999999999,8|0,0:0|0:0,0:0:0:0:
279,95,105786,2,0,L|217:83,1,62.4999999999999,8|0,0:1|0:0,0:0:0:0:
97,247,105973,2,0,L|186:231,1,62.4999999999999,8|0,0:0|0:0,0:0:0:0:
381,200,106161,6,0,P|313:225|354:284,2,166.666666666666,4|4|4,0:1|0:1|0:1,0:0:0:0:
354,284,106911,2,0,P|285:259|279:331,2,166.666666666666,4|4|4,0:1|0:1|0:1,0:0:0:0:
279,331,107661,2,0,P|242:268|190:319,2,166.666666666666,4|4|4,0:1|0:1|0:1,0:0:0:0:
190,319,108411,2,0,P|202:247|129:253,2,166.666666666666,4|4|4,0:1|0:1|0:1,0:0:0:0:
129,253,109161,5,4,0:1:0:0:
62,210,109286,1,8,0:0:0:0:
129,253,109411,2,0,P|184:206|124:164,1,166.666666666666,4|4,0:3|0:3,0:0:0:0:
124,164,109911,5,4,0:1:0:0:
101,92,110036,1,8,0:0:0:0:
124,164,110161,2,0,P|196:163|177:93,1,166.666666666666,4|4,0:3|0:3,0:0:0:0:
177,93,110661,5,4,0:1:0:0:
207,23,110786,1,8,0:0:0:0:
177,93,110911,2,0,P|232:139|263:73,1,166.666666666666,4|4,0:3|0:3,0:0:0:0:
263,73,111411,5,4,0:1:0:0:
263,73,111661,2,0,P|276:144|341:113,1,166.666666666666,4|4,0:3|0:3,0:0:0:0:
341,113,112161,1,4,0:3:0:0:
341,113,112411,2,0,P|305:175|375:194,1,166.666666666666,4|4,0:3|0:3,0:0:0:0:
375,194,112911,5,4,1:2:0:0:
57,85,113286,1,4,0:0:0:0:
203,252,113661,1,8,0:0:0:0:
198,247,113754,1,8,0:0:0:0:
193,242,113848,1,8,0:3:0:0:
187,239,113942,1,8,0:3:0:0:
181,237,114036,1,4,0:3:0:0:
175,235,114129,1,4,0:3:0:0:
168,235,114223,5,4,0:0:0:0:
168,235,114598,1,4,0:0:0:0:
321,189,114786,2,0,P|299:199|283:235,1,50,4|0,0:0|0:0,0:0:0:0:
317,329,115161,1,8,0:0:0:0:
388,288,115348,1,8,0:3:0:0:
450,345,115536,1,4,0:3:0:0:
377,384,115723,1,4,0:0:0:0:
388,288,115911,5,6,0:0:0:0:
256,192,124911,12,4,127911,1:2:0:0:
177,75,128661,6,0,L|70:84,1,99.9999999999999,8|8,0:0|0:0,0:0:0:0:
77,84,129411,6,0,P|159:118|146:205,1,160,4|10,0:0|0:0,0:0:0:0:
162,180,129973,1,4,0:3:0:0:
308,218,130161,2,0,P|260:239|224:233,1,79.9999999999999,2|4,0:3|0:3,0:0:0:0:
343,137,130536,2,0,P|382:136|417:155,1,79.9999999999999,10|0,0:0|0:0,0:0:0:0:
415,161,130817,1,4,0:3:0:0:
408,163,130911,6,0,P|401:107|434:68,2,79.9999999999999,2|4|8,0:3|0:3|0:0,0:0:0:0:
508,277,131473,1,6,0:3:0:0:
512,272,131567,1,4,0:3:0:0:
510,265,131661,2,0,P|446:250|406:276,1,79.9999999999999,4|4,0:3|0:3,0:0:0:0:
292,321,132036,2,0,P|331:326|367:309,1,79.9999999999999,10|4,0:0|0:3,0:0:0:0:
304,134,132411,6,0,P|243:167|261:278,1,160,4|10,0:0|0:0,0:0:0:0:
237,250,132973,1,4,0:3:0:0:
176,31,133161,2,0,P|146:80|158:133,1,79.9999999999999,2|4,0:3|0:3,0:0:0:0:
152,103,133442,1,4,0:3:0:0:
158,100,133536,2,0,P|99:64|37:86,1,120,10|4,0:0|0:3,0:0:0:0:
49,80,133911,6,0,P|70:32|60:-5,2,79.9999999999999,2|4|8,0:3|0:3|0:0,0:0:0:0:
24,195,134473,1,6,0:3:0:0:
26,188,134567,1,4,0:3:0:0:
31,184,134661,1,4,0:3:0:0:
114,199,134848,1,4,0:3:0:0:
126,345,135036,2,0,P|150:280|182:268,1,79.9999999999999,10|4,0:0|0:3,0:0:0:0:
342,282,135411,6,0,P|250:266|229:210,1,160,4|10,0:0|0:0,0:0:0:0:
229,211,135973,1,4,0:3:0:0:
355,122,136161,2,0,P|310:144|260:123,1,79.9999999999999,2|4,0:3|0:3,0:0:0:0:
403,47,136536,2,0,P|442:43|475:63,1,79.9999999999999,10|0,0:0|0:0,0:0:0:0:
474,70,136817,1,4,0:3:0:0:
468,73,136911,5,2,0:3:0:0:
435,149,137098,1,4,0:3:0:0:
493,210,137286,1,8,0:0:0:0:
390,279,137473,1,6,0:3:0:0:
392,272,137567,1,4,0:3:0:0:
397,267,137661,2,0,P|458:297|472:332,1,79.9999999999999,4|4,0:3|0:3,0:0:0:0:
260,249,138036,2,0,P|287:220|326:211,1,79.9999999999999,10|4,0:0|0:3,0:0:0:0:
168,351,138411,6,0,P|104:297|112:237,1,134.999995880127,4|4,0:0|0:3,0:0:0:0:
111,246,138786,1,8,0:0:0:0:
71,104,138973,2,0,P|140:111|183:215,1,179.999994506836,4|4,0:0|0:3,0:0:0:0:
294,28,139536,2,0,P|275:83|209:93,1,89.999997253418,10|0,0:0|0:0,0:0:0:0:
20,34,139911,5,4,0:0:0:0:
136,48,140098,1,8,0:0:0:0:
140,51,140192,1,8,0:0:0:0:
142,55,140286,1,8,0:0:0:0:
142,60,140379,1,8,0:0:0:0:
140,64,140473,1,4,0:0:0:0:
426,124,140848,5,4,0:0:0:0:
286,201,141036,1,8,0:0:0:0:
286,196,141129,2,0,P|323:169|377:183,1,79.9999999999999,4|0,0:3|0:0,0:0:0:0:
359,173,141411,6,0,P|286:238|321:315,1,160,4|10,0:0|0:0,0:0:0:0:
296,289,141973,1,4,0:3:0:0:
135,183,142161,2,0,P|177:216|208:216,1,79.9999999999999,2|4,0:3|0:3,0:0:0:0:
205,214,142442,1,4,0:3:0:0:
206,209,142536,2,0,P|139:237|117:311,1,120,10|4,0:0|0:3,0:0:0:0:
123,280,142911,6,0,P|75:249|33:252,2,79.9999999999999,2|4|8,0:3|0:3|0:0,0:0:0:0:
259,368,143473,1,6,0:3:0:0:
265,364,143567,1,4,0:3:0:0:
267,357,143661,1,4,0:3:0:0:
230,282,143848,1,4,0:3:0:0:
301,236,144036,1,10,0:0:0:0:
336,312,144223,1,4,0:3:0:0:
229,144,144411,6,0,P|283:87|363:109,1,160,4|10,0:0|0:0,0:0:0:0:
356,102,144973,1,4,0:3:0:0:
490,22,145161,2,0,P|434:31|413:77,1,79.9999999999999,2|4,0:3|0:3,0:0:0:0:
401,238,145536,2,0,P|420:198|404:146,1,79.9999999999999,10|0,0:0|0:0,0:0:0:0:
410,160,145817,1,4,0:3:0:0:
404,163,145911,6,0,P|473:182|505:168,2,79.9999999999999,2|6|8,0:3|0:3|0:0,0:0:0:0:
301,38,146473,1,6,0:3:0:0:
306,33,146567,1,4,0:3:0:0:
312,31,146661,2,0,P|341:88|329:122,1,79.9999999999999,4|4,0:3|0:3,0:0:0:0:
221,186,147036,1,10,0:0:0:0:
226,181,147129,1,4,0:3:0:0:
232,180,147223,1,4,0:3:0:0:
238,182,147317,1,4,0:3:0:0:
242,186,147411,6,0,P|183:204|121:126,1,160,4|10,0:0|0:0,0:0:0:0:
121,139,147973,1,4,0:3:0:0:
50,300,148161,2,0,P|98:267|139:275,1,79.9999999999999,2|4,0:3|0:3,0:0:0:0:
123,271,148442,1,4,0:3:0:0:
125,277,148536,2,0,P|63:242|48:202,1,79.9999999999999,10|0,0:0|0:0,0:0:0:0:
62,230,148817,1,4,0:3:0:0:
68,228,148911,6,0,P|8:220|-21:182,2,79.9999999999999,2|4|8,0:3|0:3|0:0,0:0:0:0:
200,129,149473,1,6,0:3:0:0:
195,123,149567,1,4,0:3:0:0:
188,121,149661,1,4,0:3:0:0:
148,196,149848,1,4,0:3:0:0:
212,249,150036,1,10,0:0:0:0:
155,311,150223,1,4,0:3:0:0:
384,242,150411,6,0,P|389:158|328:126,1,134.999995880127,4|4,0:0|0:0,0:0:0:0:
354,130,150973,1,4,0:3:0:0:
363,10,151161,1,8,0:0:0:0:
357,12,151254,1,8,0:0:0:0:
354,17,151348,1,4,0:0:0:0:
468,130,151536,1,10,0:0:0:0:
473,126,151629,1,8,0:0:0:0:
476,120,151723,1,8,0:0:0:0:
476,113,151817,1,8,0:0:0:0:
471,108,151911,6,0,P|386:99|348:141,1,134.999995880127,4|4,0:0|0:0,0:0:0:0:
353,129,152473,1,4,0:3:0:0:
244,43,152661,6,0,L|240:79,5,29.9999990844727,8|8|4|4|4|4,0:0|0:3|0:3|0:3|0:3|0:3,0:0:0:0:
273,42,153036,6,0,L|267:81,1,40,8|8,0:0|0:0,0:0:0:0:
267,88,153223,2,0,L|261:127,1,40,8|8,0:0|0:0,0:0:0:0:
