osu file format v14

[General]
AudioFilename: audio.mp3
AudioLeadIn: 0
PreviewTime: 55168
Countdown: 0
SampleSet: Soft
StackLeniency: 0.4
Mode: 0
LetterboxInBreaks: 0
WidescreenStoryboard: 0

[Editor]
DistanceSpacing: 1
BeatDivisor: 4
GridSize: 4
TimelineZoom: 1.6

[Metadata]
Title:Oato ga Yoroshikutte... yo! (TV Size)
TitleUnicode:お後がよろしくって…よ! (TV Size)
Artist:Goku Rakujo-kai
ArtistUnicode:極♨落女会
Creator:browiec
Version:Yoi!
Source:じょしらく
Tags:JOSHIRAKU opening 佐倉綾音 南條愛乃 小岩井ことり 後藤沙緒里 山本希望 japanese anime pop jpop j-pop Rakujokai 蕪羅亭魔梨威 Marii Buratei Sakura Ayane 防波亭手寅 Bouhatei Bohatei Tetora Yamamoto Nozomi 波浪浮亭木胡桃 Harokitei Haroukitei Kigurumi Koiwai Kotori 空琉美遊亭丸京 Kuurubiyuutei Gankyou Gankyo Kurubiyutei Nanjo Nanjou Yoshino 暗落亭苦来 Kukuru Anrakutei Gotou Goto Saori akitoshi corinn -laura-
BeatmapID:4507305
BeatmapSetID:2141451

[Difficulty]
HPDrainRate:5.8
CircleSize:4
OverallDifficulty:9.2
ApproachRate:9.3
SliderMultiplier:1.85
SliderTickRate:1

[Events]
//Background and Video events
0,0,"339155.jpg",0,0
//Break Periods
//Storyboard Layer 0 (Background)
//Storyboard Layer 1 (Fail)
//Storyboard Layer 2 (Pass)
//Storyboard Layer 3 (Foreground)
//Storyboard Layer 4 (Overlay)
//Storyboard Sound Samples

[TimingPoints]
724,317.460317460317,4,2,1,60,1,0
724,-111.111111111111,4,2,1,60,0,0
5803,-100,4,2,1,70,0,0
17231,-133.333333333333,4,2,1,50,0,0
27390,-111.111111111111,4,2,1,60,0,0
35009,-100,4,2,1,70,0,0
37549,-133.333333333333,4,2,1,50,0,0
45168,-111.111111111111,4,2,1,60,0,0
50247,-100,4,2,1,70,0,0
55327,-93.4579439252336,4,2,1,75,0,0
73104,-100,4,2,1,70,0,0
75485,-93.4579439252336,4,2,1,75,0,0
80723,-100,4,2,1,70,0,0
88343,-100,4,2,1,5,0,0

[Colours]
Combo1 : 245,146,46
Combo2 : 249,51,51

[HitObjects]
28,51,724,5,14,3:2:0:0:
331,123,882,1,14,3:2:0:0:
331,123,1993,5,14,3:2:0:0:
28,195,2151,1,14,3:2:0:0:
28,195,2946,5,2,0:2:0:0:
268,341,3263,6,0,B|299:307|350:300|390:323|409:359|409:359|409:359|409:359|427:334|454:321|482:318,1,249.749992378235,14|0,3:2|0:2,0:2:0:0:
373,172,3898,6,0,B|429:143|429:143|416:245,1,166.499994918823,14|0,3:2|0:2,0:2:0:0:
188,49,4374,6,0,L|105:39,1,83.2499974594117,14|0,3:2|0:2,0:2:0:0:
271,234,4692,1,10,3:2:0:0:
364,11,4850,2,0,L|447:1,1,83.2499974594117,10|2,3:2|0:2,0:2:0:0:
201,150,5168,1,14,3:2:0:0:
428,103,5327,5,8,0:2:0:0:
428,103,5406,1,8,0:2:0:0:
428,103,5485,2,0,L|422:151,1,41.6249987297059,8|8,0:2|0:2,0:2:0:0:
362,295,5644,2,0,L|356:247,1,41.6249987297059,8|8,0:2|0:2,0:2:0:0:
246,69,5803,6,0,B|203:56|203:56|158:69,1,92.5,4|0,3:2|0:2,0:2:0:0:
3,235,6120,2,1,B|99:200|86:269|182:240,1,185,10|0,0:2|3:2,0:2:0:0:
385,89,6597,1,0,0:2:0:0:
279,360,6755,2,0,L|268:269,1,92.5,10|0,0:2|0:2,0:2:0:0:
464,47,7073,6,0,P|475:92|464:136,1,92.5,0|0,3:2|0:2,0:2:0:0:
219,31,7390,2,0,L|310:42,1,92.5,10|0,0:2|0:2,0:2:0:0:
458,244,7708,1,2,3:2:0:0:
214,160,7866,1,0,3:2:0:0:
415,325,8025,2,0,B|460:338|460:338|503:325,1,92.5,10|0,0:2|0:2,0:2:0:0:
310,42,8343,6,0,L|299:133,1,92.5,0|0,3:2|0:2,0:2:0:0:
91,255,8660,2,1,B|156:246|156:246|202:275|202:275|265:267,1,185,10|0,0:2|3:2,0:2:0:0:
138,11,9136,1,0,0:2:0:0:
15,211,9295,2,0,P|4:256|15:300,1,92.5,10|0,0:2|0:2,0:2:0:0:
277,176,9612,6,0,L|186:165,1,92.5,0|0,3:2|0:2,0:2:0:0:
321,367,9930,2,0,L|412:356,1,92.5,10|0,0:2|0:2,0:2:0:0:
393,114,10247,1,2,3:2:0:0:
201,255,10406,1,8,3:2:0:0:
470,159,10565,2,0,P|480:114|469:70,1,92.5,10|0,0:2|0:2,0:2:0:0:
132,173,10882,6,0,L|223:162,1,92.5,4|0,3:2|0:2,0:2:0:0:
384,367,11200,2,0,P|313:313|232:348,1,185,10|0,0:2|3:2,0:2:0:0:
57,219,11676,1,0,0:2:0:0:
57,219,11835,2,0,L|68:310,1,92.5,10|0,0:2|0:2,0:2:0:0:
275,156,12152,6,0,B|289:36|289:36|233:72,1,185,2|8,3:2|0:2,0:2:0:0:
9,141,12628,2,1,B|105:106|92:175|188:146,1,185,2|0,3:2|3:2,0:2:0:0:
388,315,13104,1,10,0:2:0:0:
175,240,13263,1,2,0:2:0:0:
418,100,13422,6,0,L|407:191,1,92.5,2|0,3:2|0:2,0:2:0:0:
317,367,13739,1,10,0:2:0:0:
188,145,13898,1,2,0:2:0:0:
388,315,14057,1,2,3:2:0:0:
255,85,14216,1,2,3:2:0:0:
187,343,14374,2,0,P|142:354|98:343,1,92.5,10|0,0:2|0:2,0:2:0:0:
0,109,14692,6,0,L|91:98,1,92.5,2|0,3:2|0:2,0:2:0:0:
309,270,15009,2,0,L|218:259,1,92.5,8|0,0:2|0:2,0:2:0:0:
303,0,15327,1,0,3:2:0:0:
397,269,15485,1,0,3:2:0:0:
182,0,15644,2,0,B|169:43|169:43|182:88,1,92.5,8|0,0:2|0:2,0:2:0:0:
447,151,15962,6,0,L|356:162,1,92.5,4|0,3:2|3:2,0:2:0:0:
95,199,16279,1,8,0:2:0:0:
306,277,16438,1,8,0:2:0:0:
182,88,16597,1,0,3:2:0:0:
182,88,16676,1,8,0:2:0:0:
182,88,16755,1,8,0:2:0:0:
173,314,16914,1,8,0:2:0:0:
313,137,17073,5,8,0:2:0:0:
313,137,17152,1,8,0:2:0:0:
313,137,17231,2,0,B|360:131|360:131|399:150|399:150|446:144,1,138.750005292893,4|10,3:2|0:2,0:2:0:0:
512,201,17708,1,2,0:2:0:0:
459,269,17866,2,0,L|320:251,1,138.750005292893,2|10,3:2|0:2,0:2:0:0:
269,323,18343,6,0,P|234:264|252:199,1,138.750005292893,2|2,3:2|3:2,0:2:0:0:
331,166,18819,2,0,L|322:97,1,69.3750026464463,10|2,0:2|0:2,0:2:0:0:
272,27,19136,1,2,3:2:0:0:
272,27,19295,1,2,3:2:0:0:
216,90,19454,2,0,L|147:81,1,69.3750026464463,8|0,0:2|0:2,0:2:0:0:
17,139,19771,5,0,3:2:0:0:
126,220,19929,1,0,3:2:0:0:
126,220,20089,2,0,L|117:288,1,69.3750026464463,10|2,0:2|0:2,0:2:0:0:
160,364,20406,2,0,B|251:375|251:375|292:353,1,138.750005292893,2|10,3:2|0:2,0:2:0:0:
314,269,20882,6,0,L|296:130,1,138.750005292893,2|2,3:2|3:2,0:2:0:0:
226,79,21358,2,0,P|252:56|284:44,1,69.3750026464463,10|2,0:2|0:2,0:2:0:0:
358,0,21676,1,2,3:2:0:0:
358,0,21835,1,2,3:2:0:0:
419,59,21993,2,0,L|410:127,1,69.3750026464463,8|0,0:2|0:2,0:2:0:0:
355,252,22311,5,0,3:2:0:0:
297,131,22470,1,0,3:2:0:0:
297,131,22628,2,0,L|229:123,1,69.3750026464463,10|2,0:2|0:2,0:2:0:0:
192,46,22946,2,0,B|101:57|101:57|60:35,1,138.750005292893,2|10,3:2|0:2,0:2:0:0:
0,95,23422,1,2,0:2:0:0:
133,160,23581,5,0,3:2:0:0:
13,231,23739,1,2,3:2:0:0:
13,231,23898,2,0,L|22:299,1,69.3750026464463,10|0,0:2|0:2,0:2:0:0:
90,360,24216,1,2,3:2:0:0:
90,360,24374,1,0,3:2:0:0:
180,272,24533,2,0,L|248:263,1,69.3750026464463,10|0,0:2|0:2,0:2:0:0:
298,193,24850,6,0,L|409:179,1,104.06250396967,2|0,3:2|0:2,0:2:0:0:
432,178,25168,2,0,L|423:246,1,69.3750026464463,10|0,0:2|0:2,0:2:0:0:
475,318,25485,2,0,P|416:283|351:301,1,138.750005292893,2|10,3:2|0:2,0:2:0:0:
262,289,25962,6,0,L|271:357,1,69.3750026464463,2|0,3:2|0:2,0:2:0:0:
185,374,26279,1,2,3:2:0:0:
185,374,26438,2,0,L|176:306,1,69.3750026464463,10|0,3:2|0:2,0:2:0:0:
206,224,26755,1,2,3:2:0:0:
206,224,27073,6,0,B|216:191|216:191|206:158,1,69.3750026464463,10|0,3:2|0:2,0:2:0:0:
83,302,27390,6,1,B|169:270|157:332|243:306,1,166.499994918823,6|10,3:2|0:2,0:2:0:0:
408,368,27866,1,2,0:2:0:0:
324,163,28025,2,0,L|314:244,1,83.2499974594117,2|0,3:2|0:2,0:2:0:0:
454,187,28343,1,10,0:2:0:0:
220,102,28501,6,0,L|230:184,1,83.2499974594117,2|0,3:2|0:2,0:2:0:0:
218,366,28819,1,2,3:2:0:0:
141,195,28977,1,10,0:2:0:0:
227,376,29136,1,2,0:2:0:0:
321,190,29295,1,2,3:2:0:0:
113,302,29454,1,2,3:2:0:0:
317,376,29612,2,0,L|398:366,1,83.2499974594117,10|0,0:2|0:2,0:2:0:0:
141,195,29930,6,0,B|33:181|33:181|60:199|72:223,1,166.499994918823,2|10,3:2|0:2,0:2:0:0:
195,124,30406,1,2,0:2:0:0:
113,302,30565,2,0,P|72:311|32:303,1,83.2499974594117,2|0,3:2|0:2,0:2:0:0:
118,82,30882,1,10,0:2:0:0:
230,243,31041,6,0,P|270:252|310:244,1,83.2499974594117,2|0,3:2|0:2,0:2:0:0:
459,78,31358,1,2,3:2:0:0:
272,166,31517,1,10,0:2:0:0:
496,163,31676,1,2,0:2:0:0:
286,51,31835,1,2,3:2:0:0:
413,237,31993,1,2,3:2:0:0:
379,10,32152,2,0,L|369:91,1,83.2499974594117,10|0,0:2|0:2,0:2:0:0:
463,316,32470,6,0,P|397:270|321:297,1,166.499994918823,2|10,3:2|0:2,0:2:0:0:
173,384,32946,1,2,0:2:0:0:
220,200,33104,2,0,L|229:281,1,83.2499974594117,2|0,3:2|0:2,0:2:0:0:
62,223,33422,1,10,0:2:0:0:
267,125,33581,6,0,P|295:155|308:193,1,83.2499974594117,2|0,3:2|0:2,0:2:0:0:
172,73,33898,1,2,3:2:0:0:
269,275,34057,2,0,P|309:283|349:273,1,83.2499974594117,10|0,0:2|0:2,0:2:0:0:
437,127,34374,2,0,P|409:158|398:198,1,83.2499974594117,2|0,3:2|0:2,0:2:0:0:
499,341,34692,2,0,L|418:332,1,83.2499974594117,10|0,0:2|0:2,0:2:0:0:
101,243,35009,5,6,3:2:0:0:
385,192,35168,1,2,3:2:0:0:
135,326,35327,1,8,0:2:0:0:
319,59,35485,5,6,3:2:0:0:
401,332,35644,1,2,3:2:0:0:
237,91,35803,1,8,0:2:0:0:
206,384,35962,6,0,B|249:327|249:327|211:217,1,185,6|0,3:2|0:2,0:2:0:0:
124,0,36438,5,0,3:2:0:0:
303,148,36597,1,8,0:2:0:0:
49,170,36755,1,0,3:2:0:0:
49,170,36835,1,0,3:2:0:0:
49,170,36914,1,10,0:2:0:0:
272,41,37073,1,8,3:2:0:0:
176,262,37231,1,2,3:2:0:0:
56,59,37390,1,0,3:2:0:0:
256,217,37549,38,1,B|329:195|318:239|391:220,1,138.750005292893,6|2,3:2|0:2,0:2:0:0:
445,150,38025,1,0,3:2:0:0:
510,206,38184,2,0,L|501:274,1,69.3750026464463,10|0,0:2|0:2,0:2:0:0:
452,347,38501,1,2,0:2:0:0:
391,219,38660,5,0,3:2:0:0:
391,219,38739,1,0,3:2:0:0:
391,219,38819,1,2,3:2:0:0:
319,266,38977,2,0,B|272:260|272:260|233:279|233:279|186:273,1,138.750005292893,8|0,0:2|3:2,0:2:0:0:
107,309,39454,2,0,L|116:377,1,69.3750026464463,10|0,0:2|0:2,0:2:0:0:
25,283,39771,2,0,L|34:215,1,69.3750026464463,2|0,0:2|0:2,0:2:0:0:
1,94,40089,6,0,P|60:129|125:111,1,138.750005292893,2|2,3:2|0:2,0:2:0:0:
189,54,40565,1,0,3:2:0:0:
258,112,40723,1,10,0:2:0:0:
258,112,40882,2,0,L|326:121,1,69.3750026464463,2|0,0:2|0:2,0:2:0:0:
441,22,41200,5,2,3:2:0:0:
441,22,41279,1,0,3:2:0:0:
441,22,41358,2,0,P|418:48|406:80,1,69.3750026464463,2|8,3:2|0:2,0:2:0:0:
438,228,41676,2,0,P|426:195|405:168,1,69.3750026464463,2|0,0:2|3:2,0:2:0:0:
268,130,41993,1,10,0:2:0:0:
353,240,42152,1,0,3:2:0:0:
353,99,42311,1,2,3:2:0:0:
271,213,42470,5,0,3:2:0:0:
271,213,42549,1,0,3:2:0:0:
271,213,42628,2,0,B|247:296|247:296|274:345,1,138.750005292893,6|2,3:2|0:2,0:2:0:0:
348,384,43104,1,0,3:2:0:0:
404,318,43263,2,0,L|472:309,1,69.3750026464463,10|0,0:2|0:2,0:2:0:0:
512,231,43581,1,2,0:2:0:0:
385,155,43739,5,0,3:2:0:0:
385,155,43819,1,0,3:2:0:0:
385,155,43898,1,2,3:2:0:0:
329,220,44057,2,0,P|263:237|205:202,1,138.750005292893,8|0,0:2|3:2,0:2:0:0:
89,88,44533,2,0,L|80:156,1,69.3750026464463,10|0,0:2|0:2,0:2:0:0:
135,318,44850,1,8,0:2:0:0:
135,318,45168,6,0,B|83:347|21:314|21:314|57:284,2,166.499994918823,6|8|0,3:2|0:2|3:2,0:2:0:0:
276,211,45962,1,0,3:2:0:0:
233,382,46120,2,0,L|223:301,1,83.2499974594117,10|2,0:2|0:2,0:2:0:0:
342,70,46438,5,2,3:2:0:0:
378,291,46597,1,2,0:2:0:0:
196,169,46755,1,10,0:2:0:0:
429,135,46914,2,0,L|510:125,1,83.2499974594117,2|0,0:2|3:2,0:2:0:0:
276,10,47231,1,0,3:2:0:0:
276,10,47390,2,0,L|195:0,1,83.2499974594117,10|0,0:2|0:2,0:2:0:0:
24,184,47708,6,0,P|78:156|138:170,1,124.874996189118,6|0,3:2|0:2,0:2:0:0:
161,191,48025,2,0,L|151:272,1,83.2499974594117,10|0,0:2|0:2,0:2:0:0:
345,207,48343,1,2,3:2:0:0:
203,374,48501,1,0,3:2:0:0:
270,160,48660,2,0,P|300:132|338:119,1,83.2499974594117,10|0,0:2|0:2,0:2:0:0:
502,342,48977,6,0,L|378:326,1,124.874996189118,6|0,3:2|0:2,0:2:0:0:
361,296,49295,2,0,L|280:306,1,83.2499974594117,8|0,0:2|0:2,0:2:0:0:
35,203,49612,1,2,3:2:0:0:
184,377,49771,1,0,3:2:0:0:
213,142,49930,1,8,0:2:0:0:
60,329,50089,1,2,3:2:0:0:
108,78,50247,6,0,L|119:169,1,92.5,12|0,0:2|0:2,0:2:0:0:
274,374,50565,5,8,0:2:0:0:
362,118,50723,1,0,3:2:0:0:
122,264,50882,5,8,0:2:0:0:
407,211,51041,1,0,3:2:0:0:
108,78,51200,5,8,0:2:0:0:
332,292,51358,1,0,3:2:0:0:
193,0,51517,5,8,0:2:0:0:
108,281,51676,1,0,3:2:0:0:
277,30,51835,5,8,0:2:0:0:
320,303,51993,1,0,3:2:0:0:
87,62,52152,5,10,3:2:0:0:
201,367,52311,1,10,3:2:0:0:
355,73,52470,1,0,3:2:0:0:
0,262,52628,6,0,B|65:253|65:253|111:282|111:282|174:274,1,185,14|0,3:2|3:2,0:2:0:0:
488,165,53104,5,8,0:2:0:0:
124,50,53263,1,0,3:2:0:0:
474,175,53422,5,8,0:2:0:0:
72,161,53581,1,0,3:2:0:0:
442,90,53739,5,8,0:2:0:0:
125,279,53898,1,0,3:2:0:0:
337,0,54057,5,10,3:2:0:0:
415,348,54216,1,8,3:2:0:0:
149,115,54374,1,0,3:2:0:0:
149,115,54454,1,0,3:2:0:0:
149,115,54533,2,0,L|197:108,1,46.25,0|0,3:2|3:2,0:2:0:0:
509,204,54692,5,10,3:2:0:0:
111,296,54850,1,8,3:2:0:0:
111,296,55327,6,1,B|214:258|200:332|303:301,1,197.949993959046,6|10,3:2|0:2,0:2:0:0:
504,127,55803,1,2,0:2:0:0:
258,219,55962,1,2,3:2:0:0:
512,316,56120,2,0,L|499:217,1,98.9749969795228,2|8,3:2|0:2,0:2:0:0:
200,46,56438,6,0,P|285:85|358:26,1,197.949993959046,2|2,0:2|0:2,0:2:0:0:
159,245,56914,2,0,L|60:232,1,98.9749969795228,10|2,0:2|0:2,0:2:0:0:
332,172,57231,1,2,3:2:0:0:
174,348,57390,1,2,3:2:0:0:
284,95,57549,2,0,P|331:82|378:95,1,98.9749969795228,10|0,0:2|0:2,0:2:0:0:
279,384,57866,6,0,L|266:285,1,98.9749969795228,2|2,3:2|0:2,0:2:0:0:
63,119,58184,2,0,L|50:218,1,98.9749969795228,10|2,0:2|0:2,0:2:0:0:
332,172,58501,1,2,3:2:0:0:
74,29,58660,1,2,3:2:0:0:
183,285,58819,1,10,0:2:0:0:
334,64,58977,1,2,0:2:0:0:
13,181,59136,5,2,3:2:0:0:
324,279,59295,1,2,0:2:0:0:
2,170,59454,5,10,0:2:0:0:
321,74,59612,1,2,0:2:0:0:
101,334,59771,6,0,B|87:285|87:285|101:239,1,98.9749969795228,2|0,3:2|3:2,0:2:0:0:
395,127,60089,2,0,B|408:175|408:175|395:221,1,98.9749969795228,10|0,0:2|0:2,0:2:0:0:
54,58,60406,6,0,L|153:45,1,98.9749969795228,2|2,3:2|0:2,0:2:0:0:
290,275,60723,1,10,0:2:0:0:
397,26,60882,1,2,0:2:0:0:
137,144,61041,1,2,3:2:0:0:
414,219,61200,2,0,L|513:206,1,98.9749969795228,2|8,3:2|0:2,0:2:0:0:
187,331,61517,6,0,B|117:321|117:321|67:352|67:352|0:343,1,197.949993959046,2|0,0:2|0:2,0:2:0:0:
262,284,61993,2,0,P|275:331|263:378,1,98.9749969795228,10|0,0:2|0:2,0:2:0:0:
10,256,62311,1,2,3:2:0:0:
274,190,62470,1,0,3:2:0:0:
82,384,62628,2,0,L|95:285,1,98.9749969795228,10|0,0:2|0:2,0:2:0:0:
205,48,62946,5,2,3:2:0:0:
262,284,63104,1,2,0:2:0:0:
309,18,63263,1,10,0:2:0:0:
187,238,63422,1,2,0:2:0:0:
467,150,63581,1,2,3:2:0:0:
205,48,63739,1,2,3:2:0:0:
421,258,63898,1,10,0:2:0:0:
136,104,64057,6,0,B|5:88|5:88|34:103|49:135,1,197.949993959046,2|2,3:2|3:2,0:2:0:0:
175,359,64533,1,10,0:2:0:0:
275,126,64692,1,2,0:2:0:0:
58,256,64850,1,2,3:2:0:0:
320,279,65009,1,8,0:2:0:0:
320,279,65089,1,8,0:2:0:0:
320,279,65168,2,0,L|270:272,1,49.4874984897614,8|8,0:2|0:2,0:2:0:0:
74,164,65327,2,0,L|124:158,1,49.4874984897614,8|8,0:2|0:2,0:2:0:0:
305,369,65485,54,1,B|360:373|392:332|392:332|424:373|479:369,1,197.949993959046,6|10,3:2|0:2,0:2:0:0:
275,126,65962,1,2,0:2:0:0:
175,359,66120,1,2,3:2:0:0:
350,172,66279,2,0,L|449:159,1,98.9749969795228,2|8,3:2|0:2,0:2:0:0:
137,38,66597,6,0,B|70:1|70:1|84:122,1,197.949993959046,2|2,0:2|0:2,0:2:0:0:
296,245,67073,1,10,0:2:0:0:
60,214,67231,1,2,0:2:0:0:
329,162,67390,1,2,3:2:0:0:
73,227,67549,1,2,3:2:0:0:
359,307,67708,2,0,L|458:294,1,98.9749969795228,10|0,0:2|0:2,0:2:0:0:
180,127,68025,5,2,3:2:0:0:
282,350,68184,1,2,0:2:0:0:
374,89,68343,1,10,0:2:0:0:
210,295,68501,1,2,0:2:0:0:
144,25,68660,1,2,3:2:0:0:
373,189,68819,1,2,3:2:0:0:
73,227,68977,1,10,0:2:0:0:
302,36,69136,1,2,0:2:0:0:
282,350,69295,5,2,3:2:0:0:
93,117,69454,1,2,0:2:0:0:
295,366,69612,5,10,0:2:0:0:
159,57,69771,1,2,0:2:0:0:
9,359,69930,6,0,B|55:373|55:373|104:359,1,98.9749969795228,2|0,3:2|3:2,0:2:0:0:
322,122,70247,2,0,B|273:108|273:108|227:122,1,98.9749969795228,10|0,0:2|0:2,0:2:0:0:
412,384,70565,6,0,L|425:285,1,98.9749969795228,2|2,3:2|0:2,0:2:0:0:
402,26,70882,1,10,0:2:0:0:
275,244,71041,1,2,0:2:0:0:
165,12,71200,1,2,3:2:0:0:
432,150,71358,2,0,L|333:137,1,98.9749969795228,2|8,3:2|0:2,0:2:0:0:
107,373,71676,6,0,P|179:313|265:352,1,197.949993959046,2|2,0:2|3:2,0:2:0:0:
183,97,72152,1,10,0:2:0:0:
18,295,72311,1,2,3:2:0:0:
275,244,72470,2,0,L|374:231,1,98.9749969795228,2|0,3:2|0:2,0:2:0:0:
109,50,72787,2,0,P|95:97|108:144,1,98.9749969795228,10|0,0:2|0:2,0:2:0:0:
360,375,73104,5,10,3:2:0:0:
183,97,73263,1,10,3:2:0:0:
183,97,73739,5,10,3:2:0:0:
487,249,73898,1,10,3:2:0:0:
487,249,74216,6,1,B|391:214|404:283|308:254,1,185,10|10,3:2|3:2,0:2:0:0:
95,109,74692,2,0,L|106:200,1,92.5,10|2,3:2|0:2,0:2:0:0:
204,379,75009,1,2,3:2:0:0:
306,143,75168,1,8,0:2:0:0:
328,133,75247,1,8,0:2:0:0:
353,130,75326,1,8,0:2:0:0:
377,133,75406,1,8,0:2:0:0:
399,142,75485,6,0,B|389:212|389:212|420:262|420:262|411:329,1,197.949993959046,6|2,3:2|3:2,0:2:0:0:
195,136,75962,1,10,0:2:0:0:
331,368,76120,1,2,0:2:0:0:
291,72,76279,1,2,3:2:0:0:
122,279,76438,1,8,0:2:0:0:
385,158,76597,1,8,0:2:0:0:
120,370,76755,6,1,B|49:405|-9:362|-9:362|23:363|53:345,1,197.949993959046,6|2,3:2|3:2,0:2:0:0:
290,166,77231,1,10,0:2:0:0:
0,271,77390,1,2,0:2:0:0:
198,77,77549,1,2,3:2:0:0:
229,376,77708,1,8,0:2:0:0:
42,141,77866,1,8,0:2:0:0:
310,336,78025,6,1,B|413:374|399:300|502:331,1,197.949993959046,6|2,3:2|3:2,0:2:0:0:
348,46,78501,2,0,L|336:143,1,98.9749969795228,10|0,0:2|0:0,0:2:0:0:
310,336,78819,1,2,3:2:0:0:
198,77,78977,1,8,0:2:0:0:
198,77,79057,1,8,0:2:0:0:
198,77,79136,2,8,L|205:127,1,49.4874984897614,8|8,0:2|0:2,0:2:0:0:
378,274,79295,2,0,L|384:224,1,49.4874984897614,10|8,0:2|0:2,0:2:0:0:
248,4,79454,5,10,3:2:0:0:
184,352,79612,1,10,3:2:0:0:
184,352,79930,6,0,L|134:345,2,49.4874984897614,2|0|10,3:2|3:2|3:2,0:2:0:0:
449,147,80247,1,10,3:2:0:0:
449,147,80723,6,0,B|462:192|462:192|449:235,1,92.5,4|0,3:2|0:2,0:2:0:0:
197,172,81041,2,1,B|328:156|328:156|370:189,1,185,10|0,0:2|3:2,0:2:0:0:
233,374,81517,1,0,0:2:0:0:
122,129,81676,2,0,P|111:174|122:218,1,92.5,10|0,0:2|0:2,0:2:0:0:
367,305,81993,6,0,L|276:294,1,92.5,0|0,3:2|0:2,0:2:0:0:
421,110,82311,2,0,L|512:99,1,92.5,10|0,0:2|0:2,0:2:0:0:
231,215,82628,1,2,3:2:0:0:
369,39,82787,1,0,3:2:0:0:
275,293,82946,2,0,P|230:303|186:292,1,92.5,10|2,0:2|0:2,0:2:0:0:
15,51,83263,6,0,L|26:142,1,92.5,2|0,3:2|0:2,0:2:0:0:
144,383,83581,1,10,0:2:0:0:
233,144,83739,1,2,0:2:0:0:
6,298,83898,1,2,3:2:0:0:
275,293,84057,1,2,3:2:0:0:
53,133,84216,2,0,P|42:177|53:222,1,92.5,10|0,0:2|0:2,0:2:0:0:
291,31,84533,6,0,L|200:20,1,92.5,2|0,3:2|0:2,0:2:0:0:
356,255,84850,2,0,L|447:244,1,92.5,8|0,0:2|0:2,0:2:0:0:
170,101,85168,1,0,3:2:0:0:
319,336,85327,1,0,3:2:0:0:
390,39,85485,1,8,0:2:0:0:
230,330,85644,1,8,0:2:0:0:
230,330,85723,1,8,0:2:0:0:
230,330,85803,1,8,0:2:0:0:
18,24,86120,5,6,3:2:0:0:
256,192,86279,12,0,88343,0:2:0:0:
