osu file format v14

[General]
AudioFilename: audio.mp3
AudioLeadIn: 0
PreviewTime: 55168
Countdown: 0
SampleSet: Soft
StackLeniency: 0.4
Mode: 0
LetterboxInBreaks: 0
WidescreenStoryboard: 1

[Editor]
DistanceSpacing: 1
BeatDivisor: 4
GridSize: 4
TimelineZoom: 1.6

[Metadata]
Title:Oato ga Yoroshikutte... yo! (TV Size)
TitleUnicode:お後がよろしくって…よ! (TV Size)
Artist:Goku Rakujo-kai
ArtistUnicode:極♨落女会
Creator:browiec
Version:Normal!
Source:じょしらく
Tags:JOSHIRAKU opening 佐倉綾音 南條愛乃 小岩井ことり 後藤沙緒里 山本希望 japanese anime pop jpop j-pop Rakujokai 蕪羅亭魔梨威 Marii Buratei Sakura Ayane 防波亭手寅 Bouhatei Bohatei Tetora Yamamoto Nozomi 波浪浮亭木胡桃 Harokitei Haroukitei Kigurumi Koiwai Kotori 空琉美遊亭丸京 Kuurubiyuutei Gankyou Gankyo Kurubiyutei Nanjo Nanjou Yoshino 暗落亭苦来 Kukuru Anrakutei Gotou Goto Saori akitoshi corinn -laura-
BeatmapID:4507561
BeatmapSetID:2141451

[Difficulty]
HPDrainRate:3
CircleSize:3.4
OverallDifficulty:4.6
ApproachRate:5.5
SliderMultiplier:0.999999999999999
SliderTickRate:1

[Events]
//Background and Video events
0,0,"339155.jpg",0,0
//Break Periods
//Storyboard Layer 0 (Background)
//Storyboard Layer 1 (Fail)
//Storyboard Layer 2 (Pass)
//Storyboard Layer 3 (Foreground)
//Storyboard Layer 4 (Overlay)
//Storyboard Sound Samples

[TimingPoints]
724,317.460317460317,4,2,1,60,1,0
5803,-100,4,2,1,70,0,0
17231,-111.111111111111,4,2,1,50,0,0
27390,-100,4,2,1,60,0,0
35009,-100,4,2,1,70,0,0
37549,-111.111111111111,4,2,1,50,0,0
45168,-100,4,2,1,60,0,0
50247,-100,4,2,1,70,0,0
55327,-100,4,2,1,75,0,0
73104,-100,4,2,1,70,0,0
75485,-100,4,2,1,75,0,0
80723,-100,4,2,1,70,0,0
88343,-100,4,2,1,5,0,0

[Colours]
Combo1 : 245,146,46
Combo2 : 249,51,51

[HitObjects]
104,122,724,5,14,3:2:0:0:
104,122,882,1,14,3:2:0:0:
380,336,1993,1,14,3:2:0:0:
380,336,2152,1,14,3:2:0:0:
480,107,2946,1,2,0:2:0:0:
391,152,3263,6,0,L|242:133,1,150,14|0,3:2|0:2,0:2:0:0:
192,124,3898,1,14,3:2:0:0:
60,196,4374,2,0,P|49:244|60:292,1,99.9999999999999,14|10,3:2|3:2,0:2:0:0:
97,325,4850,1,10,3:2:0:0:
187,368,5168,2,0,L|236:361,1,50,14|8,3:2|0:2,0:0:0:0:
273,327,5485,2,0,L|322:320,1,50,8|8,0:2|0:2,0:2:0:0:
362,289,5803,5,4,3:2:0:0:
424,211,6120,2,1,P|435:162|424:114,1,99.9999999999999,10|0,0:2|3:2,0:2:0:0:
390,84,6597,1,0,0:2:0:0:
390,84,6755,2,0,L|290:71,1,99.9999999999999,10|0,0:2|3:2,0:2:0:0:
224,146,7390,2,0,L|236:245,1,99.9999999999999,10|2,0:2|3:2,0:2:0:0:
247,298,7866,1,0,3:2:0:0:
247,298,8025,1,10,0:2:0:0:
167,359,8343,1,0,3:2:0:0:
85,300,8660,6,1,P|73:251|84:203,1,99.9999999999999,10|0,0:2|3:2,0:2:0:0:
127,175,9136,1,0,0:2:0:0:
127,175,9294,2,0,L|226:187,1,99.9999999999999,10|0,0:2|3:2,0:2:0:0:
318,147,9930,2,0,P|329:98|318:50,1,99.9999999999999,10|2,0:2|3:2,0:2:0:0:
289,16,10406,1,8,3:2:0:0:
289,16,10565,1,10,0:2:0:0:
202,66,10882,1,4,3:2:0:0:
113,18,11200,6,0,P|102:66|113:114,2,99.9999999999999,10|0|10,0:2|3:2|0:2,0:2:0:0:
202,66,12152,2,0,L|301:53,1,99.9999999999999,2|8,3:2|0:2,0:2:0:0:
335,17,12628,2,1,L|434:29,1,99.9999999999999,2|0,3:2|3:2,0:2:0:0:
469,64,13104,1,10,0:2:0:0:
499,159,13422,6,0,L|486:258,1,99.9999999999999,2|10,3:2|0:2,0:2:0:0:
454,297,13898,1,2,0:2:0:0:
454,297,14057,2,0,L|404:303,1,50,2|2,3:2|3:2,0:0:0:0:
357,320,14374,1,10,0:2:0:0:
269,367,14692,2,0,P|258:319|269:271,1,99.9999999999999,2|8,3:2|0:2,0:2:0:0:
347,208,15327,2,0,L|340:158,1,50,0|0,3:2|3:2,0:0:0:0:
310,118,15644,1,8,0:2:0:0:
235,51,15962,2,0,P|186:40|138:51,1,99.9999999999999,4|8,3:2|0:2,0:2:0:0:
85,136,16597,1,0,3:2:0:0:
150,211,16914,2,0,L|143:260,1,50,8|8,0:2|0:2,0:0:0:0:
118,297,17231,5,4,3:2:0:0:
186,355,17549,1,10,0:2:0:0:
261,306,17866,2,0,L|350:295,1,89.999997253418,2|10,3:2|0:2,0:2:0:0:
374,256,18343,2,0,L|463:266,1,89.999997253418,2|2,3:2|3:2,0:2:0:0:
501,243,18819,1,10,0:2:0:0:
507,153,19136,2,0,P|474:122|431:109,1,89.999997253418,2|8,3:2|0:2,0:0:0:0:
354,156,19771,5,0,3:2:0:0:
277,108,20089,1,10,0:2:0:0:
211,169,20406,2,0,L|221:258,1,89.999997253418,2|10,3:2|0:2,0:2:0:0:
207,301,20882,2,0,P|174:331|131:344,1,89.999997253418,2|2,3:2|3:2,0:2:0:0:
87,351,21358,1,10,0:2:0:0:
25,285,21676,2,0,P|14:241|24:198,1,89.999997253418,2|8,3:2|0:2,0:0:0:0:
97,144,22311,5,0,3:2:0:0:
171,193,22628,1,10,0:2:0:0:
244,141,22946,2,0,L|333:130,1,89.999997253418,2|10,3:2|0:2,0:2:0:0:
371,153,23422,2,0,P|380:196|370:239,1,89.999997253418,2|2,0:2|3:2,0:0:0:0:
345,277,23898,1,10,0:2:0:0:
255,267,24216,2,0,L|165:256,1,89.999997253418,2|10,3:2|0:2,0:0:0:0:
94,200,24850,5,2,3:2:0:0:
17,247,25168,1,10,0:2:0:0:
37,334,25485,1,2,3:2:0:0:
131,343,25803,1,10,0:2:0:0:
131,343,25962,2,0,L|220:332,1,89.999997253418,2|2,3:2|3:2,0:2:0:0:
258,307,26438,1,10,3:2:0:0:
332,357,26755,1,2,3:2:0:0:
477,219,27390,6,1,P|488:170|477:122,1,99.9999999999999,6|10,3:2|0:2,0:2:0:0:
445,91,27866,1,2,0:2:0:0:
445,91,28025,1,2,3:2:0:0:
353,124,28343,1,10,0:2:0:0:
353,124,28501,2,0,L|253:111,1,99.9999999999999,2|2,3:2|3:2,0:2:0:0:
212,82,28977,1,10,0:2:0:0:
143,154,29295,2,0,L|149:203,1,50,2|2,3:2|3:2,0:0:0:0:
161,252,29612,1,10,0:2:0:0:
209,339,29930,6,0,P|160:350|112:339,1,99.9999999999999,2|10,3:2|0:2,0:2:0:0:
79,309,30406,1,2,0:2:0:0:
79,309,30565,1,2,3:2:0:0:
35,225,30882,1,10,0:2:0:0:
35,225,31040,2,0,L|47:125,1,99.9999999999999,2|2,3:2|3:2,0:2:0:0:
70,81,31516,1,10,0:2:0:0:
160,37,31835,2,0,L|209:30,1,50,2|2,3:2|3:2,0:0:0:0:
258,22,32152,1,10,0:2:0:0:
325,96,32470,6,0,P|336:144|325:192,1,99.9999999999999,2|10,3:2|0:2,0:2:0:0:
295,226,32946,1,2,0:2:0:0:
295,226,33105,1,2,3:2:0:0:
204,196,33422,1,10,0:2:0:0:
204,196,33580,2,0,L|104:183,1,99.9999999999999,2|2,3:2|3:2,0:2:0:0:
62,211,34056,1,10,0:2:0:0:
42,309,34374,2,0,P|78:342|125:357,1,99.9999999999999,2|10,3:2|0:2,0:2:0:0:
210,303,35009,6,0,L|309:290,1,99.9999999999999,6|8,3:2|0:2,0:0:0:0:
345,324,35485,2,0,L|444:336,1,99.9999999999999,6|8,3:2|0:2,0:0:0:0:
490,315,35962,1,6,3:2:0:0:
400,201,36438,1,0,3:2:0:0:
400,201,36597,2,0,L|393:151,1,50,8|0,0:2|3:2,0:0:0:0:
361,113,36914,2,0,P|312:102|264:113,1,99.9999999999999,10|2,0:2|3:2,0:0:0:0:
217,190,37549,6,1,L|228:279,1,89.999997253418,6|2,3:2|0:2,0:2:0:0:
205,319,38025,1,0,3:2:0:0:
205,319,38184,2,0,L|116:330,1,89.999997253418,10|2,0:2|0:2,0:2:0:0:
38,376,38819,2,0,P|27:332|36:288,1,89.999997253418,2|0,3:2|0:0,0:0:0:0:
109,236,39454,1,10,0:2:0:0:
59,160,39771,1,2,0:2:0:0:
125,99,40089,6,0,L|214:88,1,89.999997253418,2|2,3:2|0:2,0:2:0:0:
291,143,40723,1,10,0:2:0:0:
291,143,40882,2,0,L|380:132,1,89.999997253418,2|2,0:2|3:2,0:2:0:0:
420,111,41358,1,2,3:2:0:0:
480,177,41676,1,2,0:2:0:0:
452,261,41993,1,10,0:2:0:0:
365,278,42311,1,2,3:2:0:0:
306,211,42628,6,0,L|317:122,1,89.999997253418,6|2,3:2|0:2,0:2:0:0:
316,80,43104,1,0,3:2:0:0:
316,80,43263,2,0,P|282:50|239:37,1,89.999997253418,10|2,0:2|0:2,0:2:0:0:
164,86,43898,2,0,L|175:175,1,89.999997253418,2|0,3:2|0:0,0:0:0:0:
111,239,44533,1,10,0:2:0:0:
125,327,44850,1,8,0:2:0:0:
220,357,45168,6,0,L|320:345,2,99.9999999999999,6|8|0,3:2|0:2|3:2,0:2:0:0:
125,327,46120,1,10,0:2:0:0:
196,257,46438,2,0,L|202:208,1,50,2|2,3:2|0:2,0:0:0:0:
244,179,46755,1,10,0:2:0:0:
244,179,46914,2,0,P|255:130|244:82,1,99.9999999999999,2|0,0:2|3:2,0:2:0:0:
214,49,47390,1,10,0:2:0:0:
127,99,47708,6,0,L|27:87,1,99.9999999999999,6|10,3:2|0:2,0:2:0:0:
15,186,48343,2,0,L|115:198,1,99.9999999999999,2|10,3:2|0:2,0:0:0:0:
184,268,48977,2,0,L|284:256,1,99.9999999999999,6|8,3:2|0:2,0:2:0:0:
296,355,49612,2,0,L|196:367,1,99.9999999999999,2|8,3:2|0:2,0:0:0:0:
150,375,50089,1,2,3:2:0:0:
150,375,50247,5,12,0:2:0:0:
80,302,50565,1,8,0:2:0:0:
134,218,50882,2,0,L|140:169,1,50,8|0,0:2|3:2,0:0:0:0:
106,130,51200,2,0,L|100:81,1,50,8|0,0:2|3:2,0:0:0:0:
124,36,51517,1,8,0:2:0:0:
218,2,51835,1,8,0:2:0:0:
291,77,52152,1,10,3:2:0:0:
291,77,52311,2,0,L|285:126,1,50,10|0,3:2|3:2,0:0:0:0:
245,157,52628,6,0,P|234:205|245:253,1,99.9999999999999,14|0,3:2|3:2,0:2:0:0:
273,294,53104,1,8,0:2:0:0:
369,322,53422,1,8,0:2:0:0:
437,249,53739,1,8,0:2:0:0:
407,158,54057,1,10,3:2:0:0:
407,158,54216,1,8,3:2:0:0:
265,198,54692,1,10,3:2:0:0:
265,198,54851,1,8,3:2:0:0:
184,71,55327,6,1,P|135:60|87:71,1,99.9999999999999,6|10,3:2|0:2,0:2:0:0:
33,157,55962,1,2,3:2:0:0:
33,157,56120,2,0,L|40:206,1,50,2|8,3:2|0:2,0:2:0:0:
79,237,56438,2,0,L|67:337,1,99.9999999999999,2|2,0:2|0:2,0:2:0:0:
98,375,56914,1,10,0:2:0:0:
194,348,57231,2,0,L|243:341,1,50,2|2,3:2|3:2,0:0:0:0:
291,326,57549,1,10,0:2:0:0:
377,376,57866,6,0,P|387:327|376:279,1,99.9999999999999,2|10,3:2|0:2,0:2:0:0:
292,226,58501,2,0,L|285:177,1,50,2|2,3:2|3:2,0:0:0:0:
258,133,58819,1,10,0:2:0:0:
297,41,59136,2,0,L|346:34,1,50,2|2,3:2|0:2,0:0:0:0:
388,62,59454,2,0,L|437:69,1,50,10|2,0:2|0:2,0:0:0:0:
477,98,59771,1,2,3:2:0:0:
494,196,60089,1,10,0:2:0:0:
420,263,60406,6,0,P|371:273|323:262,1,99.9999999999999,2|10,3:2|0:2,0:2:0:0:
254,198,61041,1,2,3:2:0:0:
254,198,61199,2,0,L|261:149,1,50,2|8,3:2|0:2,0:2:0:0:
235,105,61517,2,0,L|135:93,1,99.9999999999999,2|0,0:2|0:2,0:2:0:0:
101,56,61993,1,10,0:2:0:0:
23,119,62311,2,0,P|11:167|22:215,1,99.9999999999999,2|10,3:2|0:2,0:0:0:0:
93,287,62946,5,2,3:2:0:0:
191,270,63263,1,10,0:2:0:0:
232,178,63581,2,0,L|239:129,1,50,2|2,3:2|3:2,0:0:0:0:
263,86,63898,1,10,0:2:0:0:
263,86,64057,2,0,L|363:74,1,99.9999999999999,2|2,3:2|3:2,0:2:0:0:
404,47,64533,1,10,0:2:0:0:
484,105,64850,2,0,L|477:154,1,50,2|8,3:2|0:2,0:0:0:0:
441,190,65168,2,0,L|448:239,1,50,8|8,0:2|0:2,0:2:0:0:
421,281,65485,6,1,P|372:291|324:280,1,99.9999999999999,6|10,3:2|0:2,0:2:0:0:
271,201,66120,1,2,3:2:0:0:
271,201,66278,2,0,L|278:152,1,50,2|8,3:2|0:2,0:2:0:0:
273,100,66597,2,0,P|236:66|189:51,1,99.9999999999999,2|2,0:2|0:2,0:2:0:0:
140,65,67073,1,10,0:2:0:0:
62,127,67390,2,0,L|69:176,1,50,2|2,3:2|3:2,0:0:0:0:
77,226,67708,1,10,0:2:0:0:
29,313,68025,6,0,P|77:324|125:313,1,99.9999999999999,2|10,3:2|0:2,0:0:0:0:
180,229,68660,2,0,L|229:222,1,50,2|2,3:2|3:2,0:0:0:0:
273,197,68978,1,10,0:2:0:0:
325,282,69295,2,0,L|374:289,1,50,2|2,3:2|0:2,0:0:0:0:
409,324,69612,2,0,L|458:317,1,50,10|2,0:2|0:2,0:0:0:0:
495,283,69930,1,2,3:2:0:0:
510,184,70247,1,10,0:2:0:0:
434,118,70565,6,0,L|334:106,1,99.9999999999999,2|10,3:2|0:2,0:2:0:0:
253,46,71200,2,0,L|204:53,1,50,2|2,3:2|3:2,0:0:0:0:
168,88,71517,1,8,0:2:0:0:
168,88,71676,2,0,L|180:188,1,99.9999999999999,2|2,0:2|3:2,0:2:0:0:
211,226,72152,2,0,L|204:275,1,50,10|2,0:2|3:2,0:0:0:0:
225,320,72470,1,2,3:2:0:0:
314,364,72787,1,10,0:2:0:0:
406,321,73104,5,10,3:2:0:0:
406,321,73263,1,10,3:2:0:0:
320,204,73739,5,10,3:2:0:0:
320,204,73898,1,10,3:2:0:0:
221,221,74216,2,1,L|121:233,1,99.9999999999999,10|10,3:2|3:2,0:2:0:0:
73,244,74692,1,10,3:2:0:0:
11,165,75009,2,0,L|18:116,1,50,2|8,3:2|0:2,0:0:0:0:
40,72,75327,1,8,0:2:0:0:
40,72,75485,6,0,P|88:61|136:72,1,99.9999999999999,6|2,3:2|3:2,0:2:0:0:
171,108,75962,2,0,L|220:101,1,50,10|2,0:2|0:2,0:0:0:0:
265,79,76279,1,2,3:2:0:0:
351,140,76597,1,8,0:2:0:0:
351,140,76755,2,1,P|362:188|351:236,1,99.9999999999999,6|2,3:2|3:2,0:2:0:0:
315,271,77232,2,0,L|322:320,1,50,10|2,0:2|0:2,0:0:0:0:
293,361,77549,1,2,3:2:0:0:
197,354,77866,1,8,0:2:0:0:
197,354,78025,6,1,L|97:342,1,99.9999999999999,6|2,3:2|3:2,0:2:0:0:
49,329,78501,1,10,0:2:0:0:
18,233,78819,2,0,L|25:184,1,50,2|8,3:2|0:2,0:0:0:0:
67,156,79136,2,8,L|60:107,1,50,8|10,0:2|0:2,0:2:0:0:
91,68,79454,1,10,3:2:0:0:
91,68,79612,1,10,3:2:0:0:
233,13,80089,1,10,3:2:0:0:
233,13,80247,1,10,3:2:0:0:
205,160,80723,5,4,3:2:0:0:
143,238,81040,2,1,P|132:287|143:335,1,99.9999999999999,10|0,0:2|3:2,0:2:0:0:
177,365,81517,1,0,0:2:0:0:
177,365,81675,2,0,L|277:378,1,99.9999999999999,10|0,0:2|3:2,0:2:0:0:
343,303,82310,2,0,L|331:204,1,99.9999999999999,10|2,0:2|3:2,0:2:0:0:
324,158,82786,1,0,3:2:0:0:
324,158,82945,1,10,0:2:0:0:
274,70,83263,6,0,P|322:59|370:70,1,99.9999999999999,2|10,3:2|0:2,0:2:0:0:
411,107,83739,1,2,0:2:0:0:
411,107,83898,2,0,L|460:114,1,50,2|2,3:2|3:2,0:0:0:0:
498,147,84216,1,10,0:2:0:0:
478,245,84533,2,0,L|466:344,1,99.9999999999999,2|8,3:2|0:2,0:2:0:0:
370,375,85168,2,0,L|321:368,1,50,0|0,3:2|3:2,0:0:0:0:
284,332,85485,2,0,L|185:344,1,99.9999999999999,8|8,0:2|0:2,0:0:0:0:
99,291,86120,5,6,3:2:0:0:
256,192,86279,12,0,88343,0:2:0:0:
