osu file format v14

[General]
AudioFilename: audio.mp3
AudioLeadIn: 0
PreviewTime: 55168
Countdown: 0
SampleSet: Soft
StackLeniency: 0.4
Mode: 0
LetterboxInBreaks: 0
WidescreenStoryboard: 1

[Editor]
Bookmarks: 37549,45168
DistanceSpacing: 1
BeatDivisor: 4
GridSize: 4
TimelineZoom: 1.6

[Metadata]
Title:Oato ga Yoroshikutte... yo! (TV Size)
TitleUnicode:お後がよろしくって…よ! (TV Size)
Artist:Goku Rakujo-kai
ArtistUnicode:極♨落女会
Creator:browiec
Version:Insane!
Source:じょしらく
Tags:JOSHIRAKU opening 佐倉綾音 南條愛乃 小岩井ことり 後藤沙緒里 山本希望 japanese anime pop jpop j-pop Rakujokai 蕪羅亭魔梨威 Marii Buratei Sakura Ayane 防波亭手寅 Bouhatei Bohatei Tetora Yamamoto Nozomi 波浪浮亭木胡桃 Harokitei Haroukitei Kigurumi Koiwai Kotori 空琉美遊亭丸京 Kuurubiyuutei Gankyou Gankyo Kurubiyutei Nanjo Nanjou Yoshino 暗落亭苦来 Kukuru Anrakutei Gotou Goto Saori akitoshi corinn -laura-
BeatmapID:4508550
BeatmapSetID:2141451

[Difficulty]
HPDrainRate:5
CircleSize:3.8
OverallDifficulty:8.2
ApproachRate:9
SliderMultiplier:1.7
SliderTickRate:1

[Events]
//Background and Video events
0,0,"339155.jpg",0,0
//Break Periods
//Storyboard Layer 0 (Background)
//Storyboard Layer 1 (Fail)
//Storyboard Layer 2 (Pass)
//Storyboard Layer 3 (Foreground)
//Storyboard Layer 4 (Overlay)
//Storyboard Sound Samples

[TimingPoints]
724,317.460317460317,4,2,1,60,1,0
724,-111.111111111111,4,2,1,60,0,0
5803,-100,4,2,1,70,0,0
17231,-133.333333333333,4,2,1,50,0,0
27390,-111.111111111111,4,2,1,60,0,0
35009,-100,4,2,1,70,0,0
37549,-133.333333333333,4,2,1,50,0,0
45168,-111.111111111111,4,2,1,60,0,0
50247,-100,4,2,1,70,0,0
55327,-93.4579439252336,4,2,1,75,0,0
73104,-100,4,2,1,70,0,0
75485,-93.4579439252336,4,2,1,75,0,0
80723,-100,4,2,1,70,0,0
88343,-100,4,2,1,5,0,0

[Colours]
Combo1 : 245,146,46
Combo2 : 249,51,51

[HitObjects]
96,51,724,5,14,3:2:0:0:
299,120,882,1,14,3:2:0:0:
299,120,1993,5,14,3:2:0:0:
96,195,2151,1,14,3:2:0:0:
96,195,2946,5,2,0:2:0:0:
289,310,3263,6,0,B|439:291|439:291|401:311|386:346,1,229.499992996216,14|0,3:2|0:2,0:2:0:0:
226,370,3898,6,0,P|202:299|242:236,1,152.999995330811,14|0,3:2|0:2,0:2:0:0:
412,139,4374,6,0,L|336:129,1,76.4999976654053,14|0,3:2|0:2,0:2:0:0:
191,164,4692,1,10,3:2:0:0:
252,8,4850,2,0,L|261:83,1,76.4999976654053,10|2,3:2|0:2,0:2:0:0:
242,236,5168,1,14,3:2:0:0:
153,86,5327,1,8,0:2:0:0:
153,86,5406,1,8,0:2:0:0:
153,86,5485,2,0,L|115:81,3,38.2499988327027,8|8|8|8,0:2|0:2|0:2|0:2,0:2:0:0:
83,80,5803,6,0,B|71:121|71:121|83:161,1,85,4|0,3:2|0:2,0:2:0:0:
207,241,6120,6,1,B|118:208|131:271|42:244,1,170,10|0,0:2|3:2,0:2:0:0:
178,380,6597,1,0,0:2:0:0:
286,281,6755,2,0,P|294:239|285:198,1,85,10|0,0:2|0:2,0:2:0:0:
129,137,7073,6,0,L|214:148,1,85,0|0,3:2|0:2,0:2:0:0:
326,14,7390,2,0,L|241:24,1,85,10|0,0:2|0:2,0:2:0:0:
356,154,7708,1,2,3:2:0:0:
411,17,7866,1,0,3:2:0:0:
343,164,8025,2,0,P|334:205|342:246,1,85,10|0,0:2|0:2,0:2:0:0:
505,215,8343,6,0,L|421:205,1,85,0|0,3:2|0:2,0:2:0:0:
327,335,8660,2,1,B|267:342|267:342|223:315|223:315|165:322,1,170,10|0,0:2|3:2,0:2:0:0:
19,237,9136,1,0,0:2:0:0:
69,384,9295,2,0,L|79:299,1,85,10|0,0:2|0:2,0:2:0:0:
192,155,9612,6,0,P|221:185|232:225,1,85,0|0,3:2|0:2,0:2:0:0:
105,152,9930,2,0,P|116:111|145:81,1,85,10|0,0:2|0:2,0:2:0:0:
323,96,10247,1,2,3:2:0:0:
192,155,10406,1,8,3:2:0:0:
264,0,10565,2,0,L|348:10,1,85,10|0,0:2|0:2,0:2:0:0:
333,180,10882,6,0,L|323:96,1,85,4|0,3:2|0:2,0:2:0:0:
190,268,11200,2,0,B|238:272|267:238|267:238|299:271|342:268,1,170,10|0,0:2|3:2,0:2:0:0:
200,182,11676,1,0,0:2:0:0:
200,182,11835,2,0,L|115:171,1,85,10|0,0:2|0:2,0:2:0:0:
0,54,12152,6,0,B|42:106|42:106|15:211,1,170,2|8,3:2|0:2,0:2:0:0:
0,331,12628,2,1,P|66:283|142:312,1,170,2|0,3:2|3:2,0:2:0:0:
223,382,13104,2,0,L|233:297,1,85,10|2,0:2|0:2,0:0:0:0:
371,184,13422,6,0,L|381:268,1,85,2|0,3:2|0:2,0:2:0:0:
189,149,13739,1,10,0:2:0:0:
358,79,13898,1,2,0:2:0:0:
278,221,14057,1,2,3:2:0:0:
236,52,14216,1,2,3:2:0:0:
371,184,14374,2,0,L|455:173,1,85,10|0,0:2|0:2,0:2:0:0:
254,304,14692,6,0,B|194:296|194:296|150:323|150:323|92:316,2,170,2|8|0,3:2|0:2|3:2,0:2:0:0:
390,374,15485,1,0,3:2:0:0:
329,173,15644,2,0,B|341:211|341:211|329:253,1,85,8|0,0:2|0:2,0:2:0:0:
165,203,15962,6,0,L|249:213,1,85,4|0,3:2|3:2,0:2:0:0:
129,94,16279,2,0,L|44:104,1,85,8|8,0:2|0:2,0:0:0:0:
209,9,16597,2,0,L|203:51,2,42.5,0|8|8,3:2|0:2|0:2,0:0:0:0:
259,118,16914,1,8,0:2:0:0:
334,27,17073,5,8,0:2:0:0:
334,27,17152,1,8,0:2:0:0:
334,27,17231,2,0,L|349:153,1,127.500004863739,4|10,3:2|0:2,0:2:0:0:
403,228,17708,1,2,0:2:0:0:
403,228,17866,2,0,P|348:198|287:213,1,127.500004863739,2|10,3:2|0:2,0:2:0:0:
257,295,18343,6,0,B|211:300|211:300|177:284|177:284|133:289,1,127.500004863739,2|2,3:2|3:2,0:2:0:0:
53,321,18819,2,0,P|48:289|53:259,1,63.7500024318696,10|2,0:2|0:2,0:2:0:0:
120,204,19136,1,2,3:2:0:0:
120,204,19295,1,2,3:2:0:0:
47,149,19454,2,0,L|39:85,1,63.7500024318696,8|0,0:2|0:2,0:2:0:0:
111,0,19771,5,0,3:2:0:0:
175,93,19929,1,0,3:2:0:0:
175,93,20089,2,0,L|238:85,1,63.7500024318696,10|2,0:2|0:2,0:2:0:0:
293,18,20406,2,0,P|323:73|309:134,1,127.500004863739,2|10,3:2|0:2,0:2:0:0:
245,192,20882,6,0,L|119:177,1,127.500004863739,2|2,3:2|3:2,0:2:0:0:
32,168,21358,2,0,L|39:231,1,63.7500024318696,10|2,0:2|0:2,0:2:0:0:
113,277,21676,2,0,L|105:340,1,63.7500024318696,2|2,3:2|3:2,0:0:0:0:
191,355,21993,2,0,L|198:291,1,63.7500024318696,8|0,0:2|0:2,0:2:0:0:
245,192,22311,5,0,3:2:0:0:
307,289,22470,1,0,3:2:0:0:
306,288,22628,2,0,P|338:294|369:289,1,63.7500024318696,10|2,0:2|0:2,0:2:0:0:
440,338,22946,2,0,P|454:277|425:223,1,127.500004863739,2|10,3:2|0:2,0:2:0:0:
339,205,23422,6,0,L|346:141,1,63.7500024318696,2|0,0:2|3:2,0:0:0:0:
278,88,23739,1,2,3:2:0:0:
277,88,23897,2,0,P|301:67|331:56,1,63.7500024318696,10|0,0:2|0:2,0:2:0:0:
413,85,24216,2,0,B|496:95|496:95|476:80|463:62,1,127.500004863739,2|10,3:2|0:2,0:0:0:0:
339,205,24850,6,0,L|350:300,1,95.6250036478044,2|0,3:2|0:2,0:2:0:0:
382,311,25168,2,0,L|374:374,1,63.7500024318696,10|0,0:2|0:2,0:2:0:0:
289,371,25485,2,0,B|243:366|243:366|209:382|209:382|165:377,1,127.500004863739,2|10,3:2|0:2,0:2:0:0:
131,286,25962,2,0,L|195:294,1,63.7500024318696,2|0,3:2|0:2,0:2:0:0:
209,208,26279,1,2,3:2:0:0:
209,208,26438,2,0,L|145:200,1,63.7500024318696,10|0,3:2|0:2,0:2:0:0:
66,231,26755,1,2,3:2:0:0:
66,230,27073,6,0,B|56:199|56:199|66:169,1,63.7500024318696,10|0,3:2|0:2,0:2:0:0:
0,77,27390,6,1,B|80:50|69:106|148:79,1,152.999995330811,6|10,3:2|0:2,0:2:0:0:
228,0,27866,1,2,0:2:0:0:
228,0,28025,2,0,L|237:75,1,76.4999976654053,2|0,3:2|0:2,0:2:0:0:
288,219,28343,1,10,0:2:0:0:
362,98,28501,6,0,B|395:149|395:149|372:242,1,152.999995330811,2|2,3:2|3:2,0:2:0:0:
222,252,28977,2,0,P|251:228|288:219,1,76.4999976654053,10|2,0:2|0:2,0:0:0:0:
196,374,29295,1,2,3:2:0:0:
136,250,29454,1,2,3:2:0:0:
291,306,29612,2,0,L|281:381,1,76.4999976654053,10|0,0:2|0:2,0:2:0:0:
119,237,29930,6,0,B|19:224|19:224|43:241|55:264,1,152.999995330811,2|10,3:2|0:2,0:2:0:0:
194,191,30406,1,2,0:2:0:0:
194,191,30565,2,0,L|184:115,1,76.4999976654053,2|0,3:2|0:2,0:2:0:0:
119,237,30882,1,10,0:2:0:0:
269,233,31041,6,0,B|321:226|321:226|360:250|360:250|414:244,1,152.999995330811,2|2,3:2|3:2,0:2:0:0:
512,103,31517,2,0,L|436:93,1,76.4999976654053,10|2,0:2|0:2,0:0:0:0:
265,77,31835,1,2,3:2:0:0:
380,161,31993,1,2,3:2:0:0:
360,3,32152,2,0,L|350:78,1,76.4999976654053,10|0,0:2|0:2,0:2:0:0:
438,230,32470,6,0,P|375:190|304:212,1,152.999995330811,2|10,3:2|0:2,0:2:0:0:
212,310,32946,1,2,0:2:0:0:
207,147,33104,2,0,L|216:222,1,76.4999976654053,2|0,3:2|0:2,0:2:0:0:
137,355,33422,1,10,0:2:0:0:
137,355,33581,6,0,B|92:310|92:310|111:219,1,152.999995330811,2|2,3:2|3:2,0:2:0:0:
208,105,34057,2,0,P|178:129|142:138,1,76.4999976654053,10|0,0:2|0:2,0:2:0:0:
77,11,34374,2,0,P|113:25|140:52,1,76.4999976654053,2|0,3:2|0:2,0:2:0:0:
63,172,34692,2,0,P|56:134|66:97,1,76.4999976654053,10|0,0:2|0:2,0:2:0:0:
191,266,35009,5,6,3:2:0:0:
208,105,35168,1,2,3:2:0:0:
106,260,35327,1,8,0:2:0:0:
262,184,35485,5,6,3:2:0:0:
129,349,35644,2,0,L|45:339,1,85,2|8,3:2|0:2,0:0:0:0:
251,197,35962,6,0,B|309:190|309:190|353:217|353:217|413:210,1,170,6|0,3:2|0:2,0:2:0:0:
404,370,36438,1,0,3:2:0:0:
290,280,36597,1,8,0:2:0:0:
490,276,36755,1,0,3:2:0:0:
490,276,36835,1,0,3:2:0:0:
490,276,36914,2,0,P|498:317|490:358,1,85,10|8,0:2|3:2,0:0:0:0:
370,251,37231,2,0,L|380:167,1,85,2|0,3:2|3:2,0:0:0:0:
482,51,37549,6,1,P|427:81|366:66,1,127.500004863739,6|2,3:2|0:2,0:2:0:0:
272,18,38025,1,0,3:2:0:0:
272,18,38184,2,0,L|279:81,1,63.7500024318696,10|0,0:2|0:2,0:2:0:0:
224,148,38501,1,2,0:2:0:0:
331,211,38660,5,0,3:2:0:0:
331,211,38739,1,0,3:2:0:0:
331,211,38819,1,2,3:2:0:0:
273,276,38977,2,0,B|189:286|189:286|151:266,1,127.500004863739,8|0,0:2|3:2,0:2:0:0:
57,214,39454,2,0,L|72:340,1,127.500004863739,10|2,0:2|0:2,0:2:0:0:
346,326,40089,6,0,P|360:265|331:211,1,127.500004863739,2|2,3:2|0:2,0:2:0:0:
262,160,40565,1,0,3:2:0:0:
314,92,40723,1,10,0:2:0:0:
314,92,40882,2,0,L|377:84,1,63.7500024318696,2|0,0:2|0:2,0:2:0:0:
250,28,41200,5,2,3:2:0:0:
250,28,41279,1,0,3:2:0:0:
250,28,41358,2,0,B|204:23|204:23|170:39|170:39|126:34,1,127.500004863739,2|2,3:2|0:2,0:2:0:0:
47,3,41835,1,0,3:2:0:0:
47,3,41993,2,0,P|41:34|47:66,1,63.7500024318696,10|0,0:2|3:2,0:0:0:0:
114,120,42311,1,2,3:2:0:0:
53,237,42470,5,0,3:2:0:0:
53,237,42549,1,0,3:2:0:0:
53,237,42628,2,0,P|107:207|168:221,1,127.500004863739,6|2,3:2|0:2,0:2:0:0:
249,190,43104,1,0,3:2:0:0:
249,190,43263,2,0,P|254:221|249:252,1,63.7500024318696,10|0,0:2|0:2,0:2:0:0:
182,307,43581,1,2,0:2:0:0:
279,375,43739,5,0,3:2:0:0:
279,375,43819,1,0,3:2:0:0:
279,375,43898,1,2,3:2:0:0:
332,306,44057,2,0,L|458:290,1,127.500004863739,8|0,0:2|3:2,0:2:0:0:
420,207,44533,2,0,L|356:214,1,63.7500024318696,10|0,0:2|0:2,0:2:0:0:
288,163,44850,1,8,0:2:0:0:
288,163,45168,6,0,B|253:109|253:109|280:19,2,152.999995330811,6|8|0,3:2|0:2|3:2,0:2:0:0:
423,106,45962,1,0,3:2:0:0:
423,106,46120,2,0,L|348:96,1,76.4999976654053,10|2,0:2|0:2,0:2:0:0:
211,211,46438,5,2,3:2:0:0:
354,238,46597,1,2,0:2:0:0:
256,109,46755,1,10,0:2:0:0:
364,250,46914,2,0,B|444:223|433:279|512:252,1,152.999995330811,2|0,0:2|3:2,0:2:0:0:
485,97,47390,2,0,L|475:172,1,76.4999976654053,10|0,0:2|0:2,0:2:0:0:
403,332,47708,6,0,L|289:345,1,114.749996498108,6|0,3:2|0:2,0:2:0:0:
268,369,48025,2,0,L|193:359,1,76.4999976654053,10|0,0:2|0:2,0:2:0:0:
24,305,48343,1,2,3:2:0:0:
190,271,48501,1,0,3:2:0:0:
101,384,48660,2,0,L|111:309,1,76.4999976654053,10|0,0:2|0:2,0:2:0:0:
9,169,48977,6,0,P|59:193|115:182,1,114.749996498108,6|0,3:2|0:2,0:2:0:0:
137,158,49295,2,0,L|212:148,1,76.4999976654053,8|0,0:2|0:2,0:2:0:0:
303,16,49612,2,0,P|278:46|270:83,1,76.4999976654053,2|0,3:2|3:2,0:0:0:0:
322,255,49930,1,8,0:2:0:0:
212,147,50089,1,2,3:2:0:0:
402,214,50247,6,0,B|413:254|413:254|402:295,1,85,12|0,0:2|0:2,0:2:0:0:
239,230,50565,5,8,0:2:0:0:
348,364,50723,1,0,3:2:0:0:
301,170,50882,5,8,0:2:0:0:
186,316,51041,1,0,3:2:0:0:
407,266,51200,2,0,L|322:255,1,85,8|0,0:2|3:2,0:0:0:0:
103,210,51517,5,8,0:2:0:0:
301,170,51676,1,0,3:2:0:0:
85,124,51835,5,8,0:2:0:0:
239,230,51993,1,0,3:2:0:0:
33,259,52152,5,10,3:2:0:0:
179,67,52311,2,0,L|168:152,1,85,10|0,3:2|3:2,0:0:0:0:
232,342,52628,6,0,B|290:335|290:335|334:362|334:362|394:355,1,170,14|0,3:2|3:2,0:2:0:0:
444,141,53104,5,8,0:2:0:0:
262,251,53263,1,0,3:2:0:0:
398,68,53422,5,8,0:2:0:0:
454,278,53581,1,0,3:2:0:0:
248,134,53739,2,0,B|236:91|236:91|247:51,1,85,8|0,0:2|3:2,0:0:0:0:
395,212,54057,5,10,3:2:0:0:
182,263,54216,1,8,3:2:0:0:
342,105,54374,1,0,3:2:0:0:
342,105,54454,1,0,3:2:0:0:
342,105,54533,2,0,L|336:147,1,42.5,0|0,3:2|3:2,0:2:0:0:
240,350,54692,5,10,3:2:0:0:
152,141,54850,1,8,3:2:0:0:
152,141,55327,6,1,B|32:126|32:126|59:144|74:173,1,181.899994448853,6|10,3:2|0:2,0:2:0:0:
257,217,55803,1,2,0:2:0:0:
165,53,55962,1,2,3:2:0:0:
93,261,56120,2,0,P|136:271|180:260,1,90.9499972244264,2|8,3:2|0:2,0:2:0:0:
322,108,56438,6,0,B|365:159|365:159|335:274,1,181.899994448853,2|2,0:2|0:2,0:2:0:0:
191,350,56914,2,0,L|180:260,1,90.9499972244264,10|2,0:2|0:2,0:2:0:0:
139,76,57231,1,2,3:2:0:0:
257,217,57390,1,2,3:2:0:0:
48,154,57549,2,0,L|138:165,1,90.9499972244264,10|0,0:2|0:2,0:2:0:0:
321,7,57866,6,0,P|277:-3|233:6,1,90.9499972244264,2|2,3:2|0:2,0:2:0:0:
321,159,58184,2,0,P|352:126|365:83,1,90.9499972244264,10|2,0:2|0:2,0:2:0:0:
138,165,58501,1,2,3:2:0:0:
315,245,58660,1,2,3:2:0:0:
219,98,58819,2,0,L|230:188,1,90.9499972244264,10|2,0:2|0:2,0:0:0:0:
382,299,59136,5,2,3:2:0:0:
178,260,59295,1,2,0:2:0:0:
395,289,59454,5,10,0:2:0:0:
189,381,59612,1,2,0:2:0:0:
351,210,59771,6,0,B|392:197|392:197|438:210,1,90.9499972244264,2|0,3:2|3:2,0:2:0:0:
201,368,60089,2,0,B|155:380|155:380|113:368,1,90.9499972244264,10|0,0:2|0:2,0:2:0:0:
238,178,60406,6,0,L|249:268,1,90.9499972244264,2|2,3:2|0:2,0:2:0:0:
384,379,60723,2,0,L|395:289,1,90.9499972244264,10|2,0:2|0:2,0:0:0:0:
355,120,61041,1,2,3:2:0:0:
487,286,61200,2,0,P|473:242|443:209,1,90.9499972244264,2|8,3:2|0:2,0:2:0:0:
313,37,61517,6,0,B|375:29|375:29|422:58|422:58|486:50,1,181.899994448853,2|0,0:2|0:2,0:2:0:0:
307,192,61993,2,0,L|217:181,1,90.9499972244264,10|0,0:2|0:2,0:2:0:0:
49,123,62311,1,2,3:2:0:0:
210,57,62470,1,0,3:2:0:0:
135,259,62628,2,0,L|124:169,1,90.9499972244264,10|0,0:2|0:2,0:2:0:0:
285,13,62946,6,0,P|295:57|286:101,1,90.9499972244264,2|2,3:2|0:2,0:0:0:0:
231,236,63263,2,0,P|263:205|306:191,1,90.9499972244264,10|2,0:2|0:2,0:0:0:0:
488,182,63581,1,2,3:2:0:0:
286,101,63739,1,2,3:2:0:0:
386,273,63898,1,10,0:2:0:0:
383,20,64057,6,0,B|426:71|426:71|396:186,1,181.899994448853,2|2,3:2|3:2,0:2:0:0:
306,340,64533,1,10,0:2:0:0:
472,274,64692,1,2,0:2:0:0:
294,191,64850,2,0,L|204:180,1,90.9499972244264,2|8,3:2|0:2,0:0:0:0:
180,159,65089,1,8,0:2:0:0:
180,159,65168,2,0,L|134:164,3,45.4749986122132,8|8|8|8,0:2|0:2|0:2|0:2,0:2:0:0:
101,85,65485,6,1,P|48:154|82:234,1,181.899994448853,6|10,3:2|0:2,0:2:0:0:
231,308,65962,1,2,0:2:0:0:
134,164,66120,1,2,3:2:0:0:
70,369,66279,2,0,L|160:358,1,90.9499972244264,2|8,3:2|0:2,0:2:0:0:
339,195,66597,6,0,B|219:180|219:180|246:198|261:227,1,181.899994448853,2|2,0:2|0:2,0:2:0:0:
316,373,67073,2,0,L|327:283,1,90.9499972244264,10|2,0:2|0:2,0:0:0:0:
390,125,67390,1,2,3:2:0:0:
464,293,67549,1,2,3:2:0:0:
480,101,67708,2,0,L|468:191,1,90.9499972244264,10|0,0:2|0:2,0:2:0:0:
314,80,68025,6,0,P|346:49|389:35,1,90.9499972244264,2|2,3:2|0:2,0:0:0:0:
385,214,68343,2,0,L|294:202,1,90.9499972244264,10|2,0:2|0:2,0:0:0:0:
149,121,68660,1,2,3:2:0:0:
240,271,68819,1,2,3:2:0:0:
226,77,68977,2,0,P|193:46|146:32,1,90.9499972244264,10|2,0:2|0:2,0:0:0:0:
78,274,69295,5,2,3:2:0:0:
7,106,69454,1,2,0:2:0:0:
66,287,69612,5,10,0:2:0:0:
149,121,69771,1,2,0:2:0:0:
234,292,69930,6,0,B|247:333|247:333|234:379,1,90.9499972244264,2|0,3:2|3:2,0:2:0:0:
66,287,70247,2,0,B|53:241|53:241|66:200,1,90.9499972244264,10|0,0:2|0:2,0:2:0:0:
243,202,70565,6,0,L|153:214,1,90.9499972244264,2|2,3:2|0:2,0:2:0:0:
58,22,70882,2,0,L|148:33,1,90.9499972244264,10|2,0:2|0:2,0:0:0:0:
315,157,71200,1,2,3:2:0:0:
242,0,71358,2,0,L|230:90,1,90.9499972244264,2|8,3:2|0:2,0:2:0:0:
292,302,71676,6,0,B|387:266|373:334|468:305,1,181.899994448853,2|2,0:2|3:2,0:2:0:0:
374,66,72152,1,10,0:2:0:0:
257,221,72311,1,2,3:2:0:0:
450,111,72470,2,0,P|460:67|449:20,1,90.9499972244264,2|0,3:2|0:2,0:2:0:0:
219,136,72787,2,0,L|309:124,1,90.9499972244264,10|0,0:2|0:2,0:2:0:0:
453,275,73104,5,10,3:2:0:0:
374,66,73263,1,10,3:2:0:0:
374,66,73739,5,10,3:2:0:0:
275,265,73898,1,10,3:2:0:0:
275,265,74216,6,1,B|213:296|164:264|164:264|192:263|217:248,1,170,10|10,3:2|3:2,0:2:0:0:
176,91,74692,2,0,L|165:176,1,85,10|2,3:2|0:2,0:2:0:0:
241,35,75009,1,2,3:2:0:0:
315,187,75168,1,8,0:2:0:0:
315,187,75247,1,8,0:2:0:0:
315,187,75327,2,0,L|309:144,1,42.5,8|8,0:2|0:2,0:0:0:0:
336,61,75485,6,0,B|398:53|398:53|445:82|445:82|509:74,1,181.899994448853,6|2,3:2|3:2,0:2:0:0:
358,265,75962,2,0,P|313:274|269:264,1,90.9499972244264,10|2,0:2|0:2,0:0:0:0:
123,117,76279,1,2,3:2:0:0:
315,187,76438,1,8,0:2:0:0:
137,257,76597,1,8,0:2:0:0:
195,66,76755,6,1,B|255:29|255:29|241:144,1,181.899994448853,6|2,3:2|3:2,0:2:0:0:
411,245,77231,2,0,L|399:154,1,90.9499972244264,10|2,0:2|0:2,0:0:0:0:
216,288,77549,1,2,3:2:0:0:
406,352,77708,1,8,0:2:0:0:
315,187,77866,1,8,0:2:0:0:
255,367,78025,6,1,B|160:396|174:328|79:364,1,181.899994448853,6|2,3:2|3:2,0:2:0:0:
227,198,78501,2,0,L|216:288,1,90.9499972244264,10|0,0:2|0:0,0:2:0:0:
61,141,78819,1,2,3:2:0:0:
131,265,78977,1,8,0:2:0:0:
131,265,79057,1,8,0:2:0:0:
131,265,79136,2,8,L|125:219,2,45.4749986122132,8|8|10,0:2|0:2|0:2,0:2:0:0:
221,88,79454,5,10,3:2:0:0:
38,229,79612,1,10,3:2:0:0:
38,229,79930,6,0,L|43:274,2,45.4749986122132,2|0|10,3:2|3:2|3:2,0:2:0:0:
154,33,80247,1,10,3:2:0:0:
154,33,80723,6,0,B|166:74|166:74|154:114,1,85,4|0,3:2|0:2,0:2:0:0:
32,183,81041,2,1,B|90:176|90:176|134:203|134:203|194:196,1,170,10|0,0:2|3:2,0:2:0:0:
335,259,81518,1,0,0:2:0:0:
277,64,81676,2,0,L|266:149,1,85,10|0,0:2|0:2,0:2:0:0:
413,299,81993,6,0,P|421:257|412:216,1,85,0|0,3:2|0:2,0:2:0:0:
261,307,82311,2,0,P|293:334|333:347,1,85,10|0,0:2|0:2,0:2:0:0:
361,145,82628,1,2,3:2:0:0:
227,227,82787,1,0,3:2:0:0:
412,216,82946,2,0,L|497:205,1,85,10|2,0:2|0:2,0:2:0:0:
342,60,83263,6,0,B|226:45|226:45|184:79,1,170,2|10,3:2|0:2,0:2:0:0:
121,247,83739,1,2,0:2:0:0:
39,89,83898,1,2,3:2:0:0:
215,174,84057,1,2,3:2:0:0:
30,261,84216,2,0,L|41:176,1,85,10|0,0:2|0:2,0:2:0:0:
188,29,84533,6,0,P|146:21|105:30,1,85,2|0,3:2|0:2,0:2:0:0:
225,189,84850,2,0,P|267:197|308:188,1,85,8|0,0:2|0:2,0:2:0:0:
432,22,85168,1,0,3:2:0:0:
265,110,85327,1,0,3:2:0:0:
450,172,85485,1,8,0:2:0:0:
317,13,85644,1,8,0:2:0:0:
317,13,85723,1,8,0:2:0:0:
317,13,85803,1,8,0:2:0:0:
389,292,86120,5,6,3:2:0:0:
256,192,86279,12,0,88343,0:2:0:0:
