osu file format v14

[General]
AudioFilename: audio.mp3
AudioLeadIn: 0
PreviewTime: 55168
Countdown: 0
SampleSet: Soft
StackLeniency: 0.4
Mode: 0
LetterboxInBreaks: 0
WidescreenStoryboard: 1

[Editor]
Bookmarks: 37549,45168
DistanceSpacing: 1.5
BeatDivisor: 4
GridSize: 4
TimelineZoom: 1.6

[Metadata]
Title:Oato ga Yoroshikutte... yo! (TV Size)
TitleUnicode:お後がよろしくって…よ! (TV Size)
Artist:Goku Rakujo-kai
ArtistUnicode:極♨落女会
Creator:browiec
Version:Extra!
Source:じょしらく
Tags:JOSHIRAKU opening 佐倉綾音 南條愛乃 小岩井ことり 後藤沙緒里 山本希望 japanese anime pop jpop j-pop Rakujokai 蕪羅亭魔梨威 Marii Buratei Sakura Ayane 防波亭手寅 Bouhatei Bohatei Tetora Yamamoto Nozomi 波浪浮亭木胡桃 Harokitei Haroukitei Kigurumi Koiwai Kotori 空琉美遊亭丸京 Kuurubiyuutei Gankyou Gankyo Kurubiyutei Nanjo Nanjou Yoshino 暗落亭苦来 Kukuru Anrakutei Gotou Goto Saori akitoshi corinn -laura-
BeatmapID:4508350
BeatmapSetID:2141451

[Difficulty]
HPDrainRate:5.4
CircleSize:3.6
OverallDifficulty:9
ApproachRate:9.2
SliderMultiplier:1.8
SliderTickRate:1

[Events]
//Background and Video events
0,0,"339155.jpg",0,0
//Break Periods
//Storyboard Layer 0 (Background)
//Storyboard Layer 1 (Fail)
//Storyboard Layer 2 (Pass)
//Storyboard Layer 3 (Foreground)
//Storyboard Layer 4 (Overlay)
//Storyboard Sound Samples

[TimingPoints]
724,317.460317460317,4,2,1,60,1,0
724,-111.111111111111,4,2,1,60,0,0
5803,-100,4,2,1,70,0,0
17231,-133.333333333333,4,2,1,50,0,0
27390,-111.111111111111,4,2,1,60,0,0
35009,-100,4,2,1,70,0,0
37549,-133.333333333333,4,2,1,50,0,0
45168,-111.111111111111,4,2,1,60,0,0
50247,-100,4,2,1,70,0,0
55327,-93.4579439252336,4,2,1,75,0,0
73104,-100,4,2,1,70,0,0
75485,-93.4579439252336,4,2,1,75,0,0
80723,-100,4,2,1,70,0,0
88343,-100,4,2,1,5,0,0

[Colours]
Combo1 : 245,146,46
Combo2 : 249,51,51

[HitObjects]
96,51,724,5,14,3:2:0:0:
331,123,882,1,14,3:2:0:0:
331,123,1993,5,14,3:2:0:0:
96,195,2151,1,14,3:2:0:0:
96,195,2946,5,2,0:2:0:0:
471,331,3263,6,0,B|388:320|388:320|323:361|323:361|241:351,1,242.999992584229,14|0,3:2|0:2,0:2:0:0:
344,195,3898,6,0,B|289:166|289:166|301:266,1,161.999995056153,14|0,3:2|0:2,0:2:0:0:
103,372,4374,6,0,L|112:291,1,80.9999975280763,14|0,3:2|0:2,0:2:0:0:
66,137,4692,1,10,3:2:0:0:
210,307,4850,2,0,L|200:226,1,80.9999975280763,10|2,3:2|0:2,0:2:0:0:
276,42,5168,1,14,3:2:0:0:
344,195,5327,5,8,0:2:0:0:
344,195,5406,1,8,0:2:0:0:
344,195,5485,2,0,L|303:190,1,40.4999987640381,8|8,0:2|0:2,0:2:0:0:
192,129,5644,2,0,L|232:124,1,40.4999987640381,8|8,0:2|0:2,0:2:0:0:
400,31,5803,6,0,B|412:74|412:74|400:116,1,90,4|0,3:2|0:2,0:2:0:0:
277,301,6120,6,1,B|370:267|357:333|450:305,1,180,10|0,0:2|3:2,0:2:0:0:
314,157,6597,1,0,0:2:0:0:
215,376,6755,2,0,L|123:364,1,90,10|0,0:2|0:2,0:2:0:0:
191,142,7073,6,0,P|221:174|233:217,1,90,0|0,3:2|0:2,0:2:0:0:
33,360,7390,2,0,P|46:318|77:286,1,90,10|0,0:2|0:2,0:2:0:0:
305,336,7708,1,2,3:2:0:0:
141,220,7866,1,0,3:2:0:0:
318,351,8025,2,0,L|410:339,1,90,10|0,0:2|0:2,0:2:0:0:
244,128,8343,6,0,L|232:220,1,90,0|0,3:2|0:2,0:2:0:0:
449,60,8660,2,1,B|325:75|325:75|280:42,1,180,10|0,0:2|3:2,0:2:0:0:
141,220,9136,1,0,0:2:0:0:
144,13,9295,2,0,L|156:105,1,90,10|0,0:2|0:2,0:2:0:0:
307,259,9612,6,0,P|275:228|232:217,1,90,0|0,3:2|0:2,0:2:0:0:
95,384,9930,2,0,L|187:372,1,90,10|0,0:2|0:2,0:2:0:0:
184,140,10247,1,2,3:2:0:0:
26,289,10406,1,8,3:2:0:0:
140,61,10565,2,0,P|183:49|226:59,1,90,10|0,0:2|0:2,0:2:0:0:
396,247,10882,6,0,L|307:259,1,90,4|0,3:2|0:2,0:2:0:0:
95,383,11200,2,0,P|165:333|246:363,1,180,10|0,0:2|3:2,0:2:0:0:
228,153,11676,1,0,0:2:0:0:
228,153,11835,2,0,L|216:242,1,90,10|0,0:2|0:2,0:2:0:0:
394,381,12152,6,0,B|434:321|434:321|408:217,1,180,2|8,3:2|0:2,0:2:0:0:
512,102,12628,2,1,B|448:92|448:92|402:121|402:121|341:112,1,180,2|0,3:2|3:2,0:2:0:0:
125,99,13104,1,10,0:2:0:0:
310,24,13263,1,2,0:2:0:0:
218,228,13422,6,0,L|206:138,1,90,2|0,3:2|0:2,0:2:0:0:
398,272,13739,1,10,0:2:0:0:
191,317,13898,1,2,0:2:0:0:
341,165,14057,1,2,3:2:0:0:
377,384,14216,1,2,3:2:0:0:
218,228,14374,2,0,L|128:216,1,90,10|0,0:2|0:2,0:2:0:0:
397,94,14692,6,0,B|516:79|516:79|489:97|474:121,2,180,2|8|0,3:2|0:2|3:2,0:2:0:0:
291,307,15485,1,0,3:2:0:0:
197,44,15644,2,0,B|184:85|184:85|197:129,1,90,8|0,0:2|0:2,0:2:0:0:
420,236,15962,6,0,L|330:224,1,90,4|0,3:2|3:2,0:2:0:0:
140,218,16279,1,8,0:2:0:0:
299,111,16438,1,8,0:2:0:0:
235,292,16597,2,0,L|240:336,2,45,0|8|8,3:2|0:2|0:2,0:0:0:0:
182,108,16914,1,8,0:2:0:0:
330,224,17073,5,8,0:2:0:0:
330,224,17152,1,8,0:2:0:0:
330,224,17231,2,0,L|464:206,1,135.000005149842,4|10,3:2|0:2,0:2:0:0:
498,122,17708,1,2,0:2:0:0:
498,122,17866,2,0,P|439:91|375:108,1,135.000005149842,2|10,3:2|0:2,0:2:0:0:
310,172,18343,6,0,B|325:256|325:256|299:300,1,135.000005149842,2|2,3:2|3:2,0:2:0:0:
238,365,18819,2,0,L|171:356,1,67.5000025749208,10|2,0:2|0:2,0:2:0:0:
102,299,19136,1,2,3:2:0:0:
102,299,19295,1,2,3:2:0:0:
186,268,19454,2,0,L|252:276,1,67.5000025749208,8|0,0:2|0:2,0:2:0:0:
370,213,19771,5,0,3:2:0:0:
271,137,19929,1,0,3:2:0:0:
271,137,20089,2,0,L|204:145,1,67.5000025749208,10|2,0:2|0:2,0:2:0:0:
129,200,20406,2,0,P|112:135|142:77,1,135.000005149842,2|10,3:2|0:2,0:2:0:0:
218,28,20882,6,0,B|263:33|263:33|301:15|301:15|347:21,1,135.000005149842,2|2,3:2|3:2,0:2:0:0:
385,118,21358,2,0,L|318:109,1,67.5000025749208,10|2,0:2|0:2,0:2:0:0:
234,143,21676,1,2,3:2:0:0:
234,143,21835,1,2,3:2:0:0:
305,200,21993,2,0,L|371:208,1,67.5000025749208,8|0,0:2|0:2,0:2:0:0:
473,289,22311,5,0,3:2:0:0:
361,350,22470,1,0,3:2:0:0:
361,350,22628,2,0,L|293:342,1,67.5000025749208,10|2,0:2|0:2,0:2:0:0:
231,275,22946,2,0,B|159:253|170:296|98:277,1,135.000005149842,2|10,3:2|0:2,0:2:0:0:
28,219,23422,1,2,0:2:0:0:
139,152,23581,5,0,3:2:0:0:
27,80,23739,1,2,3:2:0:0:
27,80,23898,2,0,L|95:72,1,67.5000025749208,10|0,0:2|0:2,0:2:0:0:
152,0,24216,2,0,P|173:25|185:57,1,67.5000025749208,2|0,3:2|3:2,0:0:0:0:
277,70,24533,2,0,P|265:101|244:127,1,67.5000025749208,10|0,0:2|0:2,0:2:0:0:
178,189,24850,6,0,L|191:296,1,101.250003862381,2|0,3:2|0:2,0:2:0:0:
224,305,25168,2,0,L|216:373,1,67.5000025749208,10|0,0:2|0:2,0:2:0:0:
307,367,25485,2,0,B|398:355|398:355|437:376,1,135.000005149842,2|10,3:2|0:2,0:2:0:0:
504,315,25962,6,0,L|512:247,1,67.5000025749208,2|0,3:2|0:2,0:2:0:0:
439,194,26279,1,2,3:2:0:0:
439,194,26438,2,0,L|431:126,1,67.5000025749208,10|0,3:2|0:2,0:2:0:0:
367,63,26755,1,2,3:2:0:0:
367,63,27073,6,0,B|334:53|334:53|302:63,1,67.5000025749208,10|0,3:2|0:2,0:2:0:0:
191,231,27390,6,1,B|248:223|248:223|289:245|289:245|345:239,1,161.999995056153,6|10,3:2|0:2,0:2:0:0:
232,318,27866,1,2,0:2:0:0:
309,152,28025,2,0,L|388:142,1,80.9999975280763,2|0,3:2|0:2,0:2:0:0:
346,239,28343,1,10,0:2:0:0:
271,70,28501,6,0,B|163:56|163:56|119:91,1,161.999995056153,2|2,3:2|3:2,0:2:0:0:
107,262,28977,1,10,0:2:0:0:
31,123,29136,1,2,0:2:0:0:
189,189,29295,1,2,3:2:0:0:
21,218,29454,1,2,3:2:0:0:
185,306,29612,2,0,L|264:296,1,80.9999975280763,10|0,0:2|0:2,0:2:0:0:
410,126,29930,6,0,B|465:96|465:96|453:194,1,161.999995056153,2|10,3:2|0:2,0:2:0:0:
385,326,30406,1,2,0:2:0:0:
322,147,30565,2,0,L|332:226,1,80.9999975280763,2|0,3:2|0:2,0:2:0:0:
277,364,30882,1,10,0:2:0:0:
195,215,31041,6,0,B|138:207|138:207|97:229|97:229|41:223,1,161.999995056153,2|2,3:2|3:2,0:2:0:0:
115,119,31517,1,10,0:2:0:0:
156,301,31676,1,2,0:2:0:0:
265,159,31835,1,2,3:2:0:0:
81,227,31993,1,2,3:2:0:0:
260,320,32152,2,0,L|339:310,1,80.9999975280763,10|0,0:2|0:2,0:2:0:0:
500,168,32470,6,0,P|433:126|359:150,1,161.999995056153,2|10,3:2|0:2,0:2:0:0:
213,237,32946,1,2,0:2:0:0:
254,78,33104,2,0,L|265:159,1,80.9999975280763,2|0,3:2|0:2,0:2:0:0:
135,94,33422,1,10,0:2:0:0:
322,19,33581,6,0,B|406:-12|394:48|478:22,1,161.999995056153,2|2,3:2|3:2,0:2:0:0:
363,181,34057,2,0,P|355:141|363:102,1,80.9999975280763,10|0,0:2|0:2,0:2:0:0:
484,297,34374,2,0,P|453:270|415:257,1,80.9999975280763,2|0,3:2|0:2,0:2:0:0:
255,304,34692,2,0,P|293:291|324:265,1,80.9999975280763,10|0,0:2|0:2,0:2:0:0:
175,99,35009,5,6,3:2:0:0:
126,309,35168,1,2,3:2:0:0:
267,141,35327,1,8,0:2:0:0:
31,212,35485,5,6,3:2:0:0:
256,305,35644,1,2,3:2:0:0:
67,125,35803,1,8,0:2:0:0:
266,320,35962,6,0,B|330:312|330:312|375:339|375:339|437:332,1,180,6|0,3:2|0:2,0:2:0:0:
512,132,36438,5,0,3:2:0:0:
448,318,36597,1,8,0:2:0:0:
338,129,36755,1,0,3:2:0:0:
338,129,36835,1,0,3:2:0:0:
338,129,36914,2,0,L|349:220,1,90,10|8,0:2|3:2,0:0:0:0:
177,302,37231,2,0,L|188:210,1,90,2|0,3:2|3:2,0:0:0:0:
258,61,37549,38,1,B|186:39|197:82|125:63,1,135.000005149842,6|2,3:2|0:2,0:2:0:0:
41,33,38025,1,0,3:2:0:0:
41,33,38184,2,0,P|35:65|40:98,1,67.5000025749208,10|0,0:2|0:2,0:2:0:0:
112,155,38501,1,2,0:2:0:0:
35,256,38660,5,0,3:2:0:0:
35,256,38739,1,0,3:2:0:0:
35,256,38819,1,2,3:2:0:0:
108,309,38977,2,0,B|197:298|197:298|237:319,1,135.000005149842,8|0,0:2|3:2,0:2:0:0:
331,306,39454,2,0,L|323:374,1,67.5000025749208,10|0,0:2|0:2,0:2:0:0:
413,384,39771,2,0,L|421:316,1,67.5000025749208,2|0,0:2|0:2,0:2:0:0:
383,195,40089,6,0,B|335:188|335:188|297:206|297:206|252:201,1,135.000005149842,2|2,3:2|0:2,0:2:0:0:
192,134,40565,1,0,3:2:0:0:
248,63,40723,1,10,0:2:0:0:
248,63,40882,2,0,L|316:55,1,67.5000025749208,2|0,0:2|0:2,0:2:0:0:
433,30,41200,5,2,3:2:0:0:
433,30,41279,1,0,3:2:0:0:
433,30,41358,2,0,P|411:54|399:85,1,67.5000025749208,2|8,3:2|0:2,0:2:0:0:
362,204,41676,2,0,P|351:173|330:147,1,67.5000025749208,2|0,0:2|3:2,0:2:0:0:
206,228,41993,2,0,L|274:220,1,67.5000025749208,10|0,0:2|3:2,0:0:0:0:
332,290,42311,1,2,3:2:0:0:
268,354,42470,5,0,3:2:0:0:
268,354,42549,1,0,3:2:0:0:
268,354,42628,2,0,L|134:337,1,135.000005149842,6|2,3:2|0:2,0:2:0:0:
49,371,43104,1,0,3:2:0:0:
49,371,43263,2,0,P|43:337|49:304,1,67.5000025749208,10|0,0:2|0:2,0:2:0:0:
120,247,43581,1,2,0:2:0:0:
42,155,43739,5,0,3:2:0:0:
42,155,43819,1,0,3:2:0:0:
42,155,43898,1,2,3:2:0:0:
98,85,44057,2,0,P|163:68|221:98,1,135.000005149842,8|0,0:2|3:2,0:2:0:0:
289,214,44533,2,0,L|297:146,1,67.5000025749208,10|0,0:2|0:2,0:2:0:0:
330,24,44850,1,8,0:2:0:0:
330,24,45168,6,0,B|387:16|387:16|428:38|428:38|484:32,2,161.999995056153,6|8|0,3:2|0:2|3:2,0:2:0:0:
224,139,45962,1,0,3:2:0:0:
224,139,46120,2,0,L|145:129,1,80.9999975280763,10|2,0:2|0:2,0:2:0:0:
8,281,46438,5,2,3:2:0:0:
200,228,46597,1,2,0:2:0:0:
27,147,46755,1,10,0:2:0:0:
119,314,46914,2,0,L|109:235,1,80.9999975280763,2|0,0:2|3:2,0:2:0:0:
298,184,47231,1,0,3:2:0:0:
298,184,47390,2,0,L|288:263,1,80.9999975280763,10|0,0:2|0:2,0:2:0:0:
143,65,47708,6,0,P|196:91|257:79,1,121.499996292114,6|0,3:2|0:2,0:2:0:0:
278,49,48025,2,0,L|357:39,1,80.9999975280763,10|0,0:2|0:2,0:2:0:0:
449,182,48343,1,2,3:2:0:0:
502,25,48501,1,0,3:2:0:0:
328,140,48660,2,0,L|338:220,1,80.9999975280763,10|0,0:2|0:2,0:2:0:0:
512,352,48977,6,0,L|391:336,1,121.499996292114,6|0,3:2|0:2,0:2:0:0:
367,312,49295,2,0,L|286:322,1,80.9999975280763,8|0,0:2|0:2,0:2:0:0:
159,177,49612,2,0,L|239:187,1,80.9999975280763,2|0,3:2|3:2,0:0:0:0:
141,384,49930,1,8,0:2:0:0:
57,212,50089,1,2,3:2:0:0:
245,335,50247,6,0,B|288:347|288:347|331:335,1,90,12|0,0:2|0:2,0:2:0:0:
319,98,50565,5,8,0:2:0:0:
173,281,50723,1,0,3:2:0:0:
99,50,50882,5,8,0:2:0:0:
256,241,51041,1,0,3:2:0:0:
200,0,51200,2,0,L|188:92,1,90,8|0,0:2|3:2,0:0:0:0:
245,335,51517,5,8,0:2:0:0:
109,143,51676,1,0,3:2:0:0:
374,186,51835,5,8,0:2:0:0:
155,291,51993,1,0,3:2:0:0:
288,26,52152,5,10,3:2:0:0:
329,298,52311,1,10,3:2:0:0:
188,89,52470,1,0,3:2:0:0:
482,197,52628,6,0,P|412:147|331:177,1,180,14|0,3:2|3:2,0:2:0:0:
182,378,53104,5,8,0:2:0:0:
399,238,53263,1,0,3:2:0:0:
85,187,53422,5,8,0:2:0:0:
329,298,53581,1,0,3:2:0:0:
197,65,53739,5,8,0:2:0:0:
103,315,53898,1,0,3:2:0:0:
289,53,54057,5,10,3:2:0:0:
195,325,54216,1,8,3:2:0:0:
99,42,54374,1,0,3:2:0:0:
99,42,54454,1,0,3:2:0:0:
99,42,54533,2,0,L|105:88,1,45,0|0,3:2|3:2,0:2:0:0:
388,223,54692,5,10,3:2:0:0:
86,328,54850,1,8,3:2:0:0:
86,328,55327,6,1,B|222:344|222:344|265:310,1,192.599994122315,6|10,3:2|0:2,0:2:0:0:
460,179,55803,1,2,0:2:0:0:
338,366,55962,1,2,3:2:0:0:
247,171,56120,2,0,L|258:75,1,96.2999970611573,2|8,3:2|0:2,0:2:0:0:
423,330,56438,6,0,P|350:274|265:309,1,192.599994122315,2|2,0:2|0:2,0:2:0:0:
64,218,56914,2,0,L|159:206,1,96.2999970611573,10|2,0:2|0:2,0:2:0:0:
334,16,57231,1,2,3:2:0:0:
138,113,57390,1,2,3:2:0:0:
348,8,57549,2,0,L|336:103,1,96.2999970611573,10|0,0:2|0:2,0:2:0:0:
177,318,57866,6,0,P|211:283|259:271,1,96.2999970611573,2|2,3:2|0:2,0:2:0:0:
425,358,58184,2,0,P|378:344|343:310,1,96.2999970611573,10|2,0:2|0:2,0:2:0:0:
275,74,58501,1,2,3:2:0:0:
427,266,58660,1,2,3:2:0:0:
372,26,58819,2,0,L|360:121,1,96.2999970611573,10|2,0:2|0:2,0:0:0:0:
253,339,59136,5,2,3:2:0:0:
172,92,59295,1,2,0:2:0:0:
72,345,59454,5,10,0:2:0:0:
162,106,59612,1,2,0:2:0:0:
264,352,59771,6,0,B|308:365|308:365|356:352,1,96.2999970611573,2|0,3:2|3:2,0:2:0:0:
511,210,60089,2,0,B|466:223|466:223|418:210,1,96.2999970611573,10|0,0:2|0:2,0:2:0:0:
221,21,60406,6,0,L|316:9,1,96.2999970611573,2|2,3:2|0:2,0:2:0:0:
237,240,60723,1,10,0:2:0:0:
119,38,60882,1,2,0:2:0:0:
356,134,61041,1,2,3:2:0:0:
127,216,61200,2,0,L|31:204,1,96.2999970611573,2|8,3:2|0:2,0:2:0:0:
296,340,61517,6,0,B|396:302|383:375|484:344,1,192.599994122315,2|0,0:2|0:2,0:2:0:0:
217,293,61993,2,0,P|203:339|217:387,1,96.2999970611573,10|0,0:2|0:2,0:2:0:0:
449,176,62311,1,2,3:2:0:0:
296,340,62470,1,0,3:2:0:0:
348,112,62628,2,0,L|360:208,1,96.2999970611573,10|0,0:2|0:2,0:2:0:0:
134,89,62946,5,2,3:2:0:0:
217,293,63104,1,2,0:2:0:0:
243,47,63263,1,10,0:2:0:0:
132,258,63422,1,2,0:2:0:0:
52,20,63581,1,2,3:2:0:0:
265,157,63739,1,2,3:2:0:0:
15,217,63898,1,10,0:2:0:0:
243,47,64057,6,0,B|370:31|370:31|341:46|327:77,1,192.599994122315,2|2,3:2|3:2,0:2:0:0:
269,258,64533,1,10,0:2:0:0:
154,74,64692,1,2,0:2:0:0:
348,212,64850,2,0,P|393:225|439:215,1,96.2999970611573,2|8,3:2|0:2,0:0:0:0:
467,191,65089,1,8,0:2:0:0:
467,191,65168,2,0,L|472:143,1,48.1499985305787,8|8,0:2|0:2,0:2:0:0:
367,14,65327,2,0,L|372:61,1,48.1499985305787,8|8,0:2|0:2,0:2:0:0:
266,167,65485,6,1,B|197:157|197:157|148:187|148:187|82:178,1,192.599994122315,6|10,3:2|0:2,0:2:0:0:
197,334,65962,1,2,0:2:0:0:
10,242,66120,1,2,3:2:0:0:
280,291,66279,2,0,P|290:337|277:383,1,96.2999970611573,2|8,3:2|0:2,0:2:0:0:
83,178,66597,6,0,B|198:192|198:192|231:168|231:122,1,192.599994122315,2|2,0:2|0:2,0:2:0:0:
380,0,67073,2,0,L|368:96,1,96.2999970611573,10|2,0:2|0:2,0:0:0:0:
412,306,67390,1,2,3:2:0:0:
499,126,67549,1,2,3:2:0:0:
287,227,67708,2,0,L|383:215,1,96.2999970611573,10|0,0:2|0:2,0:2:0:0:
215,1,68025,6,0,P|183:35|171:82,1,96.2999970611573,2|2,3:2|0:2,0:0:0:0:
287,227,68343,2,0,P|272:182|238:148,1,96.2999970611573,10|2,0:2|0:2,0:0:0:0:
32,271,68660,1,2,3:2:0:0:
252,344,68819,1,2,3:2:0:0:
107,146,68977,1,10,0:2:0:0:
83,373,69136,1,2,0:2:0:0:
300,212,69295,5,2,3:2:0:0:
32,271,69454,1,2,0:2:0:0:
291,362,69612,5,10,0:2:0:0:
21,283,69771,1,2,0:2:0:0:
288,195,69930,6,0,B|336:182|336:182|380:195,1,96.2999970611573,2|0,3:2|3:2,0:2:0:0:
175,373,70247,2,0,B|131:386|131:386|83:373,1,96.2999970611573,10|0,0:2|0:2,0:2:0:0:
179,96,70565,6,0,L|191:192,1,96.2999970611573,2|2,3:2|0:2,0:2:0:0:
318,374,70882,1,10,0:2:0:0:
397,178,71041,1,2,0:2:0:0:
210,289,71200,1,2,3:2:0:0:
417,335,71358,2,0,L|513:323,1,96.2999970611573,2|8,3:2|0:2,0:2:0:0:
337,105,71676,6,0,B|272:68|272:68|286:185,1,192.599994122315,2|2,0:2|3:2,0:2:0:0:
191,379,72152,1,10,0:2:0:0:
80,183,72311,1,2,3:2:0:0:
305,300,72470,2,0,L|209:288,1,96.2999970611573,2|0,3:2|0:2,0:2:0:0:
37,101,72787,2,0,P|83:91|129:104,1,96.2999970611573,10|0,0:2|0:2,0:2:0:0:
305,300,73104,5,10,3:2:0:0:
409,58,73263,1,10,3:2:0:0:
409,58,73739,5,10,3:2:0:0:
167,187,73898,1,10,3:2:0:0:
167,187,74216,54,1,B|219:188|248:155|248:155|280:188|328:188,1,180,10|10,3:2|3:2,0:2:0:0:
309,5,74692,2,0,L|320:95,1,90,10|2,3:2|0:2,0:2:0:0:
405,290,75009,1,2,3:2:0:0:
512,101,75168,1,8,0:2:0:0:
512,101,75247,1,8,0:2:0:0:
512,101,75327,2,0,L|506:145,1,45,8|8,0:2|0:2,0:0:0:0:
328,188,75485,6,0,B|259:178|259:178|210:208|210:208|144:199,1,192.599994122315,6|2,3:2|3:2,0:2:0:0:
307,382,75962,1,10,0:2:0:0:
423,196,76120,1,2,0:2:0:0:
237,318,76279,1,2,3:2:0:0:
462,281,76438,1,8,0:2:0:0:
254,143,76597,1,8,0:2:0:0:
307,382,76755,6,1,B|352:325|352:325|317:206,1,192.599994122315,6|2,3:2|3:2,0:2:0:0:
88,137,77231,1,10,0:2:0:0:
308,59,77390,1,2,0:2:0:0:
212,242,77549,1,2,3:2:0:0:
106,42,77708,1,8,0:2:0:0:
203,258,77866,1,8,0:2:0:0:
320,44,78025,6,1,B|420:6|407:79|508:48,1,192.599994122315,6|2,3:2|3:2,0:2:0:0:
393,250,78501,2,0,L|298:239,1,96.2999970611573,10|0,0:2|0:0,0:2:0:0:
88,137,78819,1,2,3:2:0:0:
209,323,78977,1,8,0:2:0:0:
209,323,79057,1,8,0:2:0:0:
209,323,79136,2,8,L|214:275,1,48.1499985305787,8|8,0:2|0:2,0:2:0:0:
254,109,79295,2,0,L|259:156,1,48.1499985305787,10|8,0:2|0:2,0:2:0:0:
333,379,79454,5,10,3:2:0:0:
421,136,79612,1,10,3:2:0:0:
421,136,79930,6,0,L|468:130,2,48.1499985305787,2|0|10,3:2|3:2|3:2,0:2:0:0:
209,323,80247,1,10,3:2:0:0:
209,323,80723,6,0,B|166:335|166:335|122:322,1,90,4|0,3:2|0:2,0:2:0:0:
294,126,81041,6,1,B|387:92|374:158|467:130,1,180,10|0,0:2|3:2,0:2:0:0:
339,326,81518,1,0,0:2:0:0:
214,170,81676,2,0,P|202:126|212:83,1,90,10|0,0:2|0:2,0:2:0:0:
426,242,81993,6,0,L|334:230,1,90,0|0,3:2|0:2,0:2:0:0:
167,384,82311,2,0,L|259:372,1,90,10|0,0:2|0:2,0:2:0:0:
294,126,82629,1,2,3:2:0:0:
184,290,82787,1,0,3:2:0:0:
307,108,82946,2,0,L|399:120,1,90,10|2,0:2|0:2,0:2:0:0:
128,1,83263,6,0,P|118:45|128:88,1,90,2|0,3:2|0:2,0:2:0:0:
299,235,83581,1,10,0:2:0:0:
209,43,83739,1,2,0:2:0:0:
119,221,83898,1,2,3:2:0:0:
291,86,84057,1,2,3:2:0:0:
163,301,84216,2,0,P|119:311|76:301,1,90,10|0,0:2|0:2,0:2:0:0:
7,57,84533,6,0,L|99:45,1,90,2|0,3:2|0:2,0:2:0:0:
299,235,84850,2,0,L|210:224,1,90,8|0,0:2|0:2,0:2:0:0:
345,17,85168,1,0,3:2:0:0:
389,239,85327,1,0,3:2:0:0:
255,6,85485,1,8,0:2:0:0:
467,186,85644,1,8,0:2:0:0:
467,186,85723,1,8,0:2:0:0:
467,186,85803,1,8,0:2:0:0:
117,317,86120,5,6,3:2:0:0:
256,192,86279,12,0,88343,0:2:0:0:
